
//----- mcode: lste -----
#TITLE:Every Little Step;
#ARTIST:Bobby Brown;
#BANNER:Every Little Step.png;
#BACKGROUND:Every Little Step-bg.png;
#CDTITLE:./CDTitles/DDR SuperNOVA2 PS2 US.png;
#MUSIC:Every Little Step.ogg;
#SAMPLESTART:51.175;
#SAMPLELENGTH:15;
#DISPLAYBPM:98;
#BPMS:0=97.8,4=98.361,6=97.826,8=98.901,9=97.826,12=98.684,17=98.361,19=95.745,20=98.361,22=97.826,24=98.901,25=97.826,27=98.901,28=98.361,32=98.14;

//---------------dance-single - ----------------
#NOTES:
     dance-single:
     :
     Beginner:
     1:
     :
0000
0000
0000
0000
,
0000
0000
0000
0000
,
0000
0000
0000
0000
,
0000
0000
0000
0000
,
0000
0000
0000
0000
,
1000
0000
0000
0000
,
1000
0000
0000
0000
,
0001
0000
0000
0000
,
0001
0000
0000
0000
,
0010
0000
0010
0000
,
0100
0000
0100
0000
,
0001
0000
1000
0000
,
0001
0001
0001
0000
,
0100
0000
0100
0000
,
0010
0000
0010
0000
,
1000
0000
0001
0000
,
1000
1000
1000
0000
,
0001
0000
0010
0000
,
1000
0000
0100
0000
,
1000
0000
0001
0000
,
0100
0000
0100
0000
,
0010
0010
0010
0000
,
1000
0000
0100
0000
,
0001
0001
0001
0000
,
0010
0000
0100
0000
,
1000
1000
1000
0000
,
0001
0000
0010
0000
,
0100
0100
0100
0000
,
1000
0000
1000
0000
,
0100
0000
0001
0000
,
0010
0010
0000
0000
,
0100
0000
1000
0000
,
0001
0001
0001
0000
,
0010
0000
1000
0000
,
0100
0100
0000
0000
,
0001
0000
0000
0000
;

//---------------dance-single - ----------------
#NOTES:
     dance-single:
     :
     Easy:
     2:
     :
0000
0000
0000
0000
,
0000
0000
0000
0000
,
0000
0000
0000
0000
,
0000
0000
0000
0000
,
0000
0000
0000
0000
,
1000
0000
1000
0000
,
0001
0000
0001
0000
,
0010
0000
0100
0000
,
1000
1000
0001
0001
,
0010
0000
0001
0000
,
0100
0000
1000
0000
,
0001
0000
0100
0000
,
0001
1000
0001
0000
,
0100
0000
0010
0000
,
0001
0000
0100
0000
,
1000
0000
0010
0000
,
1000
0001
1000
0000
,
0001
0001
0010
0000
,
1000
1000
0100
0000
,
0010
0010
0100
0100
,
0001
1000
0001
1001
,
0010
1000
0010
0000
,
1000
0000
0100
0000
,
0001
0010
0001
0000
,
0010
0000
0100
0000
,
1000
0001
1000
0000
,
0001
0000
0010
0000
,
0100
1000
0100
0000
,
0001
0001
1000
1000
,
0100
0000
0001
0000
,
0010
0010
0001
0000
,
0100
0000
1000
0000
,
0001
1000
0001
0000
,
0010
0000
1000
0000
,
0100
0100
1000
0000
,
0001
0000
0000
0000
;

//---------------dance-single - ----------------
#NOTES:
     dance-single:
     :
     Medium:
     3:
     :
0000
0000
0000
0000
,
0000
0000
0000
0000
,
0000
0000
0000
0000
,
0010
0000
0100
0000
,
1000
0010
0001
0000
,
1000
1000
0001
0001
,
0010
0001
0010
0100
,
0001
0100
1000
0100
,
0010
0001
0100
1000
,
0010
0100
0010
0000
,
0010
0001
0100
1001
,
0010
0100
1000
0001
,
1000
0010
0101
0000
,
1000
0010
0100
0000
,
0100
1000
0010
1001
,
0010
1000
0100
0001
,
0010
0100
1010
0000
,
0001
0100
0010
1000
,
0100
0010
0001
0100
,
0010
1001
0100
1001
,
0010
0100
0010
1001
,
0010
0001
0101
0000
,
0100
1000
0010
0100
,
0010
1000
0110
0000
,
0100
1000
0010
0100
,
1000
0001
1001
0000
,
0001
1000
0010
1000
,
0100
0010
1100
0000
,
0100
1000
0001
1000
,
0100
0010
1000
0010
,
0100
1000
0110
0000
,
1000
0001
0100
1000
,
0010
1000
0101
0000
,
0010
0100
1000
0100
,
0001
1000
0010
1000
,
0001
0000
0000
0000
;

//---------------dance-single - ----------------
#NOTES:
     dance-single:
     :
     Hard:
     6:
     :
0000
0000
0000
0000
,
0000
0000
0000
0000
,
0000
0000
0000
0000
,
0010
0010
1000
0001
0100
0000
0001
0000
,
1000
0010
0001
0100
,
1000
1000
0100
0001
0010
0000
0100
0000
,
0010
0010
0001
1000
0010
0000
0100
0000
,
0001
0100
0001
0000
1000
0100
1000
0000
,
0010
0001
0100
1000
,
0010
1000
0100
0000
0010
0001
0100
0000
,
0010
0100
0001
0010
0100
0000
1001
0000
,
0010
0100
1000
0001
,
1000
0100
0010
0100
1000
0000
0101
0000
,
1000
0001
0010
0000
0100
1000
0001
0000
,
0100
0010
1000
0100
0010
0000
1001
0000
,
0010
1000
0100
0001
,
0010
0001
0100
0001
0010
0000
1100
0000
,
0001
0001
0100
0000
0010
0000
1000
0000
,
0100
0100
0010
0000
0001
0000
0100
0000
,
0010
1000
0101
0000
0010
0001
1100
0000
,
0001
0001
1000
1000
0001
1000
1001
0000
,
0010
1000
0001
0100
0101
0000
0010
0000
,
0100
0000
1000
0000
0010
1000
0100
0000
,
0010
0100
1000
0010
0110
0000
0001
0000
,
1000
0000
0100
0000
0010
0001
0100
0000
,
1000
0100
0001
0010
1001
0000
0010
0000
,
0001
0000
0100
0000
0010
0100
1000
0000
,
0100
0001
0010
0100
1100
0000
0010
0000
,
0100
0000
1000
0000
0001
1000
1001
0000
,
0100
0010
0100
0000
1000
0000
0010
0000
,
0100
0001
1000
0001
0010
0000
0100
0000
,
1000
0001
1000
0000
0100
0000
1000
0000
,
0010
0100
1000
0010
0100
0100
0001
0000
,
0010
0001
0100
0000
1000
0000
0100
0000
,
0001
0010
1000
0001
0100
0000
1000
0000
,
0001
0000
0000
0000
;

//---------------dance-double - ----------------
#NOTES:
     dance-double:
     :
     Easy:
     2:
     :
00000000
00000000
00000000
00000000
,
00000000
00000000
00000000
00000000
,
00000000
00000000
00000000
00000000
,
00000000
00000000
00000000
00000000
,
00000000
00000000
00000000
00000000
,
10000000
01000000
00010000
00000000
,
00001000
00000100
00000001
00000000
,
00000010
00000000
00000100
00000000
,
00000001
00000001
00001000
00001000
,
00000010
00001000
00010000
00000000
,
01000000
10000000
00010000
00000000
,
00100000
00000000
01000000
00000000
,
00010000
10000000
00010000
00000000
,
01000000
00010000
00001000
00000000
,
00000100
00000001
00000010
00000000
,
00001000
00000000
00000100
00000000
,
00001000
00010000
00001000
00000000
,
00010000
00010000
00100000
00000000
,
10000000
10000000
01000000
00000000
,
00100000
00100000
01000000
01000000
,
00010000
00001000
00000010
00001001
,
00000100
00000001
00001000
00000000
,
00000010
00000010
00001000
00001000
,
00010000
00100000
00010000
00000000
,
01000000
01000000
00100000
00100000
,
10000000
01000000
00010000
00000000
,
00001000
00001000
00000010
00000010
,
00000100
00001000
00000010
00000000
,
00000001
00001000
00000001
00001000
,
00000100
00000100
00001000
00000000
,
00010000
00100000
00010000
00000000
,
00100000
00100000
10000000
00000000
,
01000000
00010000
00001000
00011000
,
00000010
00000010
00000001
00000000
,
00000100
00001000
00010000
00000000
,
00100000
00000000
00000000
00000000
;

//---------------dance-double - ----------------
#NOTES:
     dance-double:
     :
     Medium:
     4:
     :
00000000
00000000
00000000
00000000
,
00000000
00000000
00000000
00000000
,
00000000
00000000
00000000
00000000
,
00000010
00000000
00000100
00000000
,
00000001
00000010
00001000
00010000
,
00100000
10000000
01000000
00000000
,
00100000
10000000
00100000
01000000
,
00010000
00001000
00000010
00000000
,
00000001
00001000
00000001
00001001
,
00000010
00000100
00001000
00000000
,
00010000
01000000
00100000
10010000
,
00100000
00010000
01000000
00010000
,
00001000
00000000
00000010
00000000
00000100
00000100
00000001
00000000
,
00000010
00000001
00001000
00000000
,
00010000
00100000
10000000
01100000
,
00100000
10000000
01000000
00010000
,
00001000
00000000
00000010
00000000
00000001
00000001
00000100
00000000
,
00001000
00000100
00000010
00000001
,
00000100
00001000
00010000
00100000
,
10000000
10000000
01000000
00000000
10000000
10000000
00100000
00000000
,
00010000
00000000
00001000
00000000
00010000
00010000
00001000
00000000
,
00000010
00000001
00001100
00000000
,
00000100
00000001
00000010
00001000
,
00010000
00100000
10010000
00000000
,
01000000
00000000
00010000
00000000
00100000
00100000
00010000
00000000
,
00001000
00000100
00000101
00000000
,
00001000
00000001
00000010
00000001
,
00000100
00001000
00011000
00000000
,
00100000
00000000
00100000
00000000
01000000
01000000
00100000
00000000
,
10000000
00100000
00010000
00001000
,
00000010
00000001
00001100
00000000
,
00000001
00001000
00000010
00000100
,
00001000
00000000
00010000
00000000
00100000
00100000
01000000
00000000
,
00100000
10000000
01000000
00010000
,
00001000
00000010
00000001
00000100
,
00001000
00000000
00000000
00000000
;

//---------------dance-double - ----------------
#NOTES:
     dance-double:
     :
     Hard:
     6:
     :
00000000
00000000
00000000
00000000
,
00000000
00000000
00000000
00000000
,
00000000
00000000
00000000
00000000
,
01000000
01000000
00010000
10000000
00100000
00000000
00010000
00000000
,
00001000
00000100
00000001
00000010
,
00000001
00000001
00000010
00000001
00001000
00000000
00000010
00000000
,
00000100
00000100
00001000
00010000
01000000
00000000
10000000
00000000
,
00100000
10000000
00100000
00000000
01000000
00010000
01000000
00000000
,
00100000
10010000
00011000
00001001
,
00000100
00000001
00000010
00000000
00000100
00001000
00000001
00000000
,
00000100
00001000
00010000
01000000
00100000
00000000
10010000
00000000
,
00100000
01000000
00010000
10000000
,
01000000
00010000
00001000
00010000
01000000
00000000
00110000
00000000
,
00001000
00000100
00000001
00000000
00000010
00000001
00001000
00000000
,
00000010
00000100
00000001
00000010
00001000
00000000
00011000
00000000
,
01000000
00100000
00010000
10000000
,
00100000
01000000
00010000
01000000
00100000
00000000
11000000
00000000
,
00010000
00001000
00000010
00000000
00001000
00010000
00100000
00000000
,
10000000
01000000
00010000
00000000
00001000
00000000
00000100
00000000
,
00000001
00000010
00000011
00000000
00001000
00000010
00001010
00000000
,
00000100
00000100
00001000
00001000
00010000
01000000
10010000
00000000
,
01000000
00010000
10000000
00100000
10100000
00000000
01000000
00000000
,
00010000
00000000
00001000
00000000
00000010
00000001
00001000
00000000
,
00000010
00000100
00001000
00010000
00011000
00000000
00100000
00000000
,
10000000
00000000
00010000
00000000
00100000
01000000
10000000
00000000
,
00100000
00010000
00001000
00000010
00000110
00000000
00000001
00000000
,
00001000
00000000
00000010
00000000
00000100
00000001
00000010
00000000
,
00001000
00010000
00100000
10000000
11000000
00000000
00100000
00000000
,
00010000
00000000
10000000
00000000
00100000
00010000
00011000
00000000
,
00000010
00000001
00001000
00000000
00000001
00000000
00000100
00000000
,
00001000
00010000
00100000
00010000
00001000
00000000
00010000
00000000
,
01000000
10000000
00010000
00000000
00100000
00000000
00010000
00000000
,
01000000
10010000
00011000
00001001
,
00000010
00001000
00000100
00000000
00001000
00000000
00000001
00000000
,
00000100
00001000
00010000
00100000
10000000
00000000
01000000
00000000
,
00100000
00000000
00000000
00000000
;
