
//----- song ID: leav -----//
#TITLE:LEAVE ME ALONE;
#ARTIST:TUT1026;
#BANNER:LEAVE ME ALONE.png;
#BACKGROUND:LEAVE ME ALONE-bg.png;
#CDTITLE:./CDTITLES/Dance Dance Revolution SuperNOVA2.png;
#MUSIC:LEAVE ME ALONE.ogg;
#SAMPLESTART:18.621;
#SAMPLELENGTH:15;
#BPMS:0=116;

//---------------dance-single - ----------------
#NOTES:
     dance-single:
     :
     Beginner:
     1:
     :
0000
0000
0000
0000
,
0000
0000
0000
0000
,
0000
0000
0000
0000
,
0000
0000
0000
0000
,
0000
0000
0000
0000
,
0001
0000
0000
0000
,
0100
0000
0000
0000
,
0010
0000
0000
0000
,
1000
0000
0000
0000
,
0010
0000
0000
0000
,
0001
0001
0000
0000
,
0100
0000
0000
0000
,
1000
1000
0000
0000
,
0001
0000
0000
0000
,
1000
0000
0000
0000
,
0001
0000
1000
0000
,
0001
0000
0000
0000
,
0100
0000
0000
0000
,
0001
0000
0000
0000
,
0100
0000
0000
0000
,
0010
0000
0000
0000
,
0001
0000
0001
0000
,
1000
0000
1000
0000
,
0010
0000
0010
0000
,
0100
0000
0100
0000
,
1000
0000
0001
0000
,
1000
0000
0000
0000
,
0100
0000
0001
0000
,
0100
0000
0000
0000
,
0001
0000
0010
0000
,
0001
0001
0001
0000
,
0010
0000
1000
0000
,
0100
0100
0100
0000
,
0010
0000
1000
0000
,
0100
0000
0000
0000
,
0100
0000
0001
0000
,
0010
0000
0000
0000
,
1000
0000
0100
0000
,
0001
0000
0100
0000
,
1000
0000
0001
0000
,
1000
1000
1000
0000
,
0010
0000
0001
0000
,
0100
0100
0100
0000
,
0100
0000
1000
0000
,
0010
0000
0001
0000
,
0010
0000
1000
0000
,
0100
0100
0100
0000
,
0100
0000
0001
0000
,
0010
0000
1000
1000
;

//---------------dance-single - ----------------
#NOTES:
     dance-single:
     :
     Easy:
     3:
     :
0000
0000
0000
0000
,
0000
0000
0000
0000
,
0000
0000
0000
0000
,
0000
0000
0000
0000
,
0000
0000
0000
0000
,
0001
0000
1000
0000
,
0100
0000
0000
0000
,
0010
0000
0001
0000
,
1000
0010
0100
0000
,
0010
1000
0001
0000
,
0010
0001
0010
0001
,
0100
0001
1000
0000
,
0010
1000
0010
1000
,
0001
0000
0100
0100
,
1000
0000
0100
0100
,
1000
0100
0001
0100
,
1000
0001
1000
0000
,
0100
0100
1000
1000
,
0001
0001
0010
0010
,
0100
0100
1000
1000
,
0010
0010
0100
0100
,
0010
0000
0001
0010
,
1000
0000
0100
0001
,
0010
0000
0100
0001
,
0100
0100
0010
1001
,
1000
0010
0001
0010
,
1000
0001
0010
0000
,
0100
1000
0001
0100
,
0010
1000
0100
0000
,
0001
0000
0010
0010
,
0100
1001
0100
1001
,
0100
0000
1000
0100
,
1000
0001
1000
1001
,
0010
0001
1000
0000
,
0010
1000
0010
1000
,
0100
1000
0001
0000
,
0010
0001
0010
0001
,
1000
0000
0100
0100
,
0001
0000
0100
0100
,
0001
0100
1000
0100
,
0001
1000
0001
0000
,
0001
0100
0001
1000
,
0100
0100
0100
0000
,
0100
0000
1000
0000
,
0010
0100
0001
0000
,
1000
0100
1000
0001
,
0100
0100
0100
0000
,
0100
0000
0001
0000
,
0010
0001
1000
1001
;

//---------------dance-single - ----------------
#NOTES:
     dance-single:
     :
     Medium:
     6:
     :
0000
0000
0000
0000
,
0000
0000
0000
0000
,
0000
0000
0000
0000
,
0000
0000
0000
0000
,
0000
0000
0000
0000
,
2000
0000
0002
3000
,
0020
0000
0000
0033
,
0200
0000
0020
0330
,
0001
0100
0010
1001
,
0100
0001
1000
0001
,
0100
1000
0100
1000
,
0010
1000
0001
1000
,
0100
0001
0100
0001
,
1001
0000
0010
0100
,
1001
0000
0010
0100
,
0001
0010
1000
0010
,
0001
1000
0001
0000
,
0010
0000
0010
0000
0001
0100
0001
0000
,
1000
0000
1000
0000
0100
0001
0100
0000
,
0010
0000
0010
0000
0001
1000
0001
0000
,
0100
0000
0100
0000
0010
1000
0010
0000
,
0100
0000
0010
0000
1000
0001
0100
0000
,
0100
0000
0001
0000
0010
0001
1000
0000
,
0100
0000
1000
0000
0010
0100
1000
0000
,
0010
0001
0100
1001
,
0001
0100
1000
0100
,
0001
0000
1000
0000
0100
1000
0001
0000
,
0010
0001
1000
0010
,
0100
0000
0001
0000
0010
0001
0100
0000
,
1000
0000
0100
0000
0001
1000
0001
0000
,
0010
0101
0010
1100
,
0010
0000
0100
0000
0001
0100
0010
0000
,
0001
0000
1000
0000
0001
1000
1001
0000
,
0100
1000
0001
1000
,
0100
0001
0100
0001
,
0010
0001
1000
0001
,
0100
1000
0100
1000
,
1001
0000
0010
0100
,
1001
0000
0010
0100
,
1000
0010
0001
0010
,
1000
0001
1000
0000
,
1000
0000
0010
0000
1000
0100
0001
0000
,
0010
0100
0010
0100
0010
0000
0000
0000
,
0010
0000
1000
0000
0001
1000
0100
0000
,
0010
0001
0100
0000
1000
0000
0110
0000
,
0001
0000
0010
0000
0001
0100
1000
0000
,
0010
0100
0010
0100
0010
0000
0000
0000
,
0010
0000
0001
0000
1000
0001
0100
0000
,
0010
1000
0100
0000
0001
0000
0110
0000
;

//---------------dance-single - ----------------
#NOTES:
     dance-single:
     :
     Hard:
     8:
     :
0000
0000
0000
0000
,
0000
0000
0000
0000
,
0000
0000
0000
0000
,
0000
0000
0000
0000
,
0000
0000
0000
0000
,
0002
0000
2000
0003
,
0020
0000
0000
3030
,
0200
0000
0020
0330
,
1000
0100
0010
1001
,
0100
0000
1000
0000
0001
0100
1000
0000
,
0100
0001
0010
1000
,
0100
0000
0001
0000
1000
0100
0001
0000
,
0100
1000
0010
0001
,
1000
0000
0000
0000
0010
1000
0100
0000
,
0001
0000
0000
0000
0010
0001
0100
0000
,
1000
0010
0001
0010
,
1000
0100
0001
0100
1000
0000
0110
0000
,
0001
0100
0001
0100
1000
0100
1000
0100
,
0001
1000
0001
1000
0100
1000
0100
1000
,
0010
1000
0010
1000
0001
0100
0001
0100
,
0010
0100
0010
0100
0001
1000
0100
0000
,
0100
1000
0010
1000
0001
1000
0001
1000
,
0100
1000
0010
1000
0001
1000
0001
1000
,
0100
1000
0010
1000
0001
1000
0001
1000
,
0100
0010
0001
0100
0010
1000
0101
0000
,
1000
1000
0100
0100
0001
0001
0100
0100
,
1000
1000
0001
0001
0100
0001
1000
0000
,
0010
0010
1000
1000
0001
0001
0010
0010
,
0100
0100
1000
1000
0010
1000
0100
0000
,
0001
0010
0100
1000
0100
0010
0001
0000
,
0011
1100
1010
0101
,
0010
1000
0100
0001
0100
1000
0010
0001
,
1000
0100
0001
0010
0001
1000
1001
0000
,
0100
0000
0001
0000
1000
0100
0001
0000
,
0100
1000
0010
0001
,
0100
0000
1000
0000
0001
0100
1000
0000
,
0100
0001
0010
1000
,
0001
0000
0000
0000
0010
0001
0100
0000
,
1000
0000
0000
0000
0010
1000
0100
0000
,
0001
0010
1000
0010
,
0001
0100
1000
0100
0001
0000
0110
0000
,
0001
0100
1000
0100
0001
0100
1000
0100
,
0010
0100
0010
0100
0010
0100
0010
0100
,
0001
0010
0001
1000
0001
0100
0001
1000
,
0010
1000
0100
0010
0001
0100
1001
0000
,
1000
0100
0001
0100
1000
0100
0001
0100
,
0010
0100
0010
0100
0010
0100
0010
0100
,
1000
0010
1000
0001
1000
0100
1000
0001
,
0010
0001
0100
0010
1000
0100
1001
0000
;

//---------------dance-double - ----------------
#NOTES:
     dance-double:
     :
     Easy:
     3:
     :
00000000
00000000
00000000
00000000
,
00000000
00000000
00000000
00000000
,
00000000
00000000
00000000
00000000
,
00000000
00000000
00000000
00000000
,
00000000
00000000
00000000
00000000
,
10000000
00000000
00100000
00000000
,
00010000
00000000
00000000
00000000
,
00001000
00000000
00000010
00000000
,
00000001
00000001
00001000
00001000
,
00000001
00000100
00001000
00000100
,
00000010
00001000
00010000
00000000
,
00000100
00001000
00010000
00001000
,
00100000
00010000
01000000
00000000
,
10000000
01000000
00010000
00000000
,
00001000
00000100
00000001
00000000
,
00000010
00001000
00000001
00000100
,
00001000
00010000
00001000
00000000
,
00000000
00010000
00000000
01000000
,
00100000
10000000
01000000
00010000
,
00000000
00001000
00000000
00000010
,
00000001
00001000
00000010
00010000
,
00000000
00001000
00000000
00100000
,
10000000
00010000
01000000
00010000
,
00000000
00001000
00000000
00000100
,
00000010
00001000
00000100
00000001
,
00000001
00001000
00010000
00000000
,
00100000
01000000
00100000
01000000
,
10000000
00010000
00001000
00000000
,
00000010
00000100
00000010
00000100
,
00000010
00010000
00001000
00000000
,
00001000
00010000
01000000
10000000
,
00100000
01000000
10000000
00000000
,
01000000
00010000
00001000
00011000
,
00000010
00000100
00000001
00000100
,
00000010
00001000
00010000
00000000
,
00000100
00001000
00010000
00001000
,
00100000
00010000
01000000
00000000
,
10000000
01000000
00010000
00000000
,
00001000
00000100
00000001
00000000
,
00000010
00001000
00000001
00000100
,
00001000
00010000
00001000
00000000
,
00010000
00010000
01000000
01000000
,
00100000
10000000
01000000
00000000
,
00001000
00001000
00000010
00000010
,
00000001
00001000
00000010
00000000
,
00001000
00001000
00100000
00100000
,
10000000
00010000
01000000
00000000
,
00001000
00001000
00000100
00000100
,
00000001
00001000
00000010
00010000
;

//---------------dance-double - ----------------
#NOTES:
     dance-double:
     :
     Medium:
     6:
     :
00000000
00000000
00000000
00000000
,
00000000
00000000
00000000
00000000
,
00000000
00000000
00000000
00000000
,
00000000
00000000
00000000
00000000
,
00000000
00000000
00000000
00000000
,
00000001
00000000
00000100
00000000
,
00010000
00000000
00000000
00000000
,
00001000
00000000
01000000
00000000
,
10000000
01000000
00010000
01000000
,
00001000
00000000
00010000
00000000
00000010
00001000
00000100
00000000
,
00000010
00000001
00000010
00001000
,
00000001
00000000
00000100
00000000
00001000
00010000
00100000
00000000
,
10000000
00010000
01000000
00010000
,
00100000
00000000
00010000
00000000
00001000
00010000
00001000
00000000
,
00000010
00000000
00001000
00000000
00010000
00001000
00010000
00000000
,
00000100
00000001
00001000
00000100
,
00000010
00001000
00010000
11000000
,
00100000
00000000
00010000
00000000
10000000
00000000
01000000
00010000
,
00001000
00000010
00000100
00010000
,
00001000
00000000
00000100
00000000
00000001
00000000
00000010
00000001
,
00001000
00010000
01000000
00100000
,
10000000
00000000
01000000
00000000
00100000
10000000
01000000
00000000
,
00010000
00000000
00001000
00000000
00000010
00001000
00010000
00000000
,
00000100
00001000
00000010
00100000
,
00010000
00001000
00000100
00000110
,
00000010
00000001
00001000
00000000
00000100
00001000
00000001
00000000
,
00000100
00001000
00010000
00100000
,
10000000
01000000
00010000
00000000
00010000
01000000
10000000
00000000
,
00100000
00010000
00001000
00000010
,
00000001
00000100
00001000
00000100
,
00000011
00001100
00011000
00110000
,
01000000
00100000
00001000
00100000
,
01000000
10000000
00100000
00010000
,
00001000
00000000
00010000
00000000
00000100
00001000
00000010
00000000
,
00000100
00000001
00000100
00001000
,
00000001
00000000
00000010
00000000
00001000
00010000
01000000
00000000
,
10000000
00010000
00100000
00010000
,
01000000
00000000
00010000
00000000
00001000
00010000
00001000
00000000
,
00000100
00000000
00001000
00000000
00010000
00001000
00010000
00000000
,
00000010
00000001
00001000
00000010
,
00000100
00001000
00010000
10100000
,
00100000
00000000
10010000
00000000
01000000
00010000
00001000
00000000
,
00000010
00000001
00000100
00000001
,
00001000
00000100
00001000
00000000
00000001
00000100
00000001
00000000
,
00001000
00010000
00100000
10000000
,
01000000
00000000
10010000
00000000
00100000
00010000
00001000
00000000
,
00000100
00000001
00000010
00000001
,
00001000
00000010
00001000
00000000
00000001
00000010
00000001
00000000
,
00001000
00010000
01000000
10000000
;

//---------------dance-double - ----------------
#NOTES:
     dance-double:
     :
     Hard:
     8:
     :
00000000
00000000
00000000
00000000
,
00000000
00000000
00000000
00000000
,
00000000
00000000
00000000
00000000
,
00000000
00000000
00000000
00000000
,
00000000
00000000
00000000
00000000
,
00000001
00000000
00001000
00000000
,
00010000
00000000
00000000
00000000
,
10000000
00000000
00010000
00000000
,
00001000
00000010
00000001
00000110
,
00000001
00000000
00001000
00000000
00000100
00000000
00000000
00000000
00010000
00000000
00000000
01000000
00000000
00000000
10000000
00000000
,
00000000
00000000
00100000
00000000
00000000
10000000
00000000
00000000
00010000
00000000
00000000
00000000
01100000
00000000
00000000
00000000
,
00010000
00000000
00001000
00000000
00000010
00000000
00000000
00000000
00001000
00000000
00000000
00010000
00000000
00000000
00100000
00000000
,
00000000
00000000
01000000
00000000
00000000
00010000
00000000
00000000
00011000
00000000
00000000
00000000
00000101
00000000
00000000
00000000
,
00000010
00000000
00000001
00000000
00000100
00000000
00000000
00000000
00000010
00000000
00000000
00000100
00000000
00000000
00001000
00000000
,
00000000
00000000
00100000
00000000
00000000
00010000
00000000
00000000
10000000
00000000
00000000
00000000
01100000
00000000
00000000
00000000
,
10000000
00000000
01000000
00000000
00100000
00000000
00000000
00000000
10000000
00000000
00000000
00100000
00000000
00000000
01000000
00000000
,
00000000
00000000
00010000
00000000
00000000
00001000
00000000
00000000
00000100
00000000
00000000
00000000
00011000
00000000
00000000
00000000
,
00000100
00000001
00000010
00000000
00000100
00001000
00000001
00000000
,
00000100
00001000
00010000
00100000
10000000
01000000
00010000
00000000
,
00100000
00001000
01000000
00000000
00010000
00100000
10000000
00000000
,
00100000
01000000
00100000
00010000
00001000
00000010
00000001
00000000
,
00001000
00000100
00010000
00000000
00001000
00000010
00000100
00000000
,
00000010
00000001
00001000
00000010
00000100
00001000
00010000
00000000
,
01000000
10000000
00010000
00000000
00001000
00010000
00100000
00000000
,
01000000
10000000
00100000
00010000
00001000
00000010
00000100
00000000
,
00000010
00000001
00000010
00000001
00000100
00000001
00000100
00000001
,
00000100
00001000
00010000
00001000
00000010
00001000
00010000
00100000
,
10000000
01000000
10000000
01000000
10000000
00100000
10000000
00100000
,
01000000
00100000
00010000
00001000
00000010
00000001
00001000
00000010
,
00010000
00000100
00001000
00000010
00010000
00000100
00001000
00010000
,
01000000
00100000
01000000
00010000
00100000
00001000
00010000
01000000
,
00100000
01000000
00100000
01000000
10000000
00010000
10000000
00010000
,
10000000
01000000
00010000
00001000
00000100
00000001
00001000
00000000
,
00000001
00000000
00001000
00000000
00000010
00000000
00000000
00000000
00010000
00000000
00000000
00100000
00000000
00000000
10000000
00000000
,
00000000
00000000
01000000
00000000
00000000
10000000
00000000
00000000
00010000
00000000
00000000
00000000
01100000
00000000
00000000
00000000
,
00010000
00000000
00001000
00000000
00000100
00000000
00000000
00000000
00001000
00000000
00000000
00010000
00000000
00000000
01000000
00000000
,
00000000
00000000
00100000
00000000
00000000
00010000
00000000
00000000
00011000
00000000
00000000
00000000
00000011
00000000
00000000
00000000
,
00000100
00000000
00000001
00000000
00000010
00000000
00000000
00000000
00000100
00000000
00000000
00000010
00000000
00000000
00001000
00000000
,
00000000
00000000
01000000
00000000
00000000
00010000
00000000
00000000
10000000
00000000
00000000
00000000
01100000
00000000
00000000
00000000
,
10000000
00000000
00100000
00000000
01000000
00000000
00000000
00000000
10000000
00000000
00000000
01000000
00000000
00000000
00100000
00000000
,
00000000
00000000
00010000
00000000
00000000
00001000
00000000
00000000
00000010
00000000
00000000
00000000
00011000
00000000
00000000
00000000
,
00000100
00000001
00001000
00000000
00010000
10000000
01000000
00000000
,
00010000
01000000
10000000
01000000
00010000
01000000
10000000
00000000
,
00010000
00001000
00000010
00000000
00000100
00010000
00000010
00000000
,
00001000
00000010
00001000
00010000
00001000
00000100
00000001
00000000
,
00000010
00000001
00001000
00000000
00010000
10000000
00100000
00000000
,
00001000
00010000
00100000
00010000
00001000
00010000
00100000
00000000
,
01000000
00010000
00001000
00000000
00000100
00000001
00001000
00000000
,
00000010
00000001
00000100
00001000
00010000
01000000
00100000
00000000
;
