#TITLE:dream of love;
#SUBTITLE:;
#ARTIST:Kaori Nishina;
#TITLETRANSLIT:;
#SUBTITLETRANSLIT:;
#ARTISTTRANSLIT:;
#CREDIT:;
#BANNER:dream of love.png;
#BACKGROUND:dream of love-bg.png;
#LYRICSPATH:;
#CDTITLE:./CDTITLES/DanceDanceRevolution SuperNOVA2.png;
#MUSIC:dream of love.ogg;
#OFFSET:0.000;
#SAMPLESTART:54.740;
#SAMPLELENGTH:15.000;
#SELECTABLE:YES;
#DISPLAYBPM:114.000;
#BPMS:0.000=114.286,4.000=114.009;
#STOPS:;
#BGCHANGES:;

//---------------dance-single - ----------------
#NOTES:
     dance-single:
     :
     Beginner:
     3:
     0.099,0.138,0.094,0.000,0.000:
0000
0000
0000
0000
,
0000
0000
0000
0000
,
0000
0000
0000
0000
,
0000
0000
0000
0000
,
1000
0000
0001
0000
,
1000
0000
0000
0000
,
0010
0000
1000
0000
,
0001
0000
0100
0000
,
1000
0000
0000
0000
,
0001
0000
0000
0000
,
0010
0000
0001
0000
,
1000
0000
0100
0000
,
0001
0000
0000
0000
,
1000
0000
0000
0000
,
0010
0000
0000
0000
,
0100
0000
0000
0000
,
0110
0000
0000
0000
,
0010
0000
0000
0000
,
1000
0000
0000
0000
,
0001
0000
0000
0000
,
1001
0000
0000
0000
,
1000
0000
0010
0000
,
0100
0000
0001
0000
,
1000
0000
0010
0000
,
0100
0000
0000
0000
,
0010
0000
0000
0000
,
0001
0000
0000
0000
,
1000
0000
0000
0000
,
1001
0000
0000
0000
,
1001
0000
0000
0000
,
0010
0000
0000
0000
,
0100
0000
0000
0000
,
1000
0000
0000
0000
,
0001
0000
0010
0000
,
0100
0000
1000
0000
,
0001
0000
0010
0000
,
0010
0000
0001
0000
,
1000
0000
0100
0000
,
1001
0000
0000
0000
,
1001
0000
0000
0000
,
0001
0000
1000
0000
,
0010
0000
0100
0000
,
0110
0000
0000
0000
,
0110
0000
0000
0000
,
0010
0000
0100
0000
,
0001
0000
1000
0000
,
1001
0000
0000
0000
,
1001
0000
0000
0000
,
0001
0000
1000
0000
,
0010
0000
0000
0000
,
0000
0000
0000
0000
;

//---------------dance-single - ----------------
#NOTES:
     dance-single:
     :
     Easy:
     3:
     0.116,0.161,0.019,0.000,0.000:
0000
0000
0000
0000
,
0000
0000
0000
0000
,
0000
0000
0000
0000
,
0000
0000
0000
0000
,
0010
0000
0001
0000
,
0100
0000
0010
0000
,
0001
0000
1000
0000
,
0010
0000
0100
0000
,
1000
0000
0001
0000
,
0100
0000
0001
0000
,
0010
0000
1000
0000
,
0010
0000
0001
0000
,
0100
0000
1000
0000
,
0000
0010
0000
0001
,
1000
0000
0000
0000
,
0010
0000
0000
0000
,
0100
0000
0000
0000
,
0001
0000
0000
0000
,
1000
0000
0000
0000
,
0001
0000
0000
0000
,
0010
0010
0000
0000
,
1000
0000
0000
0000
,
0001
0000
0010
0000
,
1000
0000
0100
0000
,
0001
0000
0010
0000
,
0100
0000
1000
0000
,
0001
0000
0100
0000
,
1000
0000
0010
0000
,
0001
0000
1000
0000
,
0001
0100
0000
1000
,
0000
0000
0100
0000
,
0001
0000
0010
0000
,
1000
0000
0001
0000
,
1000
0000
0000
0001
,
0000
0000
1000
0000
,
0100
0000
0010
0000
,
1000
0000
0010
0000
,
0001
0000
0100
0000
,
1000
0001
1000
0000
,
0001
1000
0001
0000
,
1000
0000
0100
0000
,
1000
0000
0100
0000
,
0010
0000
0010
0000
,
0100
0000
0001
0000
,
1000
0000
0000
0001
,
0100
0000
0100
0000
,
0100
0000
0010
0000
,
1001
0000
0000
0000
,
0010
0000
0010
0000
,
0110
0000
0000
0000
,
0000
0000
0000
0000
;

//---------------dance-single - ----------------
#NOTES:
     dance-single:
     :
     Medium:
     6:
     0.269,0.281,0.075,0.075,0.000:
0000
0000
0000
0000
,
0000
0000
0000
0000
,
0000
0000
0000
0000
,
0000
0000
0000
0000
,
0001
0100
1000
0000
,
1000
0000
0100
0000
0010
1000
0001
0000
,
1001
0001
0010
0100
,
1000
0010
0100
0001
,
2000
3000
0002
0003
,
0100
0010
0001
1000
,
0001
0000
0100
0000
0010
0001
1000
0000
,
0100
0000
0010
0000
0010
1000
0001
0000
,
0010
0001
1000
0001
,
0100
0000
0010
0000
1000
0001
1000
0000
,
2000
0000
0000
3000
,
0020
0000
0000
0030
,
0200
0000
0000
0300
,
0002
0000
0000
0003
,
1000
0100
1000
0000
0010
0000
0001
0010
,
0002
0000
0000
0003
,
0010
0100
0001
0000
0100
0000
1000
0000
,
2000
0000
0000
3000
,
0001
0100
0010
0000
1000
0000
0001
0000
,
0100
0010
1000
0000
0001
0000
0100
0000
,
0001
0000
0010
0000
,
0100
0000
1000
0000
0001
0100
0001
0000
,
0001
0010
1000
0000
,
1000
0100
0001
0000
,
1000
0010
0001
0000
,
0001
0000
0010
0000
0100
0001
1000
0000
,
0110
0010
1000
0001
,
1001
1000
0001
0100
,
0011
1000
0100
0010
,
1000
0000
0100
0000
0010
1000
0010
0000
,
0110
0100
0001
1000
,
1001
0001
1000
0010
,
1100
0001
0010
0100
,
0001
0000
0010
0000
0100
0001
0100
0000
,
0100
0000
0010
1000
0100
0000
0001
0000
,
0010
0000
0100
0001
0010
0000
1000
0000
,
0100
0000
0100
0010
0100
0000
0010
0000
,
0100
0010
1000
0000
0001
1000
0010
0000
,
0010
0000
0100
0001
0010
0000
1000
0000
,
0100
0000
0010
1000
0100
0000
0001
0000
,
0010
0000
0010
0100
0010
0000
0100
0000
,
0010
0100
0001
0000
1000
0001
0100
0000
,
0100
0100
0010
0000
1000
0000
0010
0000
,
0010
0010
0100
0000
0001
0000
0010
0000
,
1000
0100
0010
0000
0100
0000
0010
0000
,
1001
0100
0010
0001
,
0000
0000
0000
0000
;

//---------------dance-single - ----------------
#NOTES:
     dance-single:
     :
     Hard:
     8:
     0.331,0.328,0.056,0.386,0.080:
0000
0000
0000
0000
,
0000
0000
0000
0000
,
0000
0000
0000
0000
,
0000
0000
0000
0000
,
1000
0000
0000
0001
0000
0000
0020
0000
0000
0000
0000
0000
0030
0000
0000
0000
,
2000
0000
3010
0000
0001
0010
0100
1000
,
0010
0000
1000
0000
0001
0100
1000
0000
,
0100
0000
0100
0000
0001
0010
1000
0000
,
0010
0000
0001
0000
1000
0100
0001
0000
,
0100
0000
0100
0000
1000
0010
0100
0001
,
0010
0000
1000
0010
0100
0000
0001
0000
,
0010
0000
0000
0100
0000
0000
2000
0000
0000
0000
0000
0000
3010
0000
0000
0000
,
0100
0001
0100
0010
,
1000
0000
0100
0000
0010
0001
1000
0100
,
0010
0020
0000
0000
0000
0000
0031
0000
,
0200
0000
0300
1000
,
0010
0000
0000
0100
0000
0000
0001
0000
0000
0000
0000
0000
1000
0000
0000
0000
,
0002
0000
0200
0303
,
1000
0000
2000
0000
0000
0000
0000
0000
3000
0000
0000
0000
0000
0001
0000
0000
,
0020
0030
0000
1000
,
0011
0000
0000
0100
0000
0000
1100
0000
0000
0000
0000
0000
0000
0000
0000
0000
,
1000
0000
0000
0010
0000
0000
0100
0000
0001
0000
0000
0010
0000
0000
0100
0000
,
2000
0000
0000
3010
0000
0000
0000
0000
0200
0000
0000
0000
0301
0000
0000
0000
,
0020
0000
0000
0031
0000
0000
0000
0000
2000
0000
0000
0000
3100
0000
0000
0000
,
1000
0001
0010
0000
0001
1000
0100
0000
,
2000
0000
3020
0000
1030
0100
0010
0000
,
0001
0000
0000
0100
0000
0000
2200
0000
0000
0000
0000
0000
3300
0000
0000
0000
,
1000
0000
0000
0010
0000
0000
0022
0000
0000
0000
0000
0000
0033
0000
0000
0000
,
0001
0000
0000
1000
0000
0000
0200
0000
0000
0000
0000
0000
0300
0000
0000
0000
,
0002
0000
0103
0000
1000
0100
0010
0001
,
0010
0000
0000
0100
0000
0000
0220
0000
0000
0000
0000
0000
0330
0000
0000
0000
,
0001
0000
0000
1000
0000
0000
2002
0000
0000
0000
0000
0000
3003
0000
0000
0000
,
0100
0000
0000
0010
0000
0000
2000
0000
0000
0000
0000
0000
3000
0000
0000
0000
,
0002
0000
0103
0000
0010
1000
0010
0000
,
2000
0000
3020
0000
0030
0000
1000
0001
,
0200
0000
0000
0000
0000
0000
0000
0000
0000
0000
0000
0000
0000
0000
0000
0300
0002
0000
0000
0000
0000
0000
0000
0000
0000
0000
0000
0000
0000
0000
0000
0000
0003
0000
0000
0000
0000
0000
0000
0000
0000
0000
0000
0000
0000
0000
0000
0000
1000
0000
0000
0000
0000
0000
0000
0000
0010
0000
0000
0000
0000
0000
0000
0000
,
0200
0000
0320
0000
0030
0000
1000
0010
,
0002
0000
0023
0000
0030
0000
0100
0001
,
2000
0000
3010
0000
1000
0001
1000
0000
,
0200
0000
0310
0000
0100
1000
0001
0000
,
0020
0000
0130
0000
1000
0001
0100
0000
,
0002
0000
0013
0000
1000
0100
0010
0001
,
0010
0000
1000
0001
0010
0000
0100
0000
,
0010
0000
0000
1000
0000
0000
0002
0000
0000
0000
0000
0000
1003
0000
0000
0000
,
0010
0100
0001
0000
0100
0010
1000
0000
,
0001
0000
1000
0000
0010
0100
0001
1000
,
0100
0000
0001
1000
0100
0000
0010
0000
,
0100
0000
0000
0001
0000
0000
2000
0000
0000
0000
0000
0000
3001
0000
0000
0000
,
0100
0010
1000
0000
0010
0100
0001
0000
,
1000
0100
0010
0001
,
0000
0000
0000
0000
;

//---------------dance-double - ----------------
#NOTES:
     dance-double:
     :
     Easy:
     5:
     0.196,0.212,0.047,0.085,0.000:
00000000
00000000
00000000
00000000
,
00000000
00000000
00000000
00000000
,
00000000
00000000
00000000
00000000
,
00000000
00000000
00000000
00000000
,
10010000
00000000
00000000
00000000
,
10000000
01000000
00010000
00001000
,
00010000
00000100
00001000
00000000
,
00000010
00000100
00000010
00000000
,
00001000
00000001
00000100
00000000
,
00001000
00010000
00001000
00000000
,
00001000
00100000
01000000
00000000
,
10000000
00010000
10000000
00000000
,
00100000
00000000
01000000
00000000
,
00100000
10000000
01000000
00010000
,
00001000
00000000
00000000
00000010
,
00000001
00000000
00000000
00000001
,
00001000
00000000
00000000
00000000
,
00002000
00003000
00010000
00001000
,
00100000
00000000
00000000
01000000
,
10000000
00000000
00000000
00010000
,
01000000
00000000
00000000
00001000
,
00010000
00000000
00011000
00001000
,
00000020
00000030
00000200
00000300
,
00001000
00000001
00001000
00000001
,
00000100
00000000
00001000
00000000
,
00010000
00001000
00010000
00001000
,
00011000
00000000
00000000
01000000
,
01100000
00000000
00000000
10000000
,
20020000
00000000
00000000
30030000
,
01000000
10000000
00100000
00010000
,
00002000
00000000
00003000
00010000
,
00000020
00000000
00000030
00001000
,
00000002
00000000
00000003
00000100
,
00001000
00010000
00100000
10000000
,
01000000
10000000
01000000
00100000
,
01000000
00010000
00001000
00000000
,
00001000
00010000
00001000
00000100
,
00000010
00000100
00000001
00000000
,
00000001
00000010
00001000
00010000
,
00001000
00010000
00001000
00000000
,
00010000
00100000
10000000
01000000
,
00100000
01000000
00100000
00000000
,
00001000
00010000
00000010
00001000
,
00000001
00000000
00001000
00000000
,
00000001
00000100
00001000
00010000
,
00010000
01000000
10000000
00010000
,
10000000
10000000
00100000
00100000
,
01000000
00001000
00010000
00000000
,
00000010
00000000
00000100
00000000
,
00000001
00001000
00000100
00020000
,
00030000
00000000
00000000
00000000
,
00000000
00000000
00000000
00000000
;

//---------------dance-double - ----------------
#NOTES:
     dance-double:
     :
     Medium:
     7:
     0.292,0.329,0.235,0.122,0.000:
00000000
00000000
00000000
00000000
,
00000000
00000000
00000000
00000000
,
00000000
00000000
00000000
00000000
,
00000000
00000000
00000000
00000000
,
00000001
00000000
00000000
00001000
00000000
00000000
00000000
00000000
,
00000100
00000000
00010000
00000000
00001000
00010000
00001000
00100000
,
01000000
10000000
00100000
01000000
,
00010000
00001000
00000100
00000000
,
00001010
00000000
00000101
00000000
,
00001000
00000000
00011000
00000000
00010000
00000010
00000100
00000010
,
00001000
00000100
00001000
00010000
,
00100000
01000000
00010000
00000000
,
10100000
00000000
01010000
00000000
,
00010000
00000000
00011000
00000000
00001000
00100000
00001000
00010000
,
00002000
00000000
00000000
00013000
,
00000200
00000000
00000000
00000310
,
00000002
00000000
00000000
00001003
00000000
00000000
00000110
00000000
,
00000100
00001000
00010000
01000000
,
10000000
20000000
00000000
00000000
00000000
00000000
30100000
01000000
,
00020000
00000000
00000000
00130000
,
00002000
00000000
00000000
00013000
00000000
00000000
00011000
00000000
,
00000110
00000000
00001001
00001001
,
00000110
00001000
00000110
00001000
,
00010000
01000000
00100000
01100000
,
00020000
00130000
02000000
13000000
,
00100000
00000000
10000000
00000000
01000000
00100000
01000000
00010000
,
00002000
00000000
00000000
00013000
00000000
00000000
00000110
00000000
,
00000002
00000000
00000000
00000013
00000000
00000000
00001001
00000000
,
00000200
00000000
00000000
00001300
00000000
00000000
00011000
00000000
,
00001000
00000000
00100000
00000000
00010000
00100000
00010000
10000000
,
01000000
00000000
00000000
10010000
00000000
00000000
01000000
00000000
,
00010000
00000000
00000000
00011000
00000000
00000000
00001000
00000000
,
00000100
00000000
00000000
00001001
00000000
00000000
00001000
00000000
,
00000001
00000000
00000100
00000000
00001000
00010000
00001000
01000000
,
00010000
00100000
01000000
10000000
,
01000000
00010000
00001000
00000010
,
00000001
00000100
00001000
00010000
,
00001000
00000000
00100000
00000000
00010000
01000000
00010000
10000000
,
00100000
10000000
00010000
01000000
,
00001000
00010000
00000010
00001000
,
00000100
00001000
00000100
00000010
,
00000001
00000000
00000100
00000000
00001000
00001000
00010000
00010000
,
00001000
00100000
00010000
01000000
,
00100000
10000000
01000000
00010000
,
00001000
00000110
00001000
00010000
,
00000010
00000000
00001000
00000000
00000100
00001000
00000100
00010000
,
00001000
00010000
00001000
00100000
,
00010000
10000000
01000000
00010000
,
00001000
00011000
00000100
00000110
,
00001000
00001001
00000100
00022000
,
00033000
00000000
00000000
00000000
,
00000000
00000000
00000000
00000000
;

//---------------dance-double - ----------------
#NOTES:
     dance-double:
     :
     Hard:
     8:
     0.331,0.353,0.151,0.019,0.094:
00000000
00000000
00000000
00000000
,
00000000
00000000
00000000
00000000
,
00000000
00000000
00000000
00000000
,
00000000
00000000
00000000
00000000
,
00010000
00000000
00000000
00001000
00000000
00000000
00000100
00000000
00000000
00000000
00001000
00000000
00010000
00000000
00000000
00000000
,
00000100
00000000
00000010
00000000
00000001
00000100
00000001
00001000
,
00000001
00000010
00000100
00010000
,
00001000
00000000
00000000
00010000
00000000
00000000
00100000
00000000
00000000
00000000
10000000
00000000
01000000
00000000
00000000
00000000
,
00100000
00001000
00100000
00000000
00001000
00000000
00010000
00000000
,
00000010
00000000
00000100
00000000
00000010
00001000
00000100
00000000
,
00001000
00000010
00000100
00000001
,
00000010
00000000
00000000
00001000
00000000
00000000
00010000
00000000
00000000
00000000
00001000
00000000
00100000
00000000
00000000
00000000
,
00010000
01000000
00010000
00000000
10000000
00000000
00100000
00000000
,
10000000
00000000
01000000
00000000
00010000
00000100
00001000
00000010
,
00000100
00000000
00000000
00000010
00000000
00000000
00000000
00000000
00000000
00000000
00000000
00000000
00000101
00000000
00000000
00000000
,
00000010
00000000
00000000
00001100
,
00000100
00000000
00000000
00010000
00000000
00000000
00001000
00000000
00000000
00000000
00000000
00000000
00011000
00000000
00000000
00000000
,
00010000
00000000
00000000
00000000
01000000
00000000
00000000
00000000
10000000
00000000
00000000
00100000
00000000
00000000
01000000
00000000
,
00010000
00000000
00000000
00100000
00000000
00000000
00000000
00000000
00000000
00000000
00000000
00000000
11000000
00000000
00000000
00000000
,
00100000
00000000
00000000
01010000
,
00100000
00000000
00000000
00010000
00000000
00000000
00001000
00000000
00000000
00000000
00010000
00000000
00001000
00000000
00000010
00000000
,
00000001
00000000
00000000
00001000
00000000
00000000
00000100
00000000
00001000
00000000
00000000
00000010
00000000
00000000
00010000
00000000
,
00001000
00000000
00000000
00011000
00000000
00000000
00000000
00000000
00100000
00000000
00000000
00110000
00000000
00000000
00000000
00000000
,
10000000
00000000
00000000
01000000
00000000
00000000
00010000
00000000
00001000
00000000
00000000
00000000
00011000
00000000
00000000
00000000
,
00001000
00000000
00000000
00000100
00000000
00000000
00000001
00000000
00000010
00000000
00000000
00000000
00000110
00000000
00000000
00000000
,
00000001
00000000
00000100
00000000
00001000
00010000
00100000
00010000
,
00001000
00000000
00000000
01000000
00000000
00000000
00100000
00000000
00000000
00000000
10000000
00000000
01000000
00000000
00000000
00000000
,
00100000
00000000
00000000
00001000
00000000
00000000
00010000
00000000
00000000
00000000
00000100
00000000
00000010
00000000
00000000
00000000
,
00000001
00000000
00000000
00000100
00000000
00000000
00001000
00000000
00000000
00000000
00010000
00000000
00001000
00000000
00000000
00000000
,
00100000
00000000
01000000
00000000
10000000
00100000
10000000
01000000
,
00010000
00000000
00000000
00001000
00000000
00000000
00010000
00000000
00000000
00000000
00001000
00000000
00000010
00000000
00001000
00000000
,
00010000
00000000
00000000
00001000
00000000
00000000
00100000
00000000
00000000
00000000
01000000
00000000
10000000
00000000
01000000
00000000
,
00010000
00000000
00000000
00001000
00000000
00000000
00000100
00000000
00000000
00000000
00000001
00000000
00000100
00000000
00001000
00000000
,
00010000
00000000
00001000
00000000
00000010
00000001
00001000
00000001
,
00000100
00001000
00010000
00000000
00100000
00000000
10000000
00000000
,
01000000
00000000
00100000
00000000
00001000
00010000
00000010
00000000
,
00000100
00000001
00000020
00000130
,
00000010
00000000
00000001
00000000
00000100
00000100
00001000
00001000
,
00010000
00100000
01000000
00000000
00010000
00000000
00100000
00000000
,
10000000
00000000
00100000
00000000
00010000
01000000
00001000
00000000
,
00010000
00000000
00000010
00010000
00001000
00000000
00011000
00000000
,
00010100
00000000
00001100
00000000
00001000
00000100
00000010
00000001
,
00000010
00001000
00010000
00000000
00001000
00000000
00000100
00000000
,
00000001
00000000
00000100
00000000
00001000
00010000
00100000
00000000
,
10000000
01000000
00020000
00031000
,
00000100
00000000
00001000
00000000
00010000
00010000
00001000
00001000
,
00000010
00000001
00001000
00000000
00000001
00000000
00000100
00000000
,
00001000
00000000
00010000
00000000
00100000
01000000
00010000
00000000
,
00110000
00000000
00000000
10000000
01000000
00000000
00011000
00000000
,
00010010
00000000
00000110
00000000
00000001
00000100
00001000
00010000
,
00100000
00000000
00000000
00000000
,
00000000
00000000
00000000
00000000
;
