#TITLE:WAITING FOR TONIGHT;
#SUBTITLE:;
#ARTIST:P.A.T;
#TITLETRANSLIT:;
#SUBTITLETRANSLIT:;
#ARTISTTRANSLIT:;
#CREDIT:;
#BANNER:WAITING FOR TONIGHT.png;
#BACKGROUND:WAITING FOR TONIGHT-bg.png;
#LYRICSPATH:;
#CDTITLE:./CDTITLES/DANCE DANCE REVOLUTION HOME VERSION.png;
#MUSIC:WAITING FOR TONIGHT.ogg;
#OFFSET:0.000;
#SAMPLESTART:47.020;
#SAMPLELENGTH:15.000;
#SELECTABLE:YES;
#DISPLAYBPM:125.000;
#BPMS:0.000=125.000,4.000=125.061;
#STOPS:;
#BGCHANGES:;

//---------------dance-single - ----------------
#NOTES:
     dance-single:
     :
     Beginner:
     4:
     0.132,0.179,0.043,0.000,0.000:
0000
0000
0000
0000
,
0000
0000
0000
0000
,
0000
0000
0000
0000
,
0001
0000
0000
0000
,
0000
0000
0000
0000
,
0001
0000
0100
0000
,
0001
0000
0100
0000
,
1000
0000
0100
0000
,
0001
0001
0001
0001
,
0000
0000
0000
0000
,
1000
0000
0100
0000
,
1000
1000
1000
0000
,
0001
0000
0100
0000
,
1000
1000
1000
0000
,
0001
0000
0100
0000
,
0001
0001
0001
0000
,
1000
0000
0100
0000
,
1001
0000
0000
0000
,
0100
0000
0100
0000
,
0110
0000
0000
0000
,
0100
0000
0100
0000
,
1001
0000
0000
0000
,
0100
0000
0100
0000
,
0110
0000
0000
0000
,
0100
0000
0000
0000
,
1000
0000
0010
0000
,
0100
0000
0001
0000
,
0010
0010
0010
0010
,
0010
0000
0000
0000
,
0001
0000
0010
0000
,
0100
0000
1000
0000
,
0100
0100
0100
0100
,
0100
0000
0000
0000
,
1000
0000
0010
0000
,
0100
0000
0001
0000
,
0010
0010
0010
0010
,
0010
0000
0000
0000
,
0001
0000
0010
0000
,
0100
0000
1000
0000
,
0100
0100
0100
0100
,
0100
0000
0000
0000
,
0001
0000
0000
0000
,
1000
0000
0000
0000
,
0010
0000
0000
0000
,
0100
0000
0000
0000
,
1000
0000
0000
0000
,
0001
0000
0000
0000
,
0010
0000
0000
0000
,
0100
0000
0000
0000
,
0000
0000
0000
0000
;

//---------------dance-single - ----------------
#NOTES:
     dance-single:
     :
     Easy:
     5:
     0.231,0.258,0.138,0.085,0.000:
0000
0000
0000
0000
,
0000
0000
0000
0000
,
0000
0000
0000
0000
,
0000
0001
0000
0001
,
0000
1000
0001
1000
,
1001
0000
0000
0000
,
0001
0000
0100
0000
,
1000
0000
0100
0000
,
0010
0010
0100
0100
,
0001
0001
0000
0100
,
1000
0100
0000
0000
,
0010
0001
0100
1000
,
1001
0000
1001
0000
,
1000
1000
0000
0010
,
0001
0100
0000
0100
,
0010
1000
0100
0001
,
1001
0100
1001
0000
,
1001
0000
0000
0100
,
0001
0000
1001
0000
,
1000
0000
0010
0000
,
0010
0100
0110
0000
,
1000
0100
0000
0001
,
1000
0001
1001
0000
,
0001
0000
0100
0000
,
1001
0000
0001
0100
,
1000
0000
1000
0010
,
0001
0100
0001
0100
,
0010
0010
0010
0010
,
0200
0300
0100
1000
,
1000
0100
0001
0000
,
1000
1000
0010
0001
,
2000
0001
3100
0001
,
0002
0000
1003
0100
,
0001
0000
1000
0100
,
0001
0100
0001
0100
,
0010
0010
0010
0100
,
0200
0300
0100
0001
,
1000
0100
0001
0100
,
1000
1000
0010
0001
,
2000
3000
0200
0300
,
0002
0003
1000
0001
,
1001
0000
1000
0000
,
0001
0001
0001
0000
,
0010
0010
0000
0000
,
0100
0100
0000
0000
,
1000
0002
0000
0003
,
1000
0000
0100
0000
,
0001
0000
0110
0000
,
1000
0001
1001
0000
,
0000
0000
0000
0000
;

//---------------dance-single - ----------------
#NOTES:
     dance-single:
     :
     Medium:
     7:
     0.340,0.388,0.277,0.138,0.000:
0000
0000
0000
0000
,
0000
0000
0000
0000
,
0000
0000
0000
0000
,
0000
0001
0000
1000
,
0000
0010
0000
0100
,
1001
0100
0001
0100
,
1000
0000
0001
1000
,
0001
0100
1000
0100
,
0001
0000
1000
0000
,
0010
0000
0000
0000
0010
0010
0100
0000
,
0001
0000
1000
0000
0001
0100
1000
0000
,
0001
0010
0001
0000
0010
0000
1100
0000
,
2000
3100
1001
0100
,
0010
0000
0000
0000
0010
0010
0100
0000
,
1000
0000
0001
0000
1000
0100
0001
0000
,
1000
0010
1000
0000
0010
0000
0101
0000
,
2002
0000
3003
0000
1000
0001
0100
0010
,
0110
0000
0000
0100
0000
0010
0100
0000
,
1100
0001
0010
0110
,
1000
0000
0000
0100
0000
1000
0100
0000
,
0001
0000
1000
0000
0010
0100
0010
0000
,
0110
0000
0000
0100
0000
0010
0100
0000
,
0101
1000
0010
0110
,
0002
1000
2003
3001
,
0110
0000
0000
0000
1000
1000
0001
0000
,
0002
0100
1003
0100
,
1000
1001
0010
1001
,
0010
1000
0100
0000
0002
0000
1003
0000
,
1001
0000
0011
0000
0010
0010
0100
0000
,
1000
0000
0001
0000
0010
1000
0100
0000
,
0001
1000
0001
0000
1010
0000
0100
0000
,
0001
0100
0001
0000
1000
0000
0001
0000
,
0220
0000
0330
0000
1000
1000
0001
0000
,
2000
0100
3001
0100
,
0001
1001
0010
1001
,
0010
0001
0100
0000
2000
0000
3001
0000
,
1010
0000
0110
0000
0010
0010
0100
0000
,
0001
0000
1000
0000
0010
0001
0100
0000
,
1000
0001
1000
0000
0011
0000
0100
0000
,
1000
0100
1000
0000
0001
0000
1000
0000
,
0220
0330
1000
0001
,
1001
0000
0000
0000
,
0001
1000
0010
0100
,
0010
0000
0000
0100
0000
0100
0010
0000
,
0001
0001
1000
0000
,
1100
0000
0000
0100
0000
1000
0100
0000
,
0001
0010
1000
0000
,
0001
0000
0000
0001
0000
1000
0000
0000
,
0010
0000
0000
0000
0100
0010
0000
0000
,
0000
0000
0000
0000
;

//---------------dance-single - ----------------
#NOTES:
     dance-single:
     :
     Hard:
     9:
     0.498,0.440,0.170,0.191,0.043:
0000
0000
0000
0000
,
0000
0000
0000
0000
,
0000
0000
0000
0000
,
0020
0000
0130
0000
0010
0001
0100
0000
,
0001
1000
0200
0000
0310
0001
0100
0010
,
1000
0100
1000
0000
0001
0100
0001
0100
,
1000
0010
0100
0000
0001
0100
0010
0000
,
1000
0001
0100
0000
1000
0010
0100
0000
,
0010
0001
0010
0001
0100
0010
1001
0000
,
0110
0000
0001
1000
0001
0000
0010
0100
,
0010
0000
1000
0100
1000
0001
0010
0001
,
0100
0000
0010
1000
0100
0000
0010
0001
,
0100
0001
1000
0000
1001
0000
0001
1000
,
0001
0000
0010
0100
0010
0000
1000
0100
,
1000
0001
0010
0001
0100
0000
0010
1000
,
0100
0000
0010
0001
0100
0001
1000
0001
,
1001
0000
0100
0000
1001
0000
0100
0010
,
0002
0000
0003
0001
0100
0010
2000
0000
,
3001
0000
0001
0100
0120
0000
1030
0010
,
0100
0000
1000
0001
1000
0010
0200
0000
,
0301
0010
0001
1000
0100
0100
1000
0000
,
2000
0000
3001
1000
0100
0010
0002
0000
,
1003
0000
1000
0100
0110
0000
0000
0000
,
0100
0010
0002
0000
1003
0010
1000
0001
,
2002
0000
3003
1001
,
0010
0000
1000
0100
1000
0000
0000
0000
0010
0100
0010
0000
0100
0000
0000
0000
,
0001
0010
0001
0100
0010
0100
0001
0000
,
1001
1000
0100
0000
1001
0001
0010
0001
,
0100
0010
0100
0010
1000
0010
0100
0000
,
0010
0000
0001
0100
0001
0000
0000
0000
0010
0100
0010
0000
0100
0000
0000
0000
,
1000
0001
0100
0000
0100
0010
1000
0100
,
0001
0001
0100
0010
1000
0001
1001
0000
,
0001
0010
0100
0100
1000
1000
0100
0100
,
0010
0000
0001
0100
0001
0000
0000
0000
0010
0100
0010
0000
0100
0000
0000
0000
,
1000
0010
1000
0100
0010
0100
1000
0000
,
1001
0001
0100
0000
1001
1000
0010
1000
,
0100
0010
0100
0010
0001
0010
0100
0000
,
0010
0000
1000
0100
1000
0000
0000
0000
0010
0100
0010
0000
0100
0000
0000
0000
,
0001
1000
0100
0000
0100
0010
0001
0100
,
1000
1000
0100
0010
0001
1000
1001
0000
,
1000
0010
0100
0100
0001
0001
0100
0100
,
0020
0000
1000
1000
0030
0010
0100
0000
,
0001
0100
0001
2000
0000
3200
0000
0310
,
0001
0000
1000
0100
1000
0010
0100
0000
,
0001
0100
0001
0020
0000
0230
0000
1300
,
0001
0000
1000
0010
0100
0010
0100
0000
,
0001
0100
0001
2000
0000
3200
0000
0310
,
0001
0000
1000
0100
0000
0001
0010
0000
,
0001
0001
0000
1000
0001
1001
0000
0000
,
0000
0000
0000
0000
;

//---------------dance-double - ----------------
#NOTES:
     dance-double:
     :
     Easy:
     4:
     0.225,0.259,0.128,0.021,0.000:
00000000
00000000
00000000
00000000
,
00000000
00000000
00000000
00000000
,
00000000
00000000
00000000
00000000
,
10000000
00000000
00010000
00000000
,
00010000
00000000
10000000
00000000
,
10010000
00000000
01000000
00000000
,
00010000
00000000
00001000
00000000
,
00000100
00000000
00000010
00000000
,
00000001
00000000
00001000
00000001
,
00001001
00000000
00000100
00000000
,
00000100
00000000
00001000
00000000
,
01000000
00000000
00100000
00000000
,
10000000
00010000
00100000
01000000
,
10010000
00000000
01000000
00000000
,
01000000
00000000
00010000
00000000
,
00000100
00000000
00000010
00000000
,
00000001
00001000
00000010
00000100
,
00000110
00000010
00000010
00000010
,
00000100
00001000
00001000
00000000
,
00011000
00010000
00010000
00010000
,
00100000
00100000
01000000
00000000
,
10010000
10000000
10000000
10000000
,
01000000
00010000
00010000
00000000
,
00011000
00001000
00001000
00001000
,
00000010
00000000
00000010
00000100
,
00001001
00000001
00000010
00000010
,
00000100
00000100
00001000
00000000
,
00010000
00010000
00100000
00100000
,
01000000
00000000
10000000
00010000
,
10010000
10000000
00100000
00100000
,
01000000
01000000
00010000
00000000
,
00001000
00001000
00000010
00000010
,
00000100
00000000
00000001
00001000
,
00001001
00000001
00000010
00000010
,
00000100
00000100
00001000
00000000
,
00010000
00010000
00100000
00100000
,
01000000
00000000
10000000
00010000
,
10010000
10000000
00100000
00100000
,
01000000
01000000
00010000
00000000
,
00001000
00001000
00010000
00010000
,
00001000
00010000
00001000
00010000
,
00022000
00000000
00000000
00000000
,
00000000
00000000
00000000
00033000
,
00001000
00000000
00010000
00000000
,
01000000
00000000
10000000
00010000
,
10000000
00000000
01000000
00000000
,
00010000
00000000
00001000
00010000
,
00001000
00000000
00010000
00000000
,
00000010
00000000
00001000
00000001
,
00000000
00000000
00000000
00000000
;

//---------------dance-double - ----------------
#NOTES:
     dance-double:
     :
     Medium:
     6:
     0.342,0.337,0.085,0.074,0.000:
00000000
00000000
00000000
00000000
,
00000000
00000000
00000000
00000000
,
00000000
00000000
00000000
00000000
,
00000001
00000001
00001000
00001000
,
00000100
00000000
00010000
00000000
00010000
00001000
00010000
00000000
,
00011000
00010000
01000000
10000000
,
00010000
00010000
10000000
10000000
,
01000000
00010000
00000100
00000010
,
00000001
00000000
00000001
00000000
00000001
00001000
00000001
00000000
,
00002002
00003003
00000200
00000300
,
00002000
00003000
00020000
00030000
,
00200000
00300000
20000000
30000000
,
00010000
00100000
01000000
10000000
,
10010000
10000000
01000000
01000000
,
00010000
00010000
00001000
00001000
,
00000010
00000010
00000001
00000001
,
00001000
00000010
00000100
00000001
,
00001001
00000000
00000001
00001000
00000001
00000000
00000001
00000000
,
00000001
00000000
00000001
00001000
00000001
00000000
00000100
00000000
,
00001000
00000000
00010000
00001000
00010000
00000000
00010000
00000000
,
00010000
00000000
00001000
00010000
00001000
00000000
01000000
00000000
,
00100000
00000000
10000000
00010000
10000000
00000000
10000000
00000000
,
10000000
00000000
10000000
00010000
10000000
00000000
01000000
00000000
,
00010000
00000000
00001000
00010000
00001000
00000000
00001000
00000000
,
00001000
00000100
00000001
00000000
00000001
00001000
00000100
00000000
,
00001001
00000000
00000001
00000000
00000010
00000000
00000100
00000010
,
00000100
00001000
00000001
00000100
,
00001000
00010000
00000100
00000000
00010000
00001000
01000000
00000000
,
00100000
10000000
00100000
00000000
10000000
00010000
01000000
00000000
,
10010000
00000000
10000000
00000000
00100000
00000000
01000000
00100000
,
01000000
00010000
10000000
01000000
,
00010000
00001000
01000000
00000000
00001000
00010000
00000100
00000000
,
00000010
00000001
00000010
00000000
00000001
00001000
00000100
00000000
,
00001001
00000000
00000001
00000000
00000010
00000000
00000100
00000010
,
00000100
00001000
00000001
00000100
,
00001000
00010000
00000100
00000000
00010000
00001000
01000000
00000000
,
00100000
10000000
00100000
00000000
10000000
00010000
01000000
00000000
,
10010000
00000000
10000000
00000000
00100000
00000000
01000000
00100000
,
01000000
00010000
10000000
01000000
,
00010000
00001000
01000000
00000000
00001000
00010000
00000100
00000000
,
00000010
00000001
00000010
00000000
00000001
00001000
00000100
00000010
,
00000001
00000001
00000001
00000001
,
00000100
00001000
00010000
00000100
,
00010000
00010000
00001000
00001000
,
00100000
01000000
10000000
00010000
,
10000000
10000000
10000000
10000000
,
01000000
00010000
00001000
01000000
,
00001000
00001000
00010000
00010000
,
00000010
00000100
00000001
00001000
,
00000000
00000000
00000000
00000000
;

//---------------dance-double - ----------------
#NOTES:
     dance-double:
     :
     Hard:
     9:
     0.497,0.519,0.266,0.298,0.000:
00000000
00000000
00000000
00000000
,
00000000
00000000
00000000
00000000
,
00000000
00000000
00000000
00000000
,
00010000
00001000
00010000
00000000
00001000
00000000
00010000
00000000
,
01000000
00100000
01000000
00100000
00010000
10000000
01000000
00100000
,
10010000
00010000
00010000
00000000
10000000
01000000
00010000
00000000
,
01000000
00010000
00001000
00000000
00010000
00001000
00000100
00000000
,
00001000
00000100
00000001
00000000
00000100
00000001
00001000
00000000
,
00000001
00000010
00001000
00010000
00000100
00001000
00000010
00010000
,
00012000
00000000
01003000
00000000
00010000
01000000
10000000
00000000
,
02010000
00000000
03100000
00000000
10000000
01000000
00010000
00000000
,
00001000
00010000
00000100
00000000
00000010
00000001
00000100
00000000
,
00000010
00001000
00000100
00000010
00000001
00000100
00001000
00000000
,
00012000
00000000
01003000
00000000
00010000
01000000
10000000
00000000
,
02010000
00000000
03100000
00000000
10000000
01000000
00010000
00000000
,
00001000
00010000
00000100
00000000
00000010
00000001
00000100
00000000
,
00000010
00001000
00000100
00000010
00000001
00001000
00000010
00000100
,
00000120
00000000
00001030
00000001
00000201
00000000
00001300
00010000
,
00012000
00000000
00013000
01000000
20000000
00000000
30010000
00000000
,
01020000
00000000
10030000
00100000
01200000
00000000
00310000
00001000
,
00021000
00000000
00031000
00000100
00000002
00000000
00001003
00000000
,
00000120
00000000
00001030
00000001
00000201
00000000
00001300
00010000
,
00012000
00000000
00013000
01000000
20000000
00000000
30010000
00000000
,
01020000
00000000
10030000
00100000
01200000
00000000
00310000
00001000
,
00022000
00000000
00033000
00000000
00000100
00010000
00001000
01000000
,
00011000
00000000
00010000
01000000
10000000
00000000
20000000
00010000
,
30010000
00000000
01000000
00000000
00010000
00001000
00000100
00000001
,
00001000
00000001
00000010
00000000
00000010
00001000
00010000
00001000
,
02000000
00000000
00001000
00000000
03001000
00010000
00000100
00010000
,
00011000
00000000
00010000
01000000
10000000
00000000
20000000
00010000
,
30010000
00000000
01000000
00000000
00010000
00001000
00000100
00000001
,
00001000
00000001
00000010
00000000
00000010
00001000
00010000
00001000
,
02000000
00000000
00001000
00000000
03001000
00010000
00000100
00010000
,
00011000
00000000
00010000
00100000
10000000
00000000
20000000
00010000
,
30010000
00000000
00100000
00000000
00010000
00001000
00000010
00000001
,
00001000
00000001
00000100
00000000
00000100
00001000
00010000
00001000
,
00200000
00000000
00001000
00000000
00301000
00010000
00000010
00010000
,
00011000
00000000
00010000
00100000
10000000
00000000
20000000
00010000
,
30010000
00000000
00100000
00000000
00010000
00001000
00000010
00000001
,
00001000
00000001
00000100
00000000
00000100
00001000
00010000
00001000
,
00200000
00000000
00001000
00000000
00301000
00010000
00000010
00001000
,
00000110
00000000
00000010
00000001
00000000
00000001
00000100
00000000
,
00000100
00001000
00000000
00001000
00010000
00100000
10000000
00000000
,
01100000
00000000
01000000
10000000
00000000
10000000
00100000
00000000
,
00100000
00010000
00000000
00010000
00001000
00000100
00000001
00000000
,
00000110
00000000
00000100
00000001
00000000
00000001
00000010
00000000
,
00000010
00001000
00000000
00001000
00010000
01000000
10000000
00000000
,
01100000
00000000
00100000
10000000
00000000
10000000
01000000
00000000
,
01000000
00010000
00000000
00010000
00001000
00000100
00000001
00000000
,
00000000
00000000
00000000
00000000
;
