#TITLE:SUNKiSS♥DROP;
#SUBTITLE:;
#ARTIST:jun with Alison;
#TITLETRANSLIT:SUNKiSS DROP;
#SUBTITLETRANSLIT:;
#ARTISTTRANSLIT:;
#CREDIT:;
#BANNER:SUNKiSS DROP~jun Side~.png;
#BACKGROUND:SUNKiSS DROP~jun Side~-bg.png;
#LYRICSPATH:;
#CDTITLE:./CDTITLES/DanceDanceRevolution SuperNOVA2.png;
#MUSIC:SUNKiSS DROP~jun Side~.ogg;
#OFFSET:0.000;
#SAMPLESTART:38.590;
#SAMPLELENGTH:15.000;
#SELECTABLE:YES;
#DISPLAYBPM:185.000;
#BPMS:0.000=185.567,4.000=185.007;
#STOPS:;
#BGCHANGES:;

//---------------dance-single - ----------------
#NOTES:
     dance-single:
     :
     Beginner:
     3:
     0.190,0.260,0.029,0.000,0.000:
0000
0000
0000
0000
,
0000
0000
0000
0000
,
1000
0000
0000
0000
,
0001
0000
1000
0000
,
0001
0000
0000
0000
,
1000
0000
0001
0000
,
0100
0000
0000
0000
,
1000
0000
0001
0000
,
1000
0000
0001
0000
,
1000
0000
0100
0000
,
0000
0001
0000
0001
,
0000
1000
0000
1000
,
0000
0001
0000
1000
,
0000
0010
0000
0100
,
0000
0000
1000
0000
,
0001
0000
0100
0000
,
0100
0000
0010
0000
,
0100
0000
0100
0000
,
1000
0000
0001
0000
,
0100
0000
0100
0000
,
0010
0000
0001
0000
,
0100
0000
0000
0010
,
0000
0000
0000
1000
,
0000
0000
0000
0100
,
0000
0000
0000
1000
,
0000
0000
0010
0000
,
0100
0000
0010
0000
,
1000
0000
0100
0000
,
0100
0000
0000
0000
,
0000
0000
0010
0000
,
1000
0000
1000
0000
,
0001
0000
0001
0000
,
0100
0000
0100
0000
,
1000
0000
0001
0000
,
0001
0000
0100
0000
,
0100
0000
0001
0000
,
0001
0000
0010
0000
,
0010
0000
1000
0000
,
0100
0000
0010
0000
,
1000
0000
1000
0000
,
0100
0000
0100
0000
,
0010
0000
0100
0000
,
0010
0000
1000
0000
,
0000
1000
0000
0000
,
0100
0000
0100
0000
,
0010
0000
0100
0000
,
0001
0000
1000
0000
,
0000
1000
0000
0000
,
0001
0000
1000
0000
,
0000
1000
0000
0000
,
0001
0000
1000
0000
,
0000
1000
0000
0000
,
0001
0000
0001
0000
,
1000
0000
1000
0000
,
0100
0000
0100
0000
,
0001
0000
1000
0000
,
0000
0010
0000
0000
,
0001
0000
1000
0000
,
0100
0000
0100
0000
,
0001
0000
1000
0000
,
0000
0010
0000
0000
,
0100
0000
0100
0000
,
0100
0100
0000
0000
,
0001
0000
1000
0000
,
0100
0000
0010
0000
,
0100
0000
0001
0000
,
0100
0000
1000
0000
,
0100
0000
0001
0000
,
0010
0000
0100
0000
,
0001
0000
0100
0000
,
1001
0000
1001
0000
,
0100
0000
0100
0000
,
0001
0000
0100
0000
,
0010
0000
0010
0000
,
1000
0000
0001
0000
,
1000
0000
0010
0000
,
0100
0000
0010
0000
,
1000
0000
0010
0000
,
1001
0000
0000
0000
,
0000
0000
0000
0000
;

//---------------dance-single - ----------------
#NOTES:
     dance-single:
     :
     Easy:
     5:
     0.281,0.334,0.067,0.048,0.000:
0000
0000
0000
0000
,
0000
0000
0000
0000
,
1000
0000
0000
0000
,
0001
0000
1000
0000
,
0001
0000
0000
0000
,
1000
0000
0001
1000
,
0100
0000
0000
0000
,
1000
0000
0001
0000
,
1000
0000
0001
0000
,
1000
0010
0100
0000
,
0000
0001
0000
0001
,
0000
1000
0000
1000
,
0000
0001
0000
1000
,
0000
0010
0000
0100
,
1001
0000
1000
0000
,
0001
1000
0100
0000
,
0100
0000
0020
0030
,
0100
0010
0100
0010
,
1000
0000
0001
1000
,
0100
0000
0100
0000
,
0010
0000
0001
1000
,
0100
0000
0000
0010
,
0001
0000
0000
1000
,
0010
0000
0000
0100
,
0001
0000
0000
1000
,
0200
0300
0020
0030
,
0200
0300
0010
0001
,
1000
0000
0100
0010
,
0200
0000
0000
0300
,
0000
0000
0010
1001
,
1000
0000
1000
0000
,
0001
1000
0001
0000
,
0100
0000
0100
0010
,
1000
0000
0001
1000
,
0001
0000
0100
0000
,
0100
0000
0001
1000
,
0001
0000
0010
0000
,
0010
0100
1000
0001
,
0100
0000
0010
0000
,
1000
0001
1000
0000
,
0100
0000
0100
0000
,
0010
0001
0100
0000
,
0010
0000
1000
0001
,
0000
1000
0001
0000
,
0100
0000
0100
0000
,
0010
1000
0100
0010
,
0001
0000
1000
0001
,
0000
1000
0001
0000
,
0001
0000
1000
0001
,
0000
1000
0001
0000
,
0001
0000
1000
0001
,
0000
1000
0001
0000
,
0001
0000
0001
0000
,
1000
0001
1000
1001
,
0100
0010
0100
0000
,
0001
0000
1000
0100
,
0000
0010
0001
0000
,
0001
0000
1000
0010
,
0100
0010
0100
0000
,
0001
0000
1000
0100
,
0000
0010
0001
0000
,
0100
0010
0100
1001
,
0100
0100
0010
0000
,
0001
0000
1000
0001
,
0100
0000
0010
0000
,
0100
0000
0001
1000
,
0100
0000
1000
0001
,
0100
0000
0001
1000
,
0010
0000
0100
0000
,
0001
1000
0100
0010
,
1001
0000
1001
0000
,
0100
0010
0100
1000
,
0001
0000
0100
0000
,
0010
0100
0010
0000
,
1000
0000
0001
0000
,
1000
0100
0010
0001
,
0100
0000
0010
0000
,
1000
0001
0010
0100
,
1001
0000
0000
0000
,
0000
0000
0000
0000
;

//---------------dance-single - ----------------
#NOTES:
     dance-single:
     :
     Medium:
     8:
     0.378,0.482,0.390,0.029,0.000:
0000
0000
0000
0000
,
0000
0000
0000
0010
,
1001
0000
0000
0000
,
0000
0000
0000
0100
,
1001
0000
0000
0000
,
1001
0000
0110
1001
,
0110
0001
0000
0001
,
0000
1000
0000
1000
,
0000
0001
0000
0001
,
0000
1000
0100
0010
,
0001
0000
1000
0000
,
0100
0010
0001
0000
,
1000
0000
0001
0000
,
0100
0010
1000
1001
,
0110
0000
0001
1000
,
0100
0000
1000
0001
,
0100
0000
0010
0000
,
1000
0100
0010
0001
,
1000
0000
0010
0100
,
0001
0000
0010
0100
,
1000
0000
0010
0100
,
1001
0000
0000
0100
,
1001
0000
0000
0100
,
1001
0000
0000
0010
,
1001
0000
0110
0000
,
1001
0000
0110
1001
,
0110
0000
1000
0001
,
0100
0000
0100
0100
,
0020
0000
0000
0000
,
0030
0000
1001
0110
,
0001
0000
0001
1000
0000
0000
1000
0000
,
0100
0000
0100
0010
0000
0000
0010
0000
,
0001
0000
0001
1000
0000
0100
0000
0100
,
0000
0000
0010
0001
,
0100
0000
0010
0010
0000
0000
1000
0000
,
0100
0000
0010
0010
0000
0000
0001
0000
,
0100
0000
0100
0000
,
0010
0000
1000
0001
0000
0100
0000
0000
,
0010
0000
1000
0001
0000
0000
0001
0000
,
0100
0000
0001
1000
0000
0000
1000
0000
,
0100
0000
0010
0001
0000
0001
0000
0001
,
0000
0100
0100
0000
0000
0000
0010
0000
,
1001
0000
0100
0010
,
0001
0000
0000
0100
0001
0000
1000
0000
,
0100
0000
0000
0010
0200
0000
0000
0000
,
0000
0000
0000
0300
,
1001
0000
0100
1001
,
0000
0010
1001
0000
,
1001
0000
0100
1001
,
0000
0010
1001
0000
,
1001
0000
0100
1001
,
0000
0010
1001
0000
,
1001
0000
1001
0000
,
0100
0010
0100
1001
,
0010
0010
0100
0100
,
0001
0000
1000
0000
0001
0000
0100
0010
,
0100
0100
0010
0010
,
1000
0000
0001
0000
1000
0000
0100
0010
,
0100
0100
0010
0010
,
0001
0100
0010
1000
,
1001
0000
0011
0000
,
1001
1010
0110
1001
,
0100
0000
0010
0100
0000
0000
0100
0000
,
0010
0000
0100
0010
0000
0000
0010
0000
,
0001
0000
1000
0100
0000
0010
0000
0010
,
0000
0000
0001
0100
,
0010
0000
1000
1000
0000
0000
0100
0000
,
0010
0000
0001
0001
0000
0000
1000
0000
,
0001
0000
0100
0000
,
0010
0000
1000
0100
0000
0010
0000
0010
,
0001
0000
1000
0000
,
0001
0000
0100
0001
0000
0000
1000
0000
,
1000
0000
1000
0100
0000
0010
0000
0100
,
0000
1000
0001
0000
0000
0000
0110
0000
,
1001
0000
1000
0100
,
0010
0000
0000
0001
1000
0000
0100
0000
,
0010
0000
0000
0001
0200
0000
0000
0000
,
0000
0300
0010
0100
,
1001
0000
0000
0000
,
0000
0000
0000
0000
;

//---------------dance-single - ----------------
#NOTES:
     dance-single:
     :
     Hard:
     12:
     0.638,0.668,0.228,0.219,0.000:
0000
0000
0000
0000
,
0000
0000
0000
0000
,
0001
0100
1000
0100
0001
0000
0001
0100
,
1000
0100
0001
0000
0001
0100
1000
0100
,
0001
0100
1000
0100
0001
0000
0001
0100
,
1000
0100
0001
0000
0001
0100
1000
0100
,
0001
0100
1000
0100
0001
0000
0001
0100
,
1000
0100
0001
0000
0001
0100
1000
0100
,
0001
0010
1000
0010
0000
0010
0001
0100
,
1000
0100
0001
2000
0000
0000
3000
0000
,
0100
0000
0100
0000
0100
0000
0000
0010
,
0000
0001
0100
0000
0100
0000
0000
0000
,
0010
0000
1000
0000
0001
1000
0001
1000
,
0000
0100
0100
0000
0100
0000
0000
0000
,
0010
0000
0001
0000
1000
0000
0100
0100
,
0000
0010
0010
0000
0001
0000
1000
0100
,
0010
0000
0000
0001
1000
0000
0000
0000
,
0010
0000
0000
0100
0001
0000
1000
0000
,
1000
0000
0100
0010
,
0001
0000
0000
1000
1000
0000
0000
0000
,
0010
0000
0000
0000
0010
0100
0010
0000
,
0010
0000
0000
0000
0000
0000
1000
0100
,
0010
0000
0001
0000
1000
0000
0001
0100
,
0010
0000
1000
0000
0001
0000
1000
0100
,
0010
0000
0001
0000
1000
0000
0010
0100
,
0001
1000
0100
0010
,
0001
0000
0000
1000
0000
0000
0001
0000
,
1000
0000
0100
0100
,
0000
0010
0000
0010
0000
0001
0000
0001
,
2000
3000
0110
1001
,
1000
0100
0001
0100
1000
0000
1000
0100
,
0001
0100
1000
0000
1000
0100
0001
0100
,
1000
0100
0001
0100
1000
0000
1000
0100
,
0001
0100
1000
0000
1000
0100
0001
0100
,
1000
0100
0001
0100
1000
0000
1000
0100
,
0001
0100
1000
0000
1000
0100
0001
0100
,
1000
0010
0001
0010
0000
0010
1000
0100
,
0001
0100
1000
0001
0000
0200
0300
0000
,
0001
0100
1000
0100
0001
0000
0001
0100
,
1000
0100
0001
0000
0001
0100
1000
0100
,
0001
0100
1000
0100
0001
0000
0001
0100
,
1000
0100
0001
0000
0001
0100
1000
0100
,
0001
0100
1000
0100
0001
0000
0001
0100
,
1000
0100
0001
0000
0001
0100
1000
0100
,
0001
0010
1000
0010
0000
0010
0001
1000
,
0000
1000
0100
0010
0001
0000
1000
0000
,
0220
0330
1001
0220
,
0330
1001
0220
0330
,
2002
3003
0110
2002
,
3003
0110
2002
3003
,
0220
0330
1001
0220
,
0330
1001
0220
0330
,
1001
0000
1001
0000
,
0011
0101
1010
1001
,
1000
0100
0001
0100
1000
0000
1000
0100
,
0001
0100
1000
0000
1000
0100
0001
0100
,
1000
0100
0001
0100
1000
0000
1000
0100
,
0001
0100
1000
0000
1000
0100
0001
0100
,
1000
0100
0001
0100
1000
0000
1000
0100
,
0001
0100
1000
0000
1000
0100
0001
0100
,
1000
0010
0001
0010
0000
0010
1000
0100
,
0001
0100
1000
0002
0000
0000
0003
0000
,
0001
0100
1000
0100
0001
0000
0001
0100
,
1000
0100
0001
0000
0001
0100
0001
0100
,
0010
0001
0100
0001
0010
0000
0010
0001
,
0100
0001
0010
0000
0010
0001
0010
0001
,
1000
0010
0001
0010
1000
0000
1000
0010
,
0001
0010
1000
0000
1000
0010
0001
0010
,
1000
0100
0001
0100
0000
0100
1000
0010
,
0001
0010
1000
0001
0000
0200
0300
0000
,
1000
0100
0001
0100
1000
0000
0010
1000
,
0100
1000
0010
0000
0001
0010
0001
0010
,
0100
0001
0010
0001
0100
0000
1000
0100
,
0001
0100
1000
0000
0010
1000
0010
1000
,
0001
0010
1000
0010
0001
0000
0100
0001
,
0010
0001
0100
0000
1000
0100
1000
0100
,
0010
0001
0100
0010
0000
0010
1000
0001
,
0000
1000
0001
1000
0010
0000
0100
0000
,
1001
0000
0000
0000
,
0000
0000
0000
0000
;

//---------------dance-single - ----------------
#NOTES:
     dance-single:
     :
     Challenge:
     12:
     0.621,0.668,0.818,0.219,0.000:
0000
0000
0000
0000
,
0000
0000
0000
0000
,
1001
0000
0000
0000
,
0100
0000
0001
0010
,
1001
0000
0000
0000
,
0110
0000
1100
0101
,
1000
0010
1000
0001
0100
0000
0001
0010
,
0001
1000
0100
0000
0001
0100
1000
0100
,
0001
0010
0100
0010
0000
0010
1000
0010
,
0001
0100
0010
0200
0300
0000
0000
0000
,
1001
0000
1100
0000
1001
0000
0000
0001
,
0000
0010
0001
0000
1000
0000
0010
0000
,
0100
0000
0100
0000
0001
1000
0100
1000
,
0000
1000
0001
0000
0010
0000
0011
0000
,
0110
0000
1001
0000
0110
0000
0100
0001
,
0000
1000
0010
0000
1001
0000
0010
0100
,
0010
0000
0000
0001
1000
0000
0000
0000
,
0200
0000
0000
0310
1000
0000
0101
0000
,
1001
0000
1010
0101
,
1000
0000
0000
0100
0010
0000
0000
1000
,
0010
0110
0001
1100
,
0101
0000
0000
0010
,
0100
0000
0010
0001
0100
0010
1000
0000
,
1001
0000
1000
0010
1000
0001
0010
0001
,
1000
0000
1000
0100
0000
0100
0010
0100
,
2000
3001
0110
1001
,
0110
0000
0000
1000
0000
0000
0001
0000
,
0101
0000
0010
0010
,
1000
0100
0000
0001
0000
0010
0000
1000
,
0001
0000
0110
0110
,
1001
0000
1000
0100
0000
0001
0000
0100
,
0000
0001
0100
0010
1000
0000
0001
1000
,
0100
0000
0100
1000
0000
0001
0000
0100
,
1000
0100
0001
0000
0101
0000
1100
0000
,
0101
0000
0000
0001
0010
1000
0000
0010
,
0100
0101
0011
1010
,
1100
0000
0000
0000
0010
1000
0100
0001
,
0000
0001
0100
1000
0010
0000
0110
0000
,
1001
0000
0001
0100
0000
1010
0000
0101
,
0000
0010
1000
0100
1000
0000
1001
0000
,
0101
0000
1000
0100
0000
0001
0000
1100
,
0000
0001
0100
0000
0100
0000
0010
0000
,
1001
0000
0000
0000
0100
0010
1000
0001
,
0000
0010
0001
0000
1001
0000
0010
0100
,
1000
0000
1000
0001
0200
0000
0000
0000
,
0300
0010
1000
0001
0100
0000
0100
0000
,
2002
3003
1100
2002
,
3003
0101
2002
3003
,
0220
0330
1010
0220
,
0330
0011
0220
0330
,
2002
3003
0101
2200
,
3300
1010
0022
0033
,
1001
0000
1001
0000
,
1010
1100
0011
0101
,
1000
0100
0001
0100
1000
0000
0001
0010
,
1000
0010
0001
0000
0001
1000
0010
0100
,
0001
0100
1000
0100
0001
0000
1000
0010
,
0001
0010
1000
0000
1000
0001
0010
0100
,
1000
0001
0010
0001
0100
0000
0001
1000
,
0010
1000
0100
0000
0001
0100
0010
0100
,
0010
1000
0100
0010
0000
0001
0010
0100
,
1000
1001
0110
0110
,
1001
0000
0010
0100
0000
1000
0000
0001
,
0000
1000
0100
0010
1000
0000
0001
1000
,
0010
0000
0010
1000
0000
0100
0000
0001
,
0100
1000
0001
0000
0011
0000
1010
0000
,
0011
0000
0000
0010
1000
0100
0000
0010
,
0000
0011
0101
1100
,
1010
0000
0000
0000
0010
0001
0100
1000
,
0000
1000
0100
0001
0010
0000
0110
0000
,
1001
0000
1000
0100
0000
0011
0000
1100
,
0000
0010
0001
0100
0001
0000
1001
0000
,
1100
0000
0001
0100
0000
1000
0000
0101
,
0000
1000
0100
0000
0100
0000
0010
0000
,
1001
0000
0000
0000
0100
0010
1000
0001
,
0000
0010
0100
0000
1001
0000
0001
0100
,
1000
0000
0001
1000
0200
0000
0000
0000
,
0300
1000
0010
0100
0001
0000
0010
0000
,
1001
0000
0000
0000
,
0000
0000
0000
0000
;

//---------------dance-double - ----------------
#NOTES:
     dance-double:
     :
     Easy:
     4:
     0.197,0.334,0.095,0.019,0.000:
00000000
00000000
00000000
00000000
,
00000000
00000000
00000000
00000000
,
00001000
00000000
00000000
00000000
,
00010000
00000000
00000000
00000000
,
00001000
00000000
00000000
00000000
,
00010000
00000000
00001000
00010000
,
00000010
00000000
00000010
00000000
,
00001000
00000000
00001000
00000000
,
00000100
00000000
00000100
00000000
,
00010000
00001000
00010000
00000000
,
00000010
00000000
00000000
00000000
,
00000100
00000000
00000000
00000000
,
00000001
00000000
00000000
00000000
,
00001000
00000000
00000000
00000000
,
00000100
00000000
00000000
00000000
,
00010000
00000000
00000000
00000000
,
00001000
00000000
00010000
00000000
,
00001000
00000000
00001000
00000000
,
00100000
00000000
00000000
00000000
,
00010000
00000000
00000000
00000000
,
10000000
00000000
01000000
00000000
,
00010000
00000000
00000000
00001000
,
00001000
00000000
00000000
00010000
,
00010000
00000000
00000000
00000010
,
00000010
00000000
00000000
00000000
,
00001000
00000000
00000001
00000000
,
00001000
00000000
00000100
00000100
,
00000100
00000000
00010000
00000000
,
00002000
00000000
00000000
00003000
,
00000000
00000000
00010000
00001000
,
00100000
00000000
00100000
00000000
,
00010000
00000000
00010000
00000000
,
10000000
00000000
00010000
00000000
,
00010000
00000000
00000000
00000000
,
01000000
00000000
00000000
00000000
,
00001000
00000000
00000000
00000000
,
00010000
00000000
00000000
00000000
,
00000010
00000000
00000010
00000000
,
00001000
00000000
00000001
00000000
,
00001000
00000000
00000100
00000000
,
00010000
00000000
00000000
00000000
,
00001000
00000000
00000000
00000000
,
00100000
00000000
00000000
00000000
,
00010000
00000000
00000000
00000000
,
20000000
00000000
30010000
00000000
,
00000000
00000000
00010000
10000000
,
10010000
00000000
00000000
00000000
,
01000000
00000000
00011000
00000000
,
00011000
00000000
00000000
00000000
,
00000010
00000000
00001001
00000000
,
00001001
00000000
00000000
00000000
,
00000100
00000000
00011000
00000000
,
00100000
00000000
10010000
00000000
,
10000000
00010000
10000000
10010000
,
00010000
00000000
00010000
00000000
,
01000000
00000000
00001000
00010000
,
00000010
00000000
00000010
00000000
,
00001000
00000000
00000001
00001000
,
00000100
00000000
00000100
00000000
,
00010000
00000000
00001000
00010000
,
00100000
00000000
00010000
00000000
,
10000000
00010000
10000000
10010000
,
01000000
00000000
00100000
00000000
,
01000000
00000000
00000000
00000000
,
00010000
00000000
10000000
00000000
,
00010000
00000000
00000000
00000000
,
01000000
00000000
00000000
00000000
,
00001000
00000000
00000000
00000000
,
00010000
00000000
00000000
00000000
,
00000010
00001000
00000001
00000000
,
00000100
00000000
00000000
00000000
,
00010000
00000000
00000000
00000000
,
00001000
00000000
00010000
00000000
,
00000010
00000000
00000000
00000000
,
00000100
00000000
00001000
00000000
,
00010000
00000000
01000000
00000000
,
10000000
00000000
00010000
00000000
,
01000000
00000000
00001000
00010000
,
00011000
00000000
00000000
00000000
,
00000000
00000000
00000000
00000000
;

//---------------dance-double - ----------------
#NOTES:
     dance-double:
     :
     Medium:
     7:
     0.351,0.408,0.171,0.067,0.000:
00000000
00000000
00000000
00000000
,
00000000
00000000
00000000
00100000
,
10000000
01000000
00010000
00001000
,
00000100
00000001
00000001
00001000
,
00000100
00010000
00001000
00100000
,
00100000
01000000
10000000
00010000
,
01000000
00100000
10000000
01000000
,
00100000
00001000
00010000
00000010
,
00001000
00000100
00010000
00001000
,
00100000
01000000
20000000
30000000
,
00010000
01000000
00100000
00000000
,
00010000
00000000
00001000
00000000
,
00000010
00000000
00000001
00000000
,
00001000
00000010
00000100
00000000
,
00001000
00010000
00001000
00000000
,
00100000
00000000
00010000
00000000
,
10000000
00000000
10000000
00000000
,
00010000
00000000
00010000
00000000
,
01000000
00000000
00001000
00010000
,
00001000
00000000
00010000
00000000
,
00000010
00000000
00001000
00000001
,
00001000
00000000
00000000
00000100
,
00020000
00000000
00030000
00001000
,
00200000
00000000
00300000
00010000
,
20000000
00000000
30000000
00100000
,
01000000
00000000
00001000
00010000
,
00001000
00000000
00100000
00010000
,
01000000
00000000
00001000
00000000
,
00020000
00000000
00000000
00000000
,
00030000
00000000
00011000
00001010
,
00000100
00000001
00000010
00000100
,
00001000
00000010
00000100
00001000
,
00010000
01000000
10000000
00010000
,
01000000
00100000
00010000
00001000
,
00010000
00000000
00000010
00001000
,
00000010
00000000
00000100
00000001
,
00000100
00000000
00000010
00001000
,
00000100
00010000
00001000
00000000
,
00100000
00010000
01000000
00100000
,
10000000
01000000
00010000
00001000
,
00000100
00000001
00000010
00000100
,
00001000
00000001
00000100
00001000
,
00010000
00000000
00100000
10000000
,
00010000
00000000
01000000
00001000
,
00010000
00000000
00000000
00000010
00000020
00000000
00000030
00000000
,
00001000
00000001
00000100
00000010
,
00000000
00001001
00000000
00000000
,
00001100
00000000
00000000
00011000
,
00000000
00110000
00000000
00000000
,
10010000
00000000
00000000
01010000
,
00000000
00011000
00000000
00000000
,
00001010
00000000
00000000
00001001
,
00000000
00010100
00000000
00101000
,
00000000
00000000
00000000
10010000
,
10000000
00010000
10000000
01000000
,
00010000
00001000
00000100
00000001
,
00001000
00000001
00001000
00000100
,
00010000
00001000
00100000
01000000
,
10000000
00010000
10000000
01000000
,
00010000
00001000
00000100
00000010
,
00001000
00000100
00000010
00000001
,
00000100
00001000
00010000
00011000
,
00100000
00010000
01000000
00011000
,
00000010
00001000
00000100
00011000
,
00100000
00010000
10000000
00010000
,
01000000
00000000
00001000
00010000
,
00000010
00000000
00010000
00001000
,
01000000
00000000
00001000
00010000
,
00000010
00000000
00000100
00000000
,
00000001
00001000
00000001
00000000
,
00000100
00001000
00010000
01000000
,
10000000
00100000
01000000
00010000
,
10000000
01000000
00010000
00001000
,
00000100
00000001
00000010
00000100
,
00001000
00000000
00000001
00000100
,
00001000
00000000
00010000
01000000
,
10000000
00000000
00000000
00100000
00200000
00000000
00000000
00000000
,
00000000
00300000
00010000
00001000
,
00011000
00000000
00000000
00000000
,
00000000
00000000
00000000
00000000
;

//---------------dance-double - ----------------
#NOTES:
     dance-double:
     :
     Hard:
     11:
     0.532,0.668,0.343,0.285,0.000:
00000000
00000000
00000000
00000000
,
00000000
00000000
00000000
00000000
,
10000000
01000000
00010000
00001000
00000100
00000000
00000001
00000100
,
00001000
00010000
01000000
00000000
10000000
01000000
10000000
00100000
,
10000000
01000000
00010000
00001000
00000100
00000000
00000001
00000100
,
00001000
00010000
01000000
00000000
10000000
01000000
10000000
00100000
,
10000000
01000000
00010000
00001000
00000100
00000000
00000001
00000100
,
00001000
00010000
01000000
00000000
10000000
01000000
10000000
00100000
,
10000000
01000000
00010000
00001000
00000000
00001000
00010000
01000000
,
10000000
00010000
01000000
00200000
00000000
00000000
00300000
00000000
,
10000000
01000000
00100000
00100000
,
00010000
10000000
00010000
00000000
01000000
00000000
01000000
00000000
,
00001000
00010000
00000010
00001000
,
00000001
00000100
00000001
00000000
00001000
00000000
00000100
00000000
,
00010000
00001000
00100000
00000000
00001000
00010000
00000100
00000000
,
00010000
00001000
00100000
00000000
00001000
00010000
00000100
00000000
,
00010000
00000000
00001000
00010000
00001000
00000000
00010000
00000000
,
00000010
00000000
00000100
00000000
00000001
00000000
00001000
00000100
,
00001000
00000000
00000001
00000000
00001000
00000000
00000100
00010000
,
00000100
00001000
00000001
00000000
,
00000100
00001000
00010000
01000000
,
20020000
00000000
30030000
00100000
,
00011000
00000000
00010000
00001000
00010000
00000000
00000010
00000000
,
00001001
00000000
00001000
00000001
00001000
00000000
00000100
00000000
,
00011000
00000000
00001000
00010000
00001000
00000000
00100000
00000000
,
10010000
00000000
10100000
01010000
,
00011000
00000000
00000010
00001000
,
00000100
00000000
00000000
00000000
00010000
00000000
00001000
00010000
,
00002000
00000000
00000000
00003000
,
00100000
00000000
10010000
01100000
,
10000000
00000000
01000000
10000000
00000000
10000000
00000000
10000000
,
00000000
01000000
00010000
00000000
00001000
00000000
00000100
00000000
,
00000001
00000000
00001000
00000001
00000000
00000100
00000000
00002000
,
00000000
00003000
00010000
00001000
,
00100000
00000000
00000000
00010000
10000000
00010000
00000000
01000000
,
00000000
00001000
00010000
00001000
,
01000000
00000000
00000000
00000000
00100000
00000000
10000000
01000000
,
00000000
00100000
00010000
01000000
00000000
00000000
00001000
00000000
,
00010000
00000000
00010000
00001000
00000000
00100000
00000000
00010000
,
00000000
01000000
00100000
00000000
10000000
00000000
01000000
00000000
,
00010000
00000000
00001000
00010000
00000000
01000000
00000000
00010000
,
00000000
00001000
00000100
00000000
00000000
00000000
00000001
00000000
,
00000011
00000000
00000000
00000000
00000100
00001000
00000100
00010000
,
00000000
00010000
00001000
00000000
00100000
00000000
00010000
01000000
,
00100000
00000000
00000000
10000000
02000000
00000000
00000000
00000000
,
00000000
00000000
00000000
03000000
,
20020000
30030000
01100000
20020000
,
30030000
01001000
00020020
00030030
,
00002002
00003003
00000110
00002002
,
00003003
00010100
00202000
00303000
,
20020000
30030000
01100000
20020000
,
30030000
01001000
00020020
00030030
,
00002200
00003300
00022000
00033000
,
00110000
11000000
10100000
01010000
,
00001000
00010000
00000010
00010000
,
00001000
00000000
00100000
00000000
00001000
00000000
00010000
00001000
,
00010000
00001000
01000000
00001000
,
00010000
00000000
00000100
00000000
00010000
00000000
00001000
00010000
,
00001000
00010000
00000010
00010000
,
00001000
00000000
00100000
00000000
00001000
00000000
00010000
00001000
,
00010000
00000000
00000010
00001000
00000100
00000000
00000010
00000001
,
00000100
00001000
00010000
00110000
,
10000000
00000000
01000000
10000000
00000000
10000000
01000000
00010000
,
00000000
00001000
00010000
00000010
,
00001000
00000000
00000001
00000010
00000000
00000100
00000000
00000100
,
00000000
00000000
00010000
00001000
,
00100000
00000000
00000000
00001000
00010000
00000100
00000000
00001000
,
00000000
00000010
00010000
00001000
,
02000000
00000000
03000000
00000000
00010000
00000000
10000000
00010000
,
00000000
10000000
00100000
01000000
00000000
00010000
00000000
10000000
,
01000000
00000000
00010000
00001000
00000000
00001000
00000000
00001000
,
00000000
00010000
00001000
00000000
00100000
00000000
01000000
00000000
,
10000000
00000000
00100000
00010000
00000000
00001000
00000000
00000010
,
00000000
00000001
00000100
00000000
00000000
00000000
00010010
00000000
,
01001000
00000000
00000000
00000000
00100000
01000000
10000000
00100000
,
00000000
00100000
01000000
00000000
00010000
00000000
10000000
01000000
,
00010000
00000000
00000000
00001000
00000200
00000000
00000300
00000000
,
00000010
00000001
00000100
00000000
00001000
00000000
00010000
00000000
,
00011000
00000000
00000000
00000000
,
00000000
00000000
00000000
00000000
;

//---------------dance-double - ----------------
#NOTES:
     dance-double:
     :
     Challenge:
     12:
     0.582,0.594,0.647,0.038,0.000:
00000000
00000000
00000000
00000000
,
00000000
00000000
00000000
00000000
,
00001001
00000000
00000000
00000000
,
00000010
00000000
00001000
00010000
,
00011000
00000000
00000000
00000000
,
01100000
00000000
01010000
11000000
,
10000000
00100000
00010000
00100000
00010000
00000000
00001000
00010000
,
01000000
00010000
01000000
00000000
00010000
00001000
00010000
00000010
,
00000100
00000010
00001000
00000100
00000000
00000100
00000001
00000100
,
00000010
00001000
00010000
00002000
00003000
00000000
00000000
00000000
,
00011000
00000000
00010100
00000000
00011000
00000000
00000000
00010000
,
00000000
00001000
00100000
00000000
01000000
00000000
10000000
00000000
,
00100000
00000000
01000000
00000000
00100000
00010000
00001000
00010000
,
00000000
00010000
01000000
00000000
00010000
00000000
00011000
00000000
,
00010100
00000000
00001100
00000000
00010100
00000000
00000010
00001000
,
00000000
00000001
00000100
00000000
00001000
00000000
00010000
00001000
,
00010000
00000000
00000000
01000000
10000000
00000000
00000000
00000000
,
00200000
00000000
00300000
01000000
00100000
00000000
01010000
00000000
,
11000000
00000000
00010000
00001000
,
00000010
00000000
00000000
00001000
00010000
00000000
00000000
00001000
,
00000100
00000110
00001000
00000101
,
00001100
00000000
00000000
00000010
,
00001000
00000000
00010000
00001000
00100000
00001000
00010000
00000000
,
00010010
00000000
00010000
00001000
00010000
01000000
10000000
00100000
,
00010000
00000000
00010000
01000000
00000000
01000000
00100000
00010000
,
00001000
00000100
00001001
00000110
,
00001001
00000000
00000000
00000010
00000000
00000000
00001000
00000000
,
00011000
00000000
00010000
00100000
,
10000000
01000000
00000000
00010000
00000000
00001000
00000000
00000100
,
00000001
00000000
00000110
00001001
,
00000110
00000000
00010000
00001000
00000000
01000000
00000000
00001000
,
00000000
00010000
00001000
00000010
00001000
00000000
00100000
00010000
,
01000000
00000000
00100000
10000000
00000000
01000000
00000000
00010000
,
00001000
00010000
01000000
00000000
11000000
00000000
10100000
00000000
,
11000000
00000000
00000000
00010000
00001000
00000010
00000000
00000001
,
00000000
00000011
00000110
00001010
,
00011000
00000000
00000000
00000000
00001000
00010000
00001000
00010000
,
00000000
00010000
00000100
00000010
00001000
00000000
00011000
00000000
,
01010000
00000000
10000000
00100000
00000000
00110000
00000000
11000000
,
00000000
00100000
00010000
00001000
00010000
00000000
00011000
00000000
,
00010100
00000000
00001000
00100000
00000000
00010000
00000000
00010100
,
00000000
00000010
00001000
00000000
00010000
00000000
01000000
00000000
,
10010000
00000000
00000000
00000000
00100000
10000000
00100000
00010000
,
00000000
00001000
00010000
00000000
00110000
00000000
10000000
01000000
,
00010000
00000000
00001000
00010000
00000200
00000000
00000000
00000000
,
00000300
00000000
00000000
00000000
,
00000010
00000001
00000010
00000000
00001000
00000000
00010000
00001000
,
00010000
01000000
10010000
00000000
,
00100000
10000000
00100000
00000000
00010000
00000000
00001000
00010000
,
00001000
00000100
00001001
00000000
,
00000100
00000010
00001000
00000000
00010000
00000000
00100000
01000000
,
00010000
10000000
11000000
00000000
,
01000000
00010000
00001000
00000000
00001000
00010000
01000000
00000000
,
11000000
10100000
00110000
00011000
,
00000010
00001000
00000100
00001000
00000010
00000000
00000010
00000001
,
00000100
00000001
00000010
00000000
00000010
00001000
00010000
00001000
,
01000000
00010000
00100000
00010000
01000000
00000000
01000000
10000000
,
00100000
10000000
01000000
00000000
01000000
00010000
00001000
00000010
,
00000001
00000010
00001000
00000010
00000001
00000000
00000100
00001000
,
00010000
00001000
00000100
00000000
00001000
00010000
00100000
00010000
,
00001000
00010000
00001000
00010000
00000000
00010000
01000000
10000000
,
00100000
00010000
00011000
00010100
,
00000110
00000000
00010000
00001000
00000000
01000000
00000000
00001000
,
00000000
00010000
00001000
00000100
00001000
00000000
01000000
00010000
,
00100000
00000000
01000000
10000000
00000000
00100000
00000000
00010000
,
00001000
00010000
01000000
00000000
11000000
00000000
10100000
00000000
,
00110000
00000000
00000000
00010000
00001000
00000010
00000000
00000001
,
00000000
00001001
00000110
00001010
,
00011000
00000000
00000000
00000000
00010000
00000000
00010000
00001000
,
00000000
00010000
00000010
00000100
00001000
00000000
00011000
00000000
,
01010000
00000000
10000000
00010000
00000000
10100000
00000000
01010000
,
00000000
00001000
00010000
00100000
00010000
00000000
00011000
00000000
,
00010010
00000000
00001000
01000000
00000000
00010000
00000000
00010010
,
00000000
00001000
00010000
00000000
00000000
00000000
01100000
00000000
,
10010000
00000000
00000000
00000000
01000000
10000000
00100000
00010000
,
00000000
00001000
00010000
00000000
00001000
00000000
00000100
00000001
,
00000010
00000000
00001000
00010000
00002000
00000000
00000000
00000000
,
00003000
00000010
00001000
00010000
01000000
00000000
10000000
00000000
,
01010000
00000000
00000000
00000000
,
00000000
00000000
00000000
00000000
;
