#TITLE:STARS☆☆☆ (Re-tuned by HΛL) - DDR EDITION -;
#SUBTITLE:;
#ARTIST:TЁЯRA;
#TITLETRANSLIT:;
#SUBTITLETRANSLIT:;
#ARTISTTRANSLIT:;
#CREDIT:;
#BANNER:STARS (Re-tuned by HAL) - DDR EDITION -.png;
#BACKGROUND:STARS (Re-tuned by HAL) - DDR EDITION --bg.png;
#LYRICSPATH:;
#CDTITLE:./CDTITLES/beatmaniaIIDX.png;
#MUSIC:STARS (Re-tuned by HAL) - DDR EDITION -.ogg;
#OFFSET:0.000;
#SAMPLESTART:55.460;
#SAMPLELENGTH:15.000;
#SELECTABLE:YES;
#DISPLAYBPM:145.000;
#BPMS:0.000=145.161,4.000=145.010;
#STOPS:;
#BGCHANGES:;

//---------------dance-single - ----------------
#NOTES:
     dance-single:
     :
     Beginner:
     3:
     0.162,0.169,0.087,0.000,0.000:
0000
0000
0000
0000
,
0000
0000
0000
0000
,
0000
0000
0000
0000
,
0000
0000
0000
0000
,
0000
0000
0000
0000
,
0100
0000
0100
0000
,
0000
0010
0000
0001
,
0000
0000
1000
1000
,
0000
0100
0100
0100
,
0000
0000
0010
0000
,
0100
0000
0010
0000
,
0100
0000
1000
0000
,
1001
0000
1000
1000
,
0000
0100
0000
0000
,
0010
0000
0110
0000
,
0100
0000
1000
0000
,
1000
1000
0000
0001
,
0000
1000
0000
0000
,
1000
0000
1000
0000
,
1000
0000
0001
0000
,
0001
0000
1000
0000
,
0001
0000
1001
0000
,
1000
0000
0001
0000
,
1000
0000
1001
0000
,
1000
0000
0001
0000
,
0100
0000
1000
0000
,
1001
0000
0001
0000
,
1000
0000
1000
0000
,
1000
0000
1000
0000
,
0001
0000
1000
0000
,
1000
0000
1000
0000
,
0001
0000
1000
0000
,
1000
0000
0100
0000
,
1001
0000
0010
0010
,
0000
0000
0010
0000
,
0001
0000
0010
0000
,
1000
0000
1000
0000
,
1000
0000
0001
0000
,
1000
0000
0010
0010
,
0000
0000
0100
0100
,
0100
0000
1001
0000
,
0001
0000
0001
0000
,
0010
0000
1000
0000
,
1000
0000
1000
0000
,
0100
0000
1000
0000
,
1000
0000
1000
0000
,
0001
0000
1000
0000
,
0001
0000
0001
0000
,
1000
0000
0001
0000
,
1000
0000
1001
0000
,
1000
0000
1000
0000
,
0001
0000
0100
0000
,
0010
0000
0001
0000
,
0010
0010
0000
0100
,
0000
0000
0100
0000
,
0100
0000
0100
0000
,
0100
0000
1000
0000
,
1000
0000
1000
0000
,
0110
0000
0000
0000
,
0000
0000
0000
0000
;

//---------------dance-single - ----------------
#NOTES:
     dance-single:
     :
     Easy:
     5:
     0.291,0.366,0.320,0.107,0.000:
0000
0000
0000
0000
,
0000
0000
0000
0000
,
0000
0000
0000
0000
,
0000
0000
0000
0000
,
0000
0000
0000
0000
,
0100
0000
0100
1100
,
0000
0010
1000
0001
,
0100
0000
1000
1000
,
0000
0100
0100
0011
,
1010
0000
0010
1000
,
0100
0000
0010
0001
,
0100
0000
1000
0001
,
1001
0000
1100
1000
,
0101
0100
1100
0000
,
0010
0100
0110
0000
,
0022
0033
2200
3300
,
1000
1000
0001
0001
,
0010
1000
0001
0000
,
1000
0010
1000
0001
,
1000
0100
0001
0000
,
0001
0100
1000
0010
,
0001
0100
1001
0000
,
1000
0100
0001
0010
,
1000
0100
1001
0000
,
1000
0001
0001
0100
,
0100
0000
1000
0000
,
1001
0010
0101
0010
,
1100
0000
1000
0000
,
1000
0010
1000
0000
,
0001
0000
1000
0000
,
1000
0100
1000
0000
,
0001
0000
1000
0000
,
1100
0101
0011
1010
,
1001
0000
0010
0010
,
0100
0000
0010
1000
,
0101
0000
0010
0001
,
1100
0000
1100
0000
,
1000
0100
0001
1010
,
1100
0000
0010
0010
,
1100
0000
0100
0100
,
0022
0033
1001
0000
,
0001
1000
0001
0100
,
0010
0100
1000
0001
,
1000
0000
1000
0001
,
0100
0010
1000
0010
,
1000
0000
1000
0100
,
0001
0100
1000
0100
,
0001
0000
0001
0100
,
1000
0100
0001
0100
,
1000
0000
1001
0101
,
2200
3300
1000
0010
,
0001
0000
0100
1000
,
0010
0000
0001
0000
,
0010
0010
0100
0100
,
0220
0330
0100
1000
,
0200
0300
0100
0001
,
0100
0000
1000
0000
,
1000
0001
1000
0001
,
0110
0000
0000
0000
,
0000
0000
0000
0000
;

//---------------dance-single - ----------------
#NOTES:
     dance-single:
     :
     Medium:
     10:
     0.431,0.478,0.214,0.087,0.029:
0000
0000
0000
0000
,
0000
0000
0000
0000
,
0000
0000
0000
0000
,
0000
0000
0000
0000
,
0000
0000
0000
0000
,
1000
0100
0000
0001
0100
0000
1000
0100
,
0000
0001
0100
0000
0010
0000
0010
0000
,
0100
1100
0000
0010
0011
0000
1000
1100
,
0000
0001
0011
0000
0100
0000
0100
0000
,
1000
0000
0100
0000
1000
0000
0000
0000
0010
0000
0000
0100
0000
0000
0001
0000
,
0100
0001
1000
0000
0100
0000
0100
0000
,
0010
0000
1000
0000
0001
0000
0000
0000
0100
0000
0000
0100
0000
0000
0010
0000
,
1000
0001
1000
0000
0010
0000
0010
0000
,
1000
0000
0000
1100
0000
0000
0001
0000
0100
0000
0000
0000
0010
0000
0000
0000
,
0010
0000
0000
0101
0000
0000
1000
0000
0100
0000
0000
0000
1000
0000
0000
0000
,
1000
0100
0001
0000
0001
0100
1000
0000
,
0001
0000
0000
0100
1000
0011
1000
0000
,
0100
0000
1000
0000
0010
0010
0000
1001
,
0000
1000
0100
0001
0010
0000
0001
0000
,
0100
0000
1000
0000
0010
0010
0000
1000
,
0000
0001
0100
1000
0010
0000
1000
0000
,
0100
0000
0020
0000
0031
1000
0000
0010
,
1000
0100
0010
0001
0100
0000
0010
0000
,
1000
0000
0001
0000
0100
0100
1100
0000
,
0010
0010
0011
0000
1000
0000
1001
0000
,
0002
0000
2003
0000
3001
0100
0100
0000
,
1000
0000
0001
0100
0100
0000
0001
0000
,
0001
0010
0001
0000
1000
0010
1000
0000
,
1001
0000
1001
0000
0100
0100
0100
0010
,
0100
0000
1001
0000
0010
0010
0100
0000
,
0001
0000
0001
0000
1000
0100
1000
0000
,
0100
0001
0100
0000
0001
0010
0001
0000
,
0010
1000
0010
1000
0010
0000
0101
0000
,
1010
0000
0100
1000
0100
0000
1001
0100
,
1001
0000
0010
0100
1000
0000
0100
0000
,
0010
0000
0010
0100
0001
0000
1000
0000
,
1000
0001
0100
0000
0001
1000
0100
0000
,
1000
0100
0001
0010
1000
0000
0100
0000
,
0002
0000
1003
0100
1000
0000
0010
0000
,
2000
0000
3001
0100
0001
0000
1000
0000
,
0100
1000
0001
0000
0100
0001
1000
0000
,
1001
0000
0000
0010
0000
0000
0100
0000
0100
0000
0000
0000
0010
0000
0000
0000
,
0010
0000
0001
0000
0100
1000
0010
0000
,
0100
0001
0010
0000
2000
0000
3100
0000
,
0001
0000
0010
0000
0010
0001
0100
0000
,
0010
1000
0100
0000
0200
0000
1300
0000
,
0010
0000
1000
0000
0100
0100
0010
0000
,
0010
0010
0100
0000
2000
0000
3001
0000
,
0010
0000
0100
0000
1000
1000
0100
0000
,
0001
0001
0100
0000
1000
0000
1100
0000
,
0010
0000
1000
0100
0001
0000
0001
0000
,
0010
0000
1000
0100
0001
0000
0010
0000
,
0001
0100
1000
0000
0001
0100
1000
0000
,
0100
1000
0100
0001
0100
0000
0010
0000
,
0010
0000
0100
0001
1000
0000
0100
0000
,
0100
0010
0001
1000
,
1000
0100
0101
0000
0001
0100
1100
0000
,
1000
0000
0000
0100
0000
0000
0020
0000
0100
0000
0000
0000
0001
0000
0000
0000
,
0130
0000
0000
0000
,
0000
0000
0000
0000
;

//---------------dance-single - ----------------
#NOTES:
     dance-single:
     :
     Hard:
     9:
     0.438,0.450,0.155,0.000,0.073:
0000
0000
0000
0000
,
0000
0000
0000
0000
,
0000
0000
0000
0000
,
0000
0000
0000
0000
,
0000
0000
0000
0000
,
1000
0010
1000
0010
0100
0000
0001
0010
,
0001
0010
0100
0000
1100
0000
0000
0000
,
0001
0100
0001
0100
0010
0000
1000
0100
,
1000
0100
0010
0000
0001
0000
1000
0000
,
0010
0000
0100
0000
0001
0000
0010
0000
0100
0000
0000
1000
0000
0000
0001
0000
,
0100
0010
0100
0001
0010
0000
1100
0000
,
0010
0000
0100
0000
1000
0000
0010
0000
0100
0000
0000
0001
0000
0000
1000
0000
,
0100
0010
0100
1000
0010
0010
0100
0001
,
1000
0000
0000
0010
0000
0000
0001
0000
0010
0000
0000
0000
1000
0000
0000
0000
,
0001
0000
0000
0010
0000
0000
1000
0000
0010
0000
0000
0000
0001
0000
0000
0000
,
0100
0001
0010
0000
0100
1000
0010
0000
,
0100
0000
0000
0000
0100
0000
0000
0000
0001
0100
0000
0000
0101
0000
0000
0000
,
0010
0100
0010
0000
0001
0100
0000
1000
,
0000
0001
0100
1000
0100
0000
0001
0000
,
0010
0001
0010
0000
1000
0010
0000
0100
,
0000
0001
0010
0100
1000
0000
0010
0000
,
1000
0000
0100
0000
0001
0000
0000
0000
0001
0000
0000
0010
0000
0000
1000
0000
,
0010
0001
0100
0001
1000
0000
0100
0000
,
0001
0000
0100
0000
1000
0000
0000
0000
1000
0000
0000
0010
0000
0000
0001
0000
,
0000
0010
1000
0100
1000
0000
0000
0000
,
0010
0000
0010
0000
0100
0010
0100
0001
,
0010
0100
0010
0100
1000
0000
0001
0000
,
1000
0000
0100
0000
1000
0000
0000
0000
0001
0000
0000
0010
0000
0000
0100
0000
,
1000
0000
0000
0000
0001
0000
0000
0000
0100
0001
0000
0000
0001
0000
0000
0000
,
0010
0000
0010
0000
0001
0100
0010
0100
,
0001
1000
0010
0100
,
1001
0000
0000
0000
0010
0001
1000
0010
,
0100
0000
0000
0000
0000
0000
0000
0000
1001
0000
0000
1001
0000
0000
0010
0000
,
0100
0000
0101
1100
,
0001
0000
0001
1000
0010
0000
0010
0000
,
1000
0000
0000
0010
0000
0000
0100
0000
0001
0000
0000
0010
0000
0000
0100
0000
,
1000
0100
1000
0000
0001
0100
0001
0000
,
1000
0010
0100
0000
0001
0000
1000
0001
,
0100
0001
1000
0000
0100
0000
0001
1000
,
0100
1000
0001
0000
0100
0000
1000
0100
,
0001
0100
1000
0100
0000
0100
1000
0010
,
1000
0100
0010
0001
0010
0000
0000
0000
,
1001
0000
0101
0000
0000
0010
0001
0000
,
0000
1000
0001
0010
0100
0000
0100
0000
,
1001
0000
1100
0000
0000
0010
1000
0000
,
0000
0100
1000
0001
0100
0010
0100
0000
,
1001
0000
0101
0000
0000
1000
0010
0000
,
0000
0001
0100
0001
0010
0000
0010
0000
,
1001
0000
1100
0000
0001
0010
0001
0000
,
1000
0010
1000
0001
0010
0010
0001
0100
,
0001
0000
0001
1000
0010
0000
0010
0000
,
1000
0000
0000
0010
0000
0000
0100
0000
0001
0000
0000
0010
0000
0000
0100
0000
,
1000
0100
1000
0000
0001
0100
0001
0000
,
1000
0010
0100
0000
0001
0000
1000
0001
,
0100
0001
1000
0000
0100
0000
0001
1000
,
0100
1000
0001
0000
0100
0000
0001
0010
,
0100
0010
0001
0010
0100
1000
0100
1000
,
0010
0000
0100
0000
0010
0000
0001
0000
0010
0000
0000
1000
0000
0000
0100
0000
,
0010
0000
0000
0000
,
0000
0000
0000
0000
;

//---------------dance-double - ----------------
#NOTES:
     dance-double:
     :
     Easy:
     6:
     0.275,0.366,0.194,0.116,0.000:
00000000
00000000
00000000
00000000
,
00000000
00000000
00000000
00000000
,
00000000
00000000
00000000
00000000
,
00000000
00000000
00000000
00000000
,
00000000
00000000
00000000
00000000
,
00011000
00000000
00010000
00011000
,
00000000
00100000
10000000
01000000
,
00010000
00000000
00001000
00011000
,
00000000
00000100
00000001
00000010
,
00001000
00000000
00000010
00000100
,
00001000
00000000
00010000
00100000
,
01000000
00000000
10000000
10000000
,
01010000
00000000
00100000
00100000
,
10100000
10000000
22000000
33000000
,
01000000
00010000
00022000
00033000
,
00010000
00000000
00001000
00000000
,
00000100
00000001
00000100
00001000
,
00010000
01000000
10000000
00000000
,
10000000
00100000
00010000
00001000
,
00000010
00000001
00000110
00000000
,
00000001
00000010
00000001
00000010
,
00001000
00000010
00001000
00000000
,
00001000
00000100
00001000
00000100
,
00000001
00000100
00000001
00000000
,
00000010
00000010
00011000
00010000
,
01000000
00000000
10000000
00000000
,
10000000
00010000
00010000
10000000
,
00200000
00300000
00200000
00300000
,
10000000
01000000
10000000
00000000
,
00100000
00000000
00100000
00000000
,
01000000
00010000
01000000
00000000
,
10000000
00000000
01000000
00000000
,
10010000
00101000
00011000
00001010
,
00001001
00000000
00000010
00000010
,
00000200
00000000
00000301
00001000
,
00001000
00000000
00000100
00000001
,
00000010
00000000
00001000
00000000
,
00001000
00010000
00011000
00010000
,
01020000
00000000
10030000
01000000
,
20000000
00000000
30100000
00010000
,
00100000
00000000
00100000
00000000
,
10000000
01000000
00100000
00010000
,
00001000
00000100
00000010
00000001
,
00001001
00000000
00010000
00001000
,
00010000
00100000
01000000
10000000
,
01200000
00000000
01300000
00100000
,
10000000
00010000
10000000
00010000
,
02000000
00000000
03010000
00001000
,
00010000
00000100
00000001
00001000
,
00002001
00000000
00003001
00000100
,
00001000
00000000
00000100
00000001
,
00001000
00000000
00001000
00010000
,
00011000
00000000
00100000
00000000
,
10000000
01000000
00010000
00100000
,
10000000
00000000
10000000
01000000
,
00010000
00000000
00001000
00000100
,
00000001
00000000
00000001
00000000
,
00000010
00000001
00000100
00001000
,
00000010
00000000
00000000
00000000
,
00000000
00000000
00000000
00000000
;

//---------------dance-double - ----------------
#NOTES:
     dance-double:
     :
     Medium:
     9:
     0.423,0.422,0.165,0.068,0.029:
00000000
00000000
00000000
00000000
,
00000000
00000000
00000000
00000000
,
00000000
00000000
00000000
00000000
,
00000000
00000000
00000000
00000000
,
00000000
00000000
00000000
00000000
,
00010000
00100000
00000000
01000000
10000000
00000000
10000000
00100000
,
00000000
01000000
00010000
00000000
00010000
00000000
00011000
00000000
,
00001000
00000100
00000000
00000010
00000001
00000000
00000001
00000100
,
00000000
00000010
00001000
00000000
00001000
00000000
00011000
00000000
,
00100000
00000000
10000000
00000000
01000000
00000000
00000000
00000000
11000000
00000000
00000000
10000000
00000000
00000000
10000000
00000000
,
01000000
00010000
01000000
00000000
10000000
00000000
11000000
00000000
,
10000000
00000000
01000000
00000000
00100000
00000000
00000000
00000000
00010000
00000000
00000000
00100000
00000000
00000000
10000000
00000000
,
01000000
00100000
00010000
00000000
00001000
00000000
00011000
00000000
,
00001000
00000000
00000000
00000100
00000000
00000000
00000001
00000000
00000100
00000000
00000000
00000000
00000010
00000000
00000000
00000000
,
00000010
00000000
00000000
00000001
00000000
00000000
00000100
00000000
00000100
00000000
00000000
00000000
00000001
00000000
00000000
00000000
,
00000001
00000010
00001000
00000000
00000010
00000001
00001000
00000000
,
00000100
00000000
00001100
00000000
00010000
00001000
00010000
00000000
,
01000000
00000000
10000000
00000000
10000000
01000000
00000000
01000000
,
00000000
00100000
00010000
01000000
10000000
00000000
01000000
00000000
,
00010000
00000000
00100000
00000000
01000000
10000000
00000000
10000000
,
00000000
10000000
00100000
00010000
00001000
00000000
00011000
00000000
,
00000100
00000000
00001000
00000000
00000001
00000010
00000000
00000010
,
00000001
00000100
00000001
00000010
00001000
00000000
00000100
00000000
,
00000001
00000000
00000011
00000000
00001000
00000100
00001000
00000000
,
00010000
00100000
00010000
00000000
10000000
00000000
11000000
00000000
,
20000000
00000000
31000000
00000000
10000000
01000000
00010000
00000000
,
00001000
00000000
00000100
00000001
00000010
00000000
00000010
00000000
,
00000100
00000100
00000010
00000000
00001000
00001000
00000001
00000000
,
00000001
00000000
00000100
00000000
00000010
00000001
00000100
00001000
,
00000100
00000000
00000001
00000000
00000100
00000010
00000100
00000000
,
00001100
00000000
00000101
00000000
00000001
00000100
00001000
00000000
,
00010000
00100000
10000000
00000000
10000000
01000000
00010000
00000000
,
00001000
00000010
00000001
00000100
00001000
00000000
00110000
00000000
,
11000000
00000000
00100000
00010000
00100000
00000000
00010000
01000000
,
00010000
00000000
01000000
10000000
01000000
00000000
00100000
00000000
,
00010000
00000000
00010000
01000000
00010000
00000000
00000100
00000000
,
00000001
00000010
00000001
00000000
00001000
00000100
00001000
00000000
,
00001000
00000100
00000010
00000100
00001000
00000000
00000100
00000000
,
00001000
00000000
00010000
00100000
10000000
00000000
00200000
00000000
,
10300000
00000000
00010000
01000000
00010000
00000000
00000100
00000000
,
00000001
00000100
00000001
00000000
00001000
00000100
00001000
00000000
,
00010000
00000000
00000000
00010000
00000000
00000000
00001000
00000000
00010000
00000000
00000000
00000000
00001000
00000000
00000000
00000000
,
00020000
00000000
01030000
00000000
00010000
00100000
00010000
00000000
,
00100000
00010000
10000000
00000000
00200000
00000000
00310000
00000000
,
02000000
00000000
13000000
00000000
10000000
01000000
10000000
00000000
,
01000000
10000000
00010000
00000000
00100000
00000000
10000000
00000000
,
01000000
00000000
00010000
00000000
00001000
00000010
00001000
00000000
,
00000010
00001000
00000001
00000000
00000002
00000000
00000103
00000000
,
00002000
00000000
00003100
00000000
00000001
00000100
00000001
00000000
,
00000100
00000001
00001000
00000000
00001000
00000000
00010000
00000000
,
00011000
00000000
00010000
01000000
10000000
00000000
00100000
00000000
,
00100000
00000000
10000000
01000000
00010000
00000000
00011000
00000000
,
00001000
00000100
00000001
00000000
00000001
00000100
00001000
00000000
,
00001000
00010000
00100000
00010000
00001000
00000000
00000100
00000000
,
00001000
00000000
00010000
01000000
00010000
00000000
00001000
00000000
,
00010000
00000000
00001000
00000100
00001000
00000000
00011000
00000000
,
00010000
00100000
00010000
00000000
00001000
00000010
00001000
00000000
,
00000010
00000000
00000000
00000001
00000000
00000000
00000100
00000000
00001000
00000000
00000000
00000000
00010000
00000000
00000000
00000000
,
00011000
00000000
00000000
00000000
,
00000000
00000000
00000000
00000000
;

//---------------dance-double - ----------------
#NOTES:
     dance-double:
     :
     Hard:
     10:
     0.438,0.450,0.155,0.000,0.073:
00000000
00000000
00000000
00000000
,
00000000
00000000
00000000
00000000
,
00000000
00000000
00000000
00000000
,
00000000
00000000
00000000
00000000
,
00000000
00000000
00000000
00000000
,
00001000
00010000
00001000
00010000
01000000
00000000
10000000
00100000
,
10000000
00100000
00010000
00000000
00011000
00000000
00000000
00000000
,
00010000
00001000
00010000
00001000
00000100
00000000
00000001
00000010
,
00000001
00000010
00001000
00000000
00010000
00000000
00001000
00000000
,
00000010
00000000
00000100
00000000
00000010
00000000
00001000
00000000
00010000
00000000
00000000
01000000
00000000
00000000
10000000
00000000
,
00100000
01000000
00100000
00010000
00001000
00000000
00101000
00000000
,
00010000
00000000
00000100
00000000
00001000
00000000
00000010
00000000
00000100
00000000
00000000
00000001
00000000
00000000
00000010
00000000
,
00001000
00010000
01000000
00010000
00001000
00000010
00001000
00000010
,
00000001
00000000
00000000
00000010
00000000
00000000
00001000
00000000
00010000
00000000
00000000
00000000
00001000
00000000
00000000
00000000
,
00000100
00000000
00000000
00001000
00000000
00000000
00010000
00000000
00100000
00000000
00000000
00000000
10000000
00000000
00000000
00000000
,
00100000
00010000
00001000
00000000
00000010
00001000
00010000
00000000
,
01000000
00000000
00000000
00000000
01000000
00000000
00000000
00000000
10000000
01000000
00000000
00000000
11000000
00000000
00000000
00000000
,
00100000
00010000
00100000
00000000
00001000
00010000
00000000
01000000
,
00000000
00001000
00010000
00001000
00000100
00000000
00000001
00000000
,
00000010
00001000
00000010
00000000
00010000
00001000
00000000
00000100
,
00000000
00010000
00001000
00010000
01000000
00000000
00010000
00000000
,
00001000
00000000
00000100
00000000
00000001
00000000
00000000
00000000
00000001
00000000
00000000
00000010
00000000
00000000
00001000
00000000
,
00010000
01000000
10000000
01000000
00010000
00000000
00001000
00000000
,
00010000
00000000
01000000
00000000
10000000
00000000
00000000
00000000
10000000
00000000
00000000
00100000
00000000
00000000
00010000
00000000
,
00000000
00001000
00000100
00000001
00000100
00000000
00000000
00000000
,
00001000
00000000
00010000
00000000
00000100
00000010
00000100
00010000
,
00000010
00000100
00000001
00000100
00001000
00000000
00010000
00000000
,
00001000
00000000
01000000
00000000
00010000
00000000
00000000
00000000
00100000
00000000
00000000
00001000
00000000
00000000
00010000
00000000
,
00001000
00000000
00000000
00000000
00000100
00000000
00000000
00000000
00000001
00000100
00000000
00000000
00000001
00000000
00000000
00000000
,
00000010
00000000
00000010
00000000
00000001
00000100
00001000
00010000
,
01000000
10000000
00100000
00010000
,
00011000
00000000
00000000
00000000
00010000
00000100
00001000
00000010
,
00000100
00000000
00000000
00000000
00000000
00000000
00000000
00000000
00001001
00000000
00000000
00000110
00000000
00000000
00000010
00000000
,
00001000
00000000
00011000
01001000
,
00100000
00000000
00100000
00010000
00001000
00000000
00001000
00000000
,
00010000
00000000
00000000
00001000
00000000
00000000
01000000
00000000
00001000
00000000
00000000
00010000
00000000
00000000
00000100
00000000
,
00000010
00000100
00001000
00000000
00000001
00000100
00000001
00000000
,
00000010
00001000
00010000
00000000
01000000
00000000
00100000
00001000
,
01000000
00100000
00010000
00000000
00001000
00000000
00010000
00001000
,
00000100
00001000
00000100
00000000
00000001
00000000
00001000
00000100
,
00000010
00001000
00010000
00001000
00000000
00001000
00010000
00100000
,
10000000
00100000
00010000
00001000
00010000
00000000
00000000
00000000
,
00011000
00000000
00010100
00000000
00000000
00000010
00000001
00000000
,
00000000
00001000
00010000
00100000
00010000
00000000
00010000
00000000
,
00011000
00000000
01001000
00000000
00000000
00100000
10000000
00000000
,
00000000
00010000
00001000
00000010
00000001
00000010
00000100
00000000
,
00001001
00000000
00000101
00000000
00000000
00000010
00001000
00000000
,
00000000
00010000
00001000
01000000
00100000
00000000
00100000
00000000
,
10010000
00000000
11000000
00000000
10000000
00100000
00010000
00000000
,
00001000
00000010
00001000
00010000
00000100
00000100
00010000
00001000
,
00100000
00000000
00100000
00001000
00010000
00000000
00001000
00000000
,
00010000
00000000
00000000
00001000
00000000
00000000
01000000
00000000
00001000
00000000
00000000
00010000
00000000
00000000
00000100
00000000
,
00000010
00000100
00001000
00000000
00000001
00000100
00000001
00000000
,
00000010
00001000
00010000
00000000
01000000
00000000
00100000
00001000
,
01000000
00100000
00010000
00000000
00001000
00000000
00010000
00001000
,
00000100
00001000
00000100
00000000
00000001
00000000
00000100
00001000
,
00010000
00001000
00100000
00010000
01000000
00100000
00010000
00001000
,
00000010
00000000
00001000
00000000
00010000
00000000
01000000
00000000
10000000
00000000
00000000
00100000
00000000
00000000
00010000
00000000
,
00001000
00000000
00000000
00000000
,
00000000
00000000
00000000
00000000
;
