#TITLE:Unbelievable;
#SUBTITLE:;
#ARTIST:EMF;
#TITLETRANSLIT:;
#SUBTITLETRANSLIT:;
#ARTISTTRANSLIT:;
#CREDIT:;
#BANNER:Unbelievable.png;
#BACKGROUND:Unbelievable-bg.png;
#LYRICSPATH:;
#CDTITLE:./CDTITLES/DanceDanceRevolution SuperNOVA2.png;
#MUSIC:Unbelievable.ogg;
#OFFSET:0.000;
#SAMPLESTART:9.240;
#SAMPLELENGTH:15.000;
#SELECTABLE:YES;
#DISPLAYBPM:104.000;
#BPMS:0.000=104.046,4.000=104.013;
#STOPS:;
#BGCHANGES:;

//---------------dance-single - ----------------
#NOTES:
     dance-single:
     :
     Beginner:
     3:
     0.100,0.104,0.019,0.000,0.000:
0000
0000
0000
0000
,
0000
0000
0000
0000
,
0000
0000
0000
0000
,
0000
0000
0000
0000
,
1000
0000
0010
0000
,
0100
0000
0001
0000
,
0100
0000
0010
0000
,
1000
0000
0001
0000
,
0010
0000
0000
0100
,
0100
0000
1000
0000
,
0001
0000
0000
0100
,
0100
0000
0010
0000
,
1000
0000
0001
0000
,
1000
0000
0001
0000
,
0010
0000
0100
0000
,
0110
0000
0000
0000
,
0100
0000
1000
0000
,
0001
0000
0100
0000
,
0001
0000
1000
0000
,
0100
0000
0010
0000
,
0001
0000
0000
0000
,
1000
0000
0000
0000
,
0010
0000
0000
0000
,
0100
0000
0010
0000
,
0100
0000
0001
0000
,
1000
0000
0001
0000
,
0100
0000
1000
0000
,
0010
0000
0001
0000
,
0100
0000
0000
0000
,
0010
0000
0000
0000
,
1000
0000
0000
0000
,
0001
0000
0000
0000
,
0010
0000
0100
0000
,
0010
0000
1000
0000
,
0001
0000
0010
0000
,
0100
0000
1000
0000
,
0010
0000
0100
0000
,
0001
0000
1000
0000
,
0100
0000
0010
0000
,
0110
0000
0000
0000
,
0001
0000
0100
0000
,
1000
0000
0100
0000
,
0001
0000
0010
0000
,
1000
0000
0000
0000
,
0000
0000
0000
0000
;

//---------------dance-single - ----------------
#NOTES:
     dance-single:
     :
     Easy:
     4:
     0.184,0.187,0.087,0.116,0.000:
0000
0000
0000
0000
,
0000
0000
0000
0000
,
0000
0000
0000
0000
,
0000
0000
0000
0000
,
0010
0000
0100
0000
,
1000
0100
1000
0000
,
0010
0000
0100
0000
,
0001
0100
0001
0000
,
2000
0000
3000
0010
,
0200
0300
0002
0003
,
2000
0000
3000
0100
,
0010
0001
1000
0010
,
0110
0000
1001
0000
,
0001
0100
1000
0100
,
0002
0003
2000
3000
,
1001
0000
0000
0000
,
0010
0010
1000
0001
,
0100
0100
0001
1000
,
0100
0100
0010
0001
,
1000
1000
0100
0010
,
0001
0000
1000
0000
,
0010
1000
0100
0000
,
0001
0000
0100
0000
,
1000
0010
0110
0110
,
0001
1000
0100
0000
,
0010
0100
1000
0000
,
0001
0100
0010
1000
,
0100
1000
0001
0000
,
0010
0000
0100
0000
,
0001
0100
1000
0000
,
0010
0000
0001
0000
,
0010
1000
0100
0010
,
0002
0000
0003
0100
,
2000
3000
0002
0003
,
0200
0000
0300
0010
,
0100
0001
0010
0100
,
1001
0000
0110
0000
,
1000
0100
0001
0010
,
0200
0300
0020
0030
,
0110
0000
0000
0000
,
0010
0010
0001
1000
,
0100
0100
0010
0001
,
1000
1000
0010
0100
,
0110
0000
0000
0000
,
0000
0000
0000
0000
;

//---------------dance-single - ----------------
#NOTES:
     dance-single:
     :
     Medium:
     7:
     0.292,0.320,0.116,0.107,0.000:
0000
0000
0000
0000
,
0000
0000
0000
0000
,
0000
0000
0000
0000
,
0000
0000
0000
0000
,
1000
0001
1000
0000
0100
0000
0001
0000
,
0010
0000
0100
0000
1000
0001
0100
0000
,
0010
0100
0010
0000
1000
0000
0001
0000
,
0100
0000
0010
0000
1000
0100
0010
0000
,
0001
1000
0001
0000
0010
0000
1000
0000
,
0100
0000
0001
0000
0010
0100
1000
0000
,
0010
0100
0010
0000
0001
0000
0100
0000
,
1000
0010
0010
0000
0100
0001
0001
1000
,
0100
0000
0000
0001
0100
0000
0000
1000
,
0010
0000
0011
0000
1001
0000
0101
0001
,
0010
0000
0000
1000
0010
0000
0000
0001
,
1001
0000
0000
0000
,
0010
1000
0200
0000
0301
0000
1000
0100
,
0020
0000
0031
0000
0100
1000
0001
0000
,
0100
0001
2000
0000
3010
0000
0001
1000
,
0200
0000
0310
0000
0001
1000
0001
1000
,
0100
0000
1100
0000
0000
0001
0011
0000
,
0100
0000
0101
0000
0000
0010
1010
0000
,
0001
0000
1100
0000
0000
0001
0110
0000
,
1000
0000
1001
0001
2000
0000
3002
0000
,
0013
0000
1000
0000
0100
1000
0010
1000
,
0100
0010
0001
1000
,
0010
0000
0100
0000
0001
0010
0001
0100
,
0001
1000
0100
0010
,
0001
0000
0000
0100
0001
1000
0000
0100
,
1000
0001
0000
0010
0100
1000
0001
0000
,
1000
0000
0000
0100
0001
0010
0000
0100
,
1000
0001
0000
0010
0001
0100
0010
0000
,
2000
0100
0100
3100
,
0200
0310
0020
0031
,
0002
0100
0100
0103
,
0100
0010
1000
0000
0100
0010
0001
1000
,
0100
0000
0000
0001
0100
0000
0000
1000
,
0010
0000
0100
0000
0001
0000
1000
0100
,
0001
0000
0000
0100
1000
0000
0000
0001
,
1001
0000
0000
0000
,
1000
0000
0100
1000
0010
0000
0001
0100
,
0010
1000
0100
0001
,
0010
0000
0100
1000
0010
0000
0001
0100
,
0020
0000
0000
0000
,
0030
0000
0000
0000
,
0000
0000
0000
0000
;

//---------------dance-single - ----------------
#NOTES:
     dance-single:
     :
     Hard:
     10:
     0.397,0.404,0.126,0.077,0.087:
0000
0000
0000
0000
,
0000
0000
0000
0000
,
0000
0000
0000
0000
,
0000
0000
0000
0000
,
1000
0010
1000
0100
1000
0001
0100
0000
,
0010
0001
0100
0010
1000
0001
0010
0000
,
1000
0100
0010
0000
0001
0100
0010
0000
,
1000
0010
0001
0010
1000
0001
0100
0001
,
0020
0000
0130
0000
0001
0100
1000
0000
,
0020
0000
0130
0000
1000
0100
0001
1000
,
2100
0000
3010
0000
0100
0001
1000
0100
,
0010
0001
1000
0000
0010
1000
0001
0010
,
0001
0100
0100
0010
1000
0100
0100
0010
,
0001
0000
0000
1000
0000
0000
0100
0000
0010
0000
0001
0000
0010
0000
0100
0000
,
1000
0010
0010
0100
0001
0010
0010
0100
,
1001
0000
0000
0000
,
0110
0000
0000
0000
0001
0000
0010
0000
0100
0000
1000
0100
0000
0100
0010
0000
,
0001
0000
0100
0000
0010
0000
1000
0000
0001
0000
0100
0001
0000
0001
0010
0000
,
1000
0000
0010
0000
0001
0000
1000
0000
0010
0000
0100
0001
0000
0001
1000
0000
,
0100
0000
0001
0000
0100
0000
1000
0000
0010
0000
0100
0001
0000
0001
0010
0000
,
0100
0100
1001
0000
0010
0001
0100
0000
,
0010
0010
1001
0000
0100
0001
0100
1000
,
0001
0001
0110
0000
1000
0010
0001
0000
,
1000
1000
0110
0000
1001
0000
0110
0000
,
0010
0100
0001
0000
0010
0001
1000
0001
,
0010
0100
1000
0000
0010
1000
0001
1000
,
0010
0100
0001
0000
0010
0001
0100
0001
,
0010
0100
1000
0000
0010
1000
0100
1000
,
0001
0010
1000
0000
0001
0010
2000
0000
,
3100
0000
0010
0000
0001
1000
0100
0000
,
1000
0010
0001
0000
1000
0010
0002
0000
,
0103
0000
0010
0000
1000
0001
0100
0010
,
0200
0000
0310
0000
1000
0010
0001
0000
,
0200
0000
0310
0000
0001
0010
1000
0000
,
0012
0000
1003
0000
0100
1000
0001
0010
,
0100
1000
0001
0000
0100
0001
1000
0100
,
0010
0001
0001
0100
0010
1000
1000
0001
,
0010
0000
0000
0100
0000
0000
1000
0000
0010
0000
1000
0000
0100
0000
0010
0000
,
0001
1000
1000
0010
0100
0001
0001
1000
,
1001
0000
0000
0000
,
0110
0000
0000
0000
1000
0000
0100
0000
0010
0000
0001
0010
0000
0010
0100
0000
,
1000
0000
0010
0000
0100
0000
0001
0000
1000
0000
0010
1000
0000
1000
0100
0000
,
0001
0000
0100
0000
1000
0000
0001
0000
0100
0000
0010
1000
0000
1000
0001
0000
,
1001
0000
0000
0000
0000
0000
0001
0000
0100
0000
0010
1000
0000
1000
0001
0000
,
0000
0000
0000
0000
;

//---------------dance-double - ----------------
#NOTES:
     dance-double:
     :
     Easy:
     4:
     0.178,0.187,0.029,0.155,0.000:
00000000
00000000
00000000
00000000
,
00000000
00000000
00000000
00000000
,
00000000
00000000
00000000
00000000
,
00000000
00000000
00000000
00000000
,
00000001
00000000
00000100
00000000
,
00001000
00010000
00001000
00000000
,
00010000
00000000
01000000
00000000
,
10000000
00100000
10000000
00000000
,
00020000
00000000
00030000
00100000
,
00002000
00003000
00020000
00030000
,
00000200
00000000
00000300
00001000
,
00000010
00000100
00000010
00001000
,
00000002
00000003
00002000
00003000
,
00000100
00010000
00001000
01000000
,
00020000
00030000
20000000
30000000
,
10010000
00000000
00000000
00000000
,
00100000
00100000
00010000
00001000
,
00000100
00000100
00001000
00010000
,
01000000
01000000
00010000
00001000
,
00000010
00000010
00001000
00010000
,
00001000
00000000
00000100
00000000
,
00000010
00000001
00000100
00000000
,
00001000
00000000
00010000
00000000
,
00100000
01000000
00100000
01000000
,
10000000
00100000
00010000
00000000
,
00001000
00000100
00000001
00000000
,
00000010
00000100
00001000
00000000
,
00000010
00010000
00001000
00000000
,
00100000
00000000
00010000
00000000
,
01000000
00100000
10000000
00000000
,
00100000
00000000
00010000
00000000
,
00001000
00010000
00001000
00000000
,
00000020
00000000
00000030
00000001
,
00002000
00003000
00000002
00000003
,
00000200
00000000
00000300
00001000
,
00010000
00100000
01000000
00010000
,
20000000
30000000
00020000
00030000
,
10000000
01000000
00010000
00001000
,
00020000
00030000
00002000
00003000
,
00011000
00000000
00000000
00000000
,
00000010
00000010
00000001
00000100
,
00001000
00001000
00010000
01000000
,
10000000
10000000
00100000
00010000
,
00011000
00000000
00000000
00000000
,
00000000
00000000
00000000
00000000
;

//---------------dance-double - ----------------
#NOTES:
     dance-double:
     :
     Medium:
     7:
     0.295,0.318,0.136,0.097,0.010:
00000000
00000000
00000000
00000000
,
00000000
00000000
00000000
00000000
,
00000000
00000000
00000000
00000000
,
00000000
00000000
00000000
00000000
,
00010000
00001000
00010000
00000000
01000000
00000000
00100000
00000000
,
00010000
00000000
01000000
00000000
00100000
01000000
00100000
00000000
,
00010000
00001000
00010000
00000000
00000100
00000000
00000010
00000000
,
00000001
00000000
00000100
00000000
00000010
00000100
00000010
00000000
,
00001000
00010000
00001000
00000000
00010000
00000000
01000000
00000000
,
10000000
00000000
00100000
00000000
01000000
00010000
00100000
00000000
,
01000000
00010000
00001000
00000000
00000100
00000000
00000010
00000000
,
00001000
00000001
00000001
00000000
00000001
00001000
00001000
00000100
,
00010000
00000000
00000000
00001000
01000000
00000000
00000000
00100000
,
10000000
00000000
01010000
00000000
01001000
00000000
00011000
00010000
,
00000100
00000000
00000000
00000010
00000001
00000000
00001000
00000000
,
00001001
00000000
00000000
00000000
,
00000100
00010000
00002000
00000000
01003000
00000000
00010000
10000000
,
00200000
00000000
01300000
00000000
10000000
01000000
00010000
00000000
,
00100000
00001000
00020000
00000000
00030100
00000000
00001000
00000001
,
00000200
00000000
00000310
00000000
00001000
00000100
00001000
00000100
,
00010000
00011000
00100000
00101000
,
01000000
00000000
01010000
00000000
10000000
00000000
10100000
01000000
,
00010000
01001000
00010000
00011000
,
00000100
00000000
00010100
00001000
00000200
00000000
00000320
00000000
,
00000130
00000000
00000001
00000000
00000010
00000100
00010000
00000100
,
00010000
00001000
01000000
00010000
,
00100000
00000000
01000000
00000000
10000000
00010000
10000000
00010000
,
00100000
00001000
00010000
00000010
,
00001000
00000000
00000000
00000001
00000000
00000000
00000100
00000000
00000000
00000000
00000010
00000000
00000100
00000000
00000000
00000000
,
00001000
00010000
00001000
00000000
00100000
00010000
01000000
00000000
,
00100000
00000000
00000000
10000000
00000000
00000000
00010000
00000000
00000000
00000000
01000000
00000000
00010000
00000000
00000000
00000000
,
00100000
00001000
00010000
00000000
00000100
00001000
00000100
00000000
,
00001001
00000000
00000001
00001000
,
00000100
00010000
00001000
00000000
00010000
00001000
00100000
00000000
,
10010000
00000000
10000000
00010000
,
00100000
00001000
00010000
00000000
00001000
00010000
00000010
00001000
,
00000100
00000000
00000000
00000001
00000100
00000000
00000000
00001000
,
00010000
00000000
00100000
00000000
01000000
00000000
00010000
10000000
,
01000000
00000000
00000000
00010000
00100000
00000000
00001000
00000000
,
00011000
00000000
00000000
00000000
,
00000020
00000000
00000130
00000000
00000001
00000100
00001000
00000000
,
00020000
00000000
00031000
00000000
00010000
01000000
10000000
00000000
,
00200000
00000000
01300000
00000000
00010000
01000000
00100000
00010000
,
00002000
00000000
00000000
00003000
,
00000000
00000000
00000000
00000000
;

//---------------dance-double - ----------------
#NOTES:
     dance-double:
     :
     Hard:
     10:
     0.403,0.404,0.223,0.048,0.121:
00000000
00000000
00000000
00000000
,
00000000
00000000
00000000
00000000
,
00000000
00000000
00000000
00000000
,
00000000
00000000
00000000
00000000
,
00000100
00000001
00001000
00000100
00000010
00000100
00001000
00000000
,
00000001
00000100
00001000
00000000
00010000
01000000
10000000
00000000
,
00100000
10000000
00010000
00100000
01000000
00100000
00010000
00000000
,
10000000
00100000
00010000
00000000
00001000
00000010
00000001
00000100
,
00000010
00001000
00000010
00010000
00001000
00000000
00100000
00010000
,
02000000
00000000
03100000
10000000
02000000
00000000
03100000
00001000
,
00010000
00000100
00010000
00000010
00000100
00000001
00001000
00000100
,
00010000
00001000
00100000
00000000
00010000
01000000
00100000
00000000
,
10000000
11000000
11000000
00000000
00010000
01010000
01010000
00000000
,
00100000
00000000
00000000
00001000
00000000
00000000
00010000
00000000
00000010
00000000
00001000
00000000
00000100
00000000
00000000
00000000
,
00001000
00001010
00001010
00000000
00000001
00000011
00000011
00000000
,
00001001
00000000
00000000
00000000
,
00000001
00000000
00000100
00000000
00000010
00000000
00001000
00000000
00000001
00000000
00001000
00000010
00000000
00000010
00010000
00000000
,
00001000
00000000
00100000
00000000
01000000
00000000
10000000
00000000
00100000
00000000
01000000
00001000
00000000
00001000
00010000
00000000
,
00001000
00000000
00000100
00000000
00000001
00000000
00000100
00000000
00001000
00000000
00010000
00001000
00000000
00001000
00100000
00000000
,
00010000
00000000
10000000
00000000
01000000
00000000
00100000
00000000
00010000
00000000
01000000
00001000
00000000
00001000
00010000
00000000
,
00000100
00000000
00000000
00000100
00000010
00000000
00000000
00000000
00000001
00000000
00001000
00000000
00000100
00000000
00000000
00000100
,
00010000
00000000
00000000
00010000
00001000
00000000
00000000
00000000
01000000
00000000
00010000
00000000
10000000
00000000
00000000
10000000
,
00100000
00000000
00000000
00100000
01000000
00000000
00000000
00000000
00010000
00000000
00100000
00000000
00001000
00000000
00000000
00001000
,
00010000
00000000
00000000
00010000
00000010
00000000
00000000
00000000
00001000
00000000
00000100
00000000
00000010
00000000
00000001
00000000
,
00001000
00001000
00000100
00000000
00010000
00001000
00000100
00001000
,
00010000
00010000
01000000
00000000
10000000
00100000
01000000
00100000
,
10000000
10000000
01000000
00000000
00010000
00001000
00000010
00001000
,
00010000
00010000
00000010
00000000
00000100
00000001
00000010
00000001
,
00000100
00000000
00001001
00000000
00000010
00000100
00001000
00010000
,
00000100
00000000
00011000
00000000
01000000
00010000
10000000
00100000
,
01000000
00000000
10010000
00000000
01000000
00100000
00010000
00001000
,
00100000
00000000
00011000
00000000
00000010
00001000
00000001
00000100
,
00000020
00000000
00001000
00000000
00000130
00000000
00010000
00001000
,
00200000
00010000
02300000
10000000
,
03100000
00010000
00100000
00000000
00001000
00010000
00001000
00000000
,
00000100
00001000
00010000
00000000
01000000
00010000
00001000
00000000
,
00000010
00000011
00000011
00000000
00000100
00001100
00001100
00000000
,
00010000
00000000
00000000
00001000
00000000
00000000
01000000
00000000
00100000
00000000
10000000
00000000
00010000
00000000
00000000
00000000
,
10000000
10100000
10100000
00000000
01000000
01010000
01010000
00000000
,
00011000
00000000
00000000
00000000
,
00000001
00000000
00000010
00000000
00000100
00000000
00001000
00000000
00000001
00000000
00001000
00000010
00000000
00000010
00010000
00000000
,
00001000
00000000
01000000
00000000
00010000
00000000
10000000
00000000
01000000
00000000
00100000
00001000
00000000
00001000
00010000
00000000
,
00000100
00000000
00001000
00000000
00000010
00000000
00000100
00000000
00000010
00000000
00001000
00000100
00000000
00000100
00010000
00000000
,
00011000
00000000
00000000
00000000
00000000
00000000
01000000
00000000
00010000
00000000
10000000
01000000
00000000
01000000
00100000
00000000
,
00000000
00000000
00000000
00000000
;
