#TITLE:TRIP MACHINE PhoeniX;
#SUBTITLE:;
#ARTIST:DE-SIRE改;
#TITLETRANSLIT:;
#SUBTITLETRANSLIT:;
#ARTISTTRANSLIT:DE-SIRE alterative;
#CREDIT:;
#BANNER:TRIP MACHINE PhoeniX.png;
#BACKGROUND:TRIP MACHINE PhoeniX-bg.png;
#LYRICSPATH:;
#CDTITLE:./CDTITLES/DanceDanceRevolution SuperNOVA2.png;
#MUSIC:TRIP MACHINE PhoeniX.ogg;
#OFFSET:0.000;
#SAMPLESTART:0.760;
#SAMPLELENGTH:15.000;
#SELECTABLE:YES;
#DISPLAYBPM:160.000;
#BPMS:0.000=160.000,4.000=159.993,222.000=80.357,223.000=159.898,237.000=159.963;
#STOPS:;
#BGCHANGES:;

//---------------dance-single - ----------------
#NOTES:
     dance-single:
     :
     Beginner:
     3:
     0.130,0.247,0.094,0.000,0.000:
0000
0000
0000
0000
,
0000
0000
0000
0000
,
0000
0000
0000
0000
,
0000
0000
0000
0000
,
0000
0000
0000
0000
,
0100
0000
0100
0000
,
0100
0000
0100
0000
,
0100
0000
0000
0000
,
1001
0000
0000
0000
,
0000
0000
0000
0000
,
0000
0000
0000
0000
,
0000
0000
0000
0000
,
0000
0000
0000
0000
,
0000
0000
0000
0100
,
0000
0000
0000
0000
,
0000
0000
0000
0000
,
0000
0000
0001
0000
,
1000
0000
0100
0000
,
0100
0100
0000
0000
,
0001
0000
1000
0000
,
0001
0000
0001
0000
,
1000
0000
0000
0000
,
0000
0000
1000
0000
,
0100
0000
0010
0000
,
0010
0000
0110
0000
,
1001
0000
1000
0000
,
0110
0000
0000
0000
,
0000
0000
0010
0000
,
0010
0000
0000
0000
,
0000
0000
0100
0000
,
0100
0100
0000
0000
,
1001
0000
1000
0000
,
1000
0000
1000
0000
,
0100
0000
0001
0000
,
0001
0000
0001
0000
,
0010
0000
1000
0000
,
0001
0000
1000
0000
,
0001
0000
0001
0000
,
1000
0000
1000
0000
,
0001
0000
1000
0000
,
0001
0000
0000
0000
,
0000
0000
0001
0000
,
1000
0000
0000
0000
,
0000
0000
1000
0000
,
0100
0000
0000
0000
,
0000
0000
0001
0000
,
0010
0000
0000
0000
,
0000
0000
0110
0000
,
0100
0000
0001
0000
,
0001
0000
0010
0000
,
0001
0000
1000
0000
,
1001
0000
0110
0000
,
0010
0000
0100
0000
,
0100
0000
1000
0000
,
0100
0000
0010
0000
,
1001
0000
0000
1000
,
0000
0001
0000
0001
,
0000
1000
0000
1000
,
0000
0001
0000
0010
,
0000
0000
0000
0000
;

//---------------dance-single - ----------------
#NOTES:
     dance-single:
     :
     Easy:
     8:
     0.355,0.537,0.808,0.010,0.005:
0000
0000
0000
0000
,
0000
0000
0000
0000
,
0000
0000
0000
0000
,
0000
0000
0000
0000
,
0000
0000
0000
0000
,
0100
0000
0100
0000
,
0100
0000
0100
0000
,
0100
0000
0000
0000
,
1001
0000
0000
0000
0000
0100
0000
0010
,
0000
1000
0000
0000
0000
1100
0000
0000
,
0000
0011
0000
0000
0000
0100
0000
0010
,
0000
1000
0000
1000
0000
0001
0000
0001
,
0000
0000
0000
0000
0000
0100
0000
0010
,
0000
0001
0000
1000
0000
0000
0100
0000
,
0000
0010
0000
0101
0000
0010
0000
0010
,
0000
0100
0000
0110
0000
1100
0000
0101
,
0000
0110
0000
0000
0001
0000
0000
0000
,
1000
0000
0100
1010
,
0100
0011
1000
0000
,
0001
0000
1100
0010
,
0101
0000
0001
0000
,
1000
0000
0000
0000
0000
0100
0000
0100
,
0000
0010
0000
0000
1100
0000
0000
0000
,
0011
0000
1010
0011
,
1010
0011
0110
0000
,
1001
0000
1100
0101
,
0110
0000
0000
0000
0000
0100
0000
0100
,
0000
0100
0000
0000
0010
0000
0000
0000
,
0010
0000
0110
0000
0000
1100
0000
0010
,
0000
0011
0000
0000
0100
0000
1010
0000
,
0100
0011
0110
0000
,
1001
0000
1000
0100
,
1000
0000
1000
0000
,
0011
0000
0001
0100
,
0001
0000
0001
0000
,
1010
0000
1000
0010
,
0001
0000
1000
0000
,
0101
0000
0001
0010
,
1000
0000
1000
0110
,
0001
0110
1000
0010
,
0101
0000
0000
0000
0000
1100
0000
0011
,
0000
1010
0000
0000
0001
0000
0010
0000
,
1100
0000
0000
0000
0000
0101
0000
1010
,
0000
0011
0000
0000
1000
0000
0100
0000
,
0011
0000
0000
0000
0000
1010
0000
0101
,
0000
1100
0000
0000
0001
0000
0100
0000
,
1010
0000
0000
0000
0000
0011
0000
1100
,
0000
0101
0000
0000
0110
0000
0000
0000
,
0100
1001
0101
1100
,
0101
1100
1010
0110
,
0101
0110
1100
0101
,
1001
0000
0110
0000
,
0010
1001
0011
1010
,
0011
1010
1100
0110
,
0011
0110
1010
0011
,
1001
0000
0000
0000
0000
0000
0000
0000
0000
0100
0000
0000
1000
0000
0000
0000
,
0100
0001
0000
0001
,
0100
1000
0000
1000
,
0010
0001
0000
0010
,
0000
0200
0000
0000
0000
0000
0000
0000
,
0000
0300
0000
0000
0000
0000
0000
0000
,
0000
0000
0000
0000
;

//---------------dance-single - ----------------
#NOTES:
     dance-single:
     :
     Medium:
     12:
     0.535,0.726,0.766,0.010,0.021:
0000
0000
0000
0000
,
0000
0000
0000
0000
,
0000
0000
0000
0000
,
0000
0000
0000
0000
,
0000
0000
0000
0000
,
0100
0000
0100
0000
,
0100
0000
0100
0000
,
0100
0000
0000
0000
,
1001
0000
0000
0000
0000
0010
1000
0001
,
0000
1000
0000
0010
0000
0001
0000
0010
,
0000
1000
0000
0001
0000
0100
1000
0001
,
0000
0100
0000
1000
0000
0100
0000
0001
,
0100
0000
0100
0010
0000
0100
1000
0100
,
0001
0100
0010
0100
1000
0100
0001
0000
,
1000
0001
0000
0010
0000
0100
0001
0100
,
1000
0011
0000
1010
0000
1100
0000
0101
,
0000
0010
0100
0000
0100
0010
0000
1000
,
0000
0001
0100
0000
0000
0010
1000
0000
,
0010
0001
0000
0100
0010
1000
0000
0001
,
0000
1000
0000
0010
0100
0001
0000
0100
,
0010
1001
0000
0010
0100
1000
0000
1000
,
0000
0001
0000
0001
0000
1000
0000
1000
,
0000
0000
0001
0000
0100
0000
0001
0000
1010
0000
0000
1001
0000
0000
1100
0000
,
0011
0000
0000
1001
0000
0000
0101
0000
1010
0000
0000
1001
0000
0000
0101
0000
,
1010
0110
0011
0000
0000
0010
0100
0011
,
0000
0010
0100
1010
0000
0010
0100
0011
,
0000
0010
0100
1010
0000
1100
0000
0101
,
0000
0011
0000
1010
0100
0000
0110
0000
,
0010
0000
0001
1000
0000
1100
0000
0101
,
0000
0010
1000
0001
1100
0000
0101
0000
,
1100
0000
0100
0001
0010
1000
1100
0000
,
0010
0001
0101
0000
0000
0100
1000
0010
,
0100
0001
0000
0100
0000
0100
0001
0010
,
0000
0101
0000
1100
0100
0010
0001
0100
,
0010
1000
0000
0010
0000
0010
1000
0100
,
0000
1010
0100
0011
0010
0010
1000
0100
,
0010
0001
0000
0010
0000
0010
0001
0100
,
0000
0011
0000
1010
0010
0100
0001
0010
,
0100
0001
0000
0100
0000
0100
0001
0010
,
0100
1000
0100
0001
0100
1000
1000
0000
,
1100
0000
0000
0010
0000
0001
0000
0101
,
0000
0010
0110
0000
0010
0001
0001
0000
,
0011
0000
0000
0100
0000
1000
0000
1010
,
0000
0100
0110
0000
0100
0001
0001
0000
,
0100
0000
0000
0010
0000
1000
0000
1100
,
0000
0010
0110
0000
0010
1000
1000
0000
,
1010
0000
0000
0100
0000
0001
0000
0011
,
0000
0100
0110
0000
0001
1100
0000
0001
,
0000
1001
0000
0101
0000
1001
0000
1100
,
0000
1001
0000
0110
0000
1100
0001
0100
,
0000
0101
1000
0100
1001
0000
1000
0100
,
0000
0001
0100
0000
1000
0101
0000
1000
,
0000
0110
0000
0101
0000
0110
0000
1100
,
0000
0110
0000
0101
0000
0110
1000
0100
,
0000
0110
0001
0100
0000
0110
0000
1001
,
0000
0000
0010
0000
0100
0000
0110
0000
0000
0010
0000
0000
1000
0000
0100
0000
,
0001
0100
0001
0100
1000
0100
1000
0010
,
0001
0010
0001
0010
1000
0010
1000
0100
,
0001
0010
0001
0100
1000
0010
1000
0100
,
0001
0200
0000
0000
0000
0000
0000
0000
,
0000
0300
0000
0000
0000
0000
0000
0000
,
0000
0000
0000
0000
;

//---------------dance-single - ----------------
#NOTES:
     dance-single:
     :
     Hard:
     15:
     0.706,0.821,0.703,0.010,0.299:
0000
0000
0000
0000
,
0000
0000
0000
0000
,
0000
0000
0000
0000
,
0000
0000
0000
0000
,
0000
0000
0000
0000
,
0100
0000
0100
0000
,
0100
0000
0100
0000
,
0100
0000
0000
0000
,
1001
0000
0000
0000
0100
0010
0100
1000
,
0100
0001
0000
0001
1000
0010
0000
1000
,
0001
0100
0000
1001
0100
0010
1000
0001
,
0100
1000
0000
0101
0000
1100
0000
0101
,
1100
0000
0010
0010
0100
0001
0100
1000
,
0100
0010
1000
0100
0001
0100
0010
0000
,
0100
0010
0000
0010
0100
1000
0100
0001
,
0100
1010
0000
0011
0000
0101
0000
1100
,
0000
1001
0100
0100
0001
0010
0000
1001
,
0000
0010
0100
1000
0001
1000
0100
0010
,
0001
1000
0000
0001
1000
0010
0000
1100
,
0000
0101
0000
0010
0100
0010
0000
0001
,
0100
1000
0100
0010
1000
0001
0000
1010
,
0000
0011
0000
0101
0000
1100
0000
0110
,
0000
0000
0010
0000
1000
0000
0100
0000
0001
0000
1000
0100
0000
0001
0100
0000
,
0001
0000
1000
0010
0000
0001
0010
0000
1000
0000
0001
0010
0000
1000
0010
0000
,
1000
0000
0001
0000
0100
0010
0100
0000
0001
0000
0100
1000
0100
0000
0010
0000
,
1000
0000
0100
0001
0100
0000
0010
0000
0001
0000
0010
1000
0010
0000
0100
0000
,
1000
0100
0001
0000
0100
0000
1001
0000
0000
0000
1010
0000
0000
0000
1100
0000
,
0000
0101
0000
0011
1000
0010
1000
0000
,
0101
0000
0100
1000
0000
0011
0000
1010
,
0000
0100
0001
1000
0110
0000
0011
0000
,
1010
0000
0000
0000
0110
0000
1001
0000
0100
0000
1000
0000
0010
0001
0010
0000
,
0100
0000
0001
0000
0010
1000
0010
0000
0100
0000
0001
0000
1000
0100
0010
0000
,
0100
0000
1000
0000
0001
0100
0010
0000
0100
0000
0100
0000
0010
0001
1000
0000
,
0000
0000
0001
0000
0100
0000
0010
0000
0100
0000
1000
0000
0001
0100
0010
0000
,
0100
0000
0001
1000
0010
0000
0100
0000
0010
0000
0010
0000
0001
1000
0001
0000
,
0000
0000
1100
0000
0101
0000
1001
0000
0010
0000
0001
0000
1000
0010
0100
0000
,
0010
0000
1000
0000
0001
0010
0100
0000
0010
0000
0010
0000
0100
0001
1000
0000
,
0000
0000
0001
0000
0010
0000
0100
0000
0010
0000
1000
0000
0001
0010
0100
0000
,
0010
0000
1001
0000
0110
0000
0000
0000
1100
0000
0011
0000
0100
0010
1000
0000
,
0100
0010
0001
0000
0100
0010
0100
0000
1000
0000
0010
0000
0001
0000
0000
0000
,
0101
0000
0010
1000
0010
0000
0001
0000
0000
0000
1100
0000
0000
0000
0011
0000
,
0000
0000
0100
0010
1000
0000
0001
0000
1000
0000
0100
0000
0001
0000
0000
0000
,
0001
0000
0100
1000
0100
0000
0001
0000
0000
0000
1010
0000
0000
0000
0101
0000
,
0000
0000
0010
0100
0001
0000
1000
0000
0100
0000
0010
0000
0010
0000
0000
0000
,
0010
0000
1000
0001
1000
0000
0010
0000
0000
0000
1000
0000
0000
0000
0001
0000
,
0000
0000
0100
0010
0100
0000
1001
0000
0100
0000
0010
0000
0010
0000
0000
0000
,
0010
0000
0001
1000
0001
0000
0010
0000
0000
0000
0001
0000
0000
0000
1000
0000
,
0000
0000
0010
0100
0010
0000
1001
0000
1100
0000
0010
0000
0000
0000
0001
0100
,
0001
1010
0001
1100
0001
0110
0001
1010
,
0001
0000
1100
0000
0001
0000
0110
0000
1000
0000
0101
0000
1000
0010
0100
0000
,
1000
0000
0011
0000
1000
0010
0100
0000
1001
0000
0000
0000
0010
0000
0110
0000
,
0100
0000
0001
1000
0001
0000
0010
0000
1100
0000
0001
0000
0000
0000
1100
0000
,
0110
0001
0110
1000
0101
0010
1100
0010
,
0101
0000
1000
0000
1100
0000
0001
0000
0110
0000
1000
0000
0001
0100
0010
0000
,
0110
0000
0001
0000
1000
0100
0010
0000
0001
0000
0100
0010
1000
0000
0010
0100
,
0001
0000
0100
0010
1000
0000
0010
0000
0000
0100
0000
0000
0010
0000
1000
0010
,
0001
0000
0001
0010
1000
0000
1000
0010
0001
0000
0001
0010
0100
0000
1000
0100
,
0001
0000
0001
0100
1000
0000
1000
0100
0001
0000
0001
0100
0010
0000
0001
0100
,
1000
0000
1000
0100
0001
0000
0001
0100
1000
0000
1000
0100
0010
0000
0001
0010
,
1000
0200
0000
0000
0000
0000
0000
0000
,
0000
0300
0000
0000
0000
0000
0000
0000
,
0000
0000
0000
0000
;

//---------------dance-single - ----------------
#NOTES:
     dance-single:
     :
     Challenge:
     15:
     0.747,0.789,0.231,0.010,0.625:
0000
0000
0000
0000
,
0000
0000
0000
0000
,
0000
0000
0000
0000
,
0000
0000
0000
0000
,
0000
0000
0000
0000
,
0100
0000
0100
0000
,
0100
0000
0100
0000
,
0100
0000
0000
0000
,
1001
0000
0000
0000
0100
1000
0100
0001
,
0010
0000
0100
1000
0100
0000
0001
0000
0010
0000
0100
0001
0100
0000
1000
0000
,
0010
0000
1000
0100
1000
0000
0011
0000
0100
0000
0001
0000
0100
0000
1000
0000
,
0100
0000
0010
1000
0000
0000
0010
0001
0000
0000
0100
1000
0000
0000
0100
0001
,
0100
0000
0010
0000
1000
0000
1000
0000
0100
0000
0010
1000
0010
0000
0100
0000
,
0010
0000
0100
0001
0100
0000
0010
0000
1000
0000
0001
0100
0001
0000
0000
0000
,
0100
0000
1010
0000
0000
0000
0101
0000
0010
0000
1000
0100
1000
0000
0001
0100
,
0001
0000
0010
1000
0000
0000
0010
0001
0000
0000
0100
1000
0000
0000
0100
0001
,
0000
0000
0010
0000
0100
0000
1000
0000
0100
0000
0001
0000
0010
0000
0100
0010
,
1000
0000
0001
0000
0100
0000
0010
0000
1000
0000
0001
0100
0010
0000
1000
0000
,
0100
0000
0001
0000
0000
0000
0010
0000
0100
0000
0010
0001
0000
0000
0010
1000
,
0000
0000
0010
0001
0000
0000
0100
0000
0010
0000
1000
0001
1000
0000
0100
0000
,
0010
0000
1000
0000
0010
0000
0001
0000
1000
0000
1000
0100
0000
0000
0001
0100
,
0000
0000
1000
0010
0000
0000
0001
0010
0000
0000
0100
1000
0000
0000
0100
0001
,
0000
0000
0010
0000
0100
0000
0010
0000
1001
0000
0010
1000
0000
0010
0001
0000
,
0110
0000
1000
0100
0000
0001
0010
0000
1001
0000
0100
0010
0000
0010
0100
0000
,
1001
0000
0100
0000
0010
0001
0010
0000
1000
0000
0001
0100
0010
0000
0100
0000
,
0001
0000
1000
0100
0010
0000
0100
0000
1000
0000
0001
0100
1000
0000
0100
0000
,
1000
0100
0001
0000
0010
0000
0100
0000
0000
0000
0010
1000
0000
0000
1000
0100
,
0000
0000
1100
0001
0000
0000
0010
0000
0100
0000
1000
0100
1000
0000
0010
0000
,
0001
0010
0001
0000
0100
0000
0010
0000
0000
0000
1000
0100
0000
0000
0001
0100
,
0000
0000
0010
0100
0010
0000
0100
0000
0001
0010
0000
0000
1000
0010
0000
0000
,
0100
0010
0000
0000
1100
0000
0101
0000
0010
0000
0100
0000
1000
0100
1000
0000
,
0010
0000
0100
0000
0001
0100
0001
0000
0010
0000
1000
0000
0001
0100
0010
0000
,
0100
0000
0001
0000
1000
0100
0010
0000
0001
0000
0100
0000
0010
1000
0100
0000
,
0000
0000
1010
0000
0100
0000
0011
0000
0100
0000
1000
0000
0001
0010
0100
0000
,
0010
0000
0001
0000
1000
0010
0100
0000
0001
0000
0010
0000
0100
1000
0010
0000
,
0000
0000
1100
0000
0010
0000
0101
0000
0010
0000
1000
0000
0001
0100
0010
0000
,
0100
0000
0001
0000
1000
0100
0010
0000
0001
0000
0100
0000
0010
1000
0100
0000
,
0000
0000
1010
0000
0100
0000
0011
0000
0100
0000
1000
0000
0001
0010
0100
0000
,
0010
0000
0001
0000
0000
0000
1100
0000
0101
0000
1100
0000
0010
0001
0010
0000
,
0100
1000
0100
0000
0010
0001
0010
0000
0001
0000
1000
0100
1000
0000
0001
0000
,
0100
0000
0001
0010
0000
0001
0100
0000
0000
0000
1000
0010
0000
0000
0001
0010
,
0000
0000
0100
0010
0100
0000
0001
0000
1000
0000
0001
0100
0001
0000
1000
0000
,
0100
0000
1000
0010
0000
1000
0100
0000
0000
0000
0001
0010
0000
0000
1000
0010
,
0000
0000
0100
0010
0100
0000
1000
0000
0001
0000
1000
0010
1000
0000
0001
0000
,
0010
0000
0001
0100
0000
0001
0010
0000
0000
0000
1000
0100
0000
0000
0001
0100
,
0000
0000
0010
0100
0010
0000
0001
0000
1000
0000
0001
0010
0001
0000
1000
0000
,
0010
0000
1000
0100
0000
1000
0010
0000
0000
0000
0001
0100
0000
0000
1000
0100
,
0000
0000
0010
0100
0010
0000
1000
0000
0100
0000
0010
0000
0100
0000
1000
0100
,
1000
0000
0100
0000
0001
0000
0100
0010
0100
0000
1000
0000
0100
0000
0001
0100
,
0001
0000
0100
0000
0010
0000
1000
0100
1000
0000
0001
0000
0010
0100
0010
0000
,
0001
0000
0100
0000
0010
1000
0010
0000
0110
0000
0000
0000
1000
0000
0001
0000
,
0110
0000
1000
0001
1000
0000
0100
0000
0010
0000
0001
0000
0000
0000
0010
1000
,
0010
0000
0001
0000
0100
0000
0010
0001
0010
0000
1000
0000
0100
0000
0001
0010
,
0001
0000
0100
0000
1000
0000
0010
0100
0010
0000
0001
0000
0100
1000
0100
0000
,
0010
0000
0001
0000
1000
0010
1000
0000
0100
0000
0001
0010
0001
0000
1000
0100
,
1000
0000
0010
0100
0010
0000
1000
0000
0000
0100
0000
0000
0010
0000
0100
0001
,
0010
0000
0100
1000
0010
0000
0100
0001
0010
0000
0100
1000
0001
0000
0100
0001
,
1000
0000
0100
1000
0001
0000
0100
0001
1000
0000
0010
1000
0100
0000
0010
0001
,
0100
0000
0010
1000
0100
0000
0010
0001
0100
0000
1000
0100
0001
0000
1000
0010
,
0001
0200
0000
0000
0000
0000
0000
0000
,
0000
0300
0000
0000
0000
0000
0000
0000
,
0000
0000
0000
0000
;

//---------------dance-double - ----------------
#NOTES:
     dance-double:
     :
     Easy:
     8:
     0.349,0.442,0.766,0.010,0.005:
00000000
00000000
00000000
00000000
,
00000000
00000000
00000000
00000000
,
00000000
00000000
00000000
00000000
,
00000000
00000000
00000000
00000000
,
00000000
00000000
00000000
00000000
,
10000000
00000000
00100000
00000000
,
01000000
00000000
00001000
00000000
,
00010000
00000000
00000000
00000000
,
00000110
00000000
00000000
00000000
00000000
00000001
00000000
00000100
,
00000000
00001000
00000000
00000000
00000000
00010100
00000000
00000000
,
00000000
01001000
00000000
00000000
00000000
10000000
00000000
00100000
,
00000000
00001000
00000000
00010100
00000000
00001010
00000000
00001001
,
00000000
00000000
00000000
00000000
00000000
00000001
00000000
00000010
,
00000000
00010000
00000000
00001000
00000000
00000000
00011000
00000000
,
00000000
01100000
00000000
10010000
00000000
01000000
00000000
00010000
,
00000000
00101000
00000000
00010100
00000000
00001010
00000000
00000101
,
00000000
00001010
00000000
00000000
00000110
00000000
00000000
00000000
,
00001001
00000000
00000100
00001000
,
00010000
01000000
01100000
00000000
,
10010000
00000000
00100000
00010000
,
00001000
00000000
00000110
00000000
,
00001001
00000000
00000000
00000000
00000000
00000110
00000000
00000100
,
00000000
00000110
00000000
00000000
00001100
00000000
00000000
00000000
,
00011000
00000000
00110000
01000000
,
10100000
01000000
00101000
00000000
,
00010010
00000000
00000101
00001100
,
00000110
00000000
00000000
00000000
00000000
00000010
00000000
00000010
,
00000000
00000010
00000000
00000000
00000001
00000000
00000000
00000000
,
00000100
00000000
00000010
00000000
00000000
00001100
00000000
00010010
,
00000000
00010100
00000000
00000000
00001000
00000000
00011000
00000000
,
00010000
00011000
01000000
00000000
,
10010000
00000000
10000000
01000000
,
00010000
00000000
00001000
00000000
,
00000110
00000000
00000001
00000100
,
00001000
00000000
00010000
00000000
,
01100000
00000000
10000000
00100000
,
00010000
00000000
00001000
00000000
,
00000110
00000000
00000001
00000010
,
00001000
00000000
00010000
01100000
,
10000000
01100000
00010000
00000100
,
00011000
00000000
00000000
00000000
00000000
00001100
00000000
00000011
,
00000000
00000110
00000000
00000000
00001000
00000000
01000000
00000000
,
00011000
00000000
00000000
00000000
00000000
01010000
00000000
10100000
,
00000000
01100000
00000000
00000000
00010000
00000000
00000010
00000000
,
00011000
00000000
00000000
00000000
00000000
00001010
00000000
00000101
,
00000000
00000110
00000000
00000000
00001000
00000000
00100000
00000000
,
00011000
00000000
00000000
00000000
00000000
00110000
00000000
11000000
,
00000000
01100000
00000000
00000000
10010000
00000000
00000000
00000000
,
01000000
10100000
01000000
10010000
,
00100000
00011000
00000100
00000110
,
00000010
00000110
00001001
00000100
,
00010010
00000000
00001001
00000000
,
00000100
00010010
00000100
00001001
,
00000010
00011000
01000000
01100000
,
00100000
01100000
10010000
01000000
,
00100000
00000000
00000000
00000000
00000000
00000000
00000000
00000000
00000000
00010000
00000000
00000000
00001000
00000000
00000000
00000000
,
00000100
00001000
00000000
00010000
,
01000000
00010000
00000000
00001000
,
00000010
00001000
00000000
00010000
,
00000000
00200000
00000000
00000000
00000000
00000000
00000000
00000000
,
00000000
00300000
00000000
00000000
00000000
00000000
00000000
00000000
,
00000000
00000000
00000000
00000000
;

//---------------dance-double - ----------------
#NOTES:
     dance-double:
     :
     Medium:
     12:
     0.576,0.568,1.000,0.010,0.021:
00000000
00000000
00000000
00000000
,
00000000
00000000
00000000
00000000
,
00000000
00000000
00000000
00000000
,
00000000
00000000
00000000
00000000
,
00000000
00000000
00000000
00000000
,
10000000
00000000
00100000
00000000
,
00010000
00000000
00001000
00000000
,
00000010
00000000
00000000
00000000
,
00001001
00000000
00000000
00000000
00000000
00000100
00000010
00000001
,
00000000
00000110
00000000
00001100
00000000
00011000
00000000
00110000
,
00000000
01100000
00000000
11000000
00000000
00100000
01000000
10000000
,
00000000
01100000
00000000
00110000
00000000
00011000
00000000
00001000
,
00000100
00000000
00000010
00000001
00000000
00001000
00000001
00000010
,
00000100
00001000
00010000
00100000
01000000
10000000
00010000
00000000
,
01000000
00100000
00000000
10010000
00000000
10000000
01000000
00010000
,
00001000
00000110
00000000
00000011
00000000
00001001
00000000
00000101
,
00000000
00000010
00001000
00000000
00010000
00001000
00000000
00110000
,
00000000
01000000
10000000
00000000
00000000
01000000
00100000
00000000
,
01000000
00010000
00000000
00001000
00000100
00000010
00000000
00001100
,
00000000
00001001
00000000
00000011
00000100
00001000
00000000
00010000
,
00000100
00001000
00000000
00000010
00010000
00001000
00000000
01010000
,
00000000
01100000
00000000
10100000
00000000
01010000
00000000
00101000
,
00000000
00000000
00010000
00000000
00000010
00000000
00000100
00000000
00001001
00000000
00000000
00000100
00000000
00000000
00000100
00000000
,
00011000
00000000
00000000
01000000
00000000
00000000
01000000
00000000
10010000
00000000
00000000
00100000
00000000
00000000
00100000
00000000
,
10000000
01000000
00110000
00000000
00000000
00001000
00000100
00001000
,
00000000
00010000
01000000
00010000
00000000
00001000
00000010
00001000
,
00000000
00010000
00100000
00010000
00000000
01100000
00000000
10010000
,
00000000
01001000
00000000
00010000
00000100
00000000
00000010
00000000
,
00001001
00000000
00000100
00000010
00000000
00010100
00000000
00101000
,
00000000
00010000
01000000
00100000
11000000
00000000
01100000
00000000
,
00101000
00000000
00010000
00000100
00000010
00000001
00000100
00000000
,
00000100
00001000
00010000
00000000
00000000
00100000
10000000
01000000
,
00010000
00001000
00000000
01010000
00000000
00010000
00001000
00000110
,
00000000
00000001
00000000
00000100
00000100
00000010
00000001
00000100
,
00001000
00010000
00000000
00001100
00000000
00001000
00010000
01100000
,
00000000
10010000
00100000
10010000
00100000
01000000
10000000
00100000
,
00010000
00001000
00000000
00110000
00000000
00010000
00001000
00000110
,
00000000
00000001
00000000
00000010
00000010
00000100
00000001
00000010
,
00001000
00010000
00000000
00001010
00000000
00001000
00010000
00100000
,
00010000
00001000
00000100
00001000
00010000
01000000
00100000
00000000
,
10010000
00000000
00000000
10100000
00000000
10010000
00000000
11000000
,
00000000
10100000
01001000
00000000
00001000
00000100
00000010
00000000
,
00001001
00000000
00000000
00000011
00000000
00001001
00000000
00000101
,
00000000
00000011
00010100
00000000
00010000
00100000
01000000
00000000
,
10010000
00000000
00000000
11000000
00000000
10010000
00000000
10100000
,
00000000
11000000
00101000
00000000
00001000
00000010
00000100
00000000
,
00001001
00000000
00000000
00000101
00000000
00001001
00000000
00000011
,
00000000
00000101
00010010
00000000
00001000
00011000
00000000
00110000
,
00000000
01100000
00000000
11000000
00000000
01100000
00000000
00110000
,
00000000
00011000
00000000
00001100
00000000
00000110
00000001
00000011
,
00000000
00000110
00001000
00001100
00011000
00000000
00001000
00011000
,
00000000
00100000
00100000
00000000
00010000
00011000
00000000
00001010
,
00000000
00000110
00000000
00000101
00000000
00000110
00000000
00001010
,
00000000
00011000
00000000
01010000
00000000
01100000
10000000
10100000
,
00000000
01100000
01000000
01010000
00000000
00011000
00000000
00001010
,
00000000
00000000
00000110
00000000
00000001
00000000
00000101
00000000
00000000
00000010
00000000
00000000
00000001
00000000
00000100
00000000
,
00001000
00010000
00100000
00010000
00001000
00000010
00001000
00010000
,
01000000
10000000
00100000
00010000
00001000
00000100
00001000
00010000
,
01000000
00010000
00001000
00000010
00000001
00000100
00001000
00010000
,
00100000
20000000
00000000
00000000
00000000
00000000
00000000
00000000
,
00000000
30000000
00000000
00000000
00000000
00000000
00000000
00000000
,
00000000
00000000
00000000
00000000
;

//---------------dance-double - ----------------
#NOTES:
     dance-double:
     :
     Hard:
     16:
     0.676,0.789,0.493,0.010,0.299:
00000000
00000000
00000000
00000000
,
00000000
00000000
00000000
00000000
,
00000000
00000000
00000000
00000000
,
00000000
00000000
00000000
00000000
,
00000000
00000000
00000000
00000000
,
10000000
00000000
01000000
00000000
,
00100000
00000000
00010000
00000000
,
00001000
00000000
00000000
00000000
,
00000110
00000000
00000000
00000000
00000001
00000010
00000001
00000100
,
00001000
00010000
00000000
00001000
00010000
00100000
00000000
00010000
,
01000000
10000000
00000000
00100000
10000000
01000000
00100000
00001000
,
00010000
00001000
00000000
00010100
00000000
00000110
00000000
00000001
,
00000010
00000000
00000100
00000100
00000010
00001000
00010000
01000000
,
00100000
00010000
10000000
01000000
10000000
00100000
00010000
00000000
,
00001000
00000100
00000000
00000010
00000100
00000001
00000100
00001000
,
00010000
00001000
00000000
01010000
00000000
00100000
00000000
11000000
,
00000000
00100000
00010000
00001000
00000100
00000010
00000000
00000001
,
00000000
00000010
00001000
00000100
00000010
00000001
00000100
00001000
,
00010000
01000000
00000000
00100000
10000000
00100000
00000000
00001000
,
00000000
00010000
00000000
00000100
00000010
00000001
00000000
00000100
,
00001000
00010000
00100000
00010000
00100000
10000000
00000000
11000000
,
00000000
01100000
00000000
01010000
00000000
00011000
00000000
00001100
,
00000000
00000000
00000010
00000000
00000100
00000000
00000001
00000000
00000010
00000000
00000001
00000100
00000000
00000100
00001000
00000000
,
00010000
00000000
01000000
10000000
00000000
10000000
01000000
00000000
00010000
00000000
00001000
00000100
00000000
00000100
00000001
00000000
,
00000010
00000000
00001000
00000000
00100000
01000000
00100000
00000000
01000000
00000000
00010000
00001000
00010000
00000000
00001000
00000000
,
00000100
00000000
00000010
00000100
00000001
00000000
00000010
00000000
00001000
00000000
00010000
00001000
01000000
00000000
00100000
00000000
,
10000000
01000000
00100000
00000000
00001000
00000000
00010000
00000000
00000000
00000000
00001100
00000000
00000000
00000000
00000110
00000000
,
00000000
00000011
00000000
00001001
00000010
00000001
00000110
00000000
,
00010100
00000000
00001000
01000000
00000000
01100000
00000000
10010000
,
00000000
00100000
00010000
00001000
00000110
00000000
00000011
00000000
,
00001010
00000000
00000000
00000000
00000001
00000000
00000100
00000000
00001000
00000000
00000100
00000000
00000001
00000010
00000100
00000000
,
00000010
00000000
00001000
00000000
00010000
00001000
00010000
00000000
00001000
00000000
01000000
00000000
00100000
01000000
10000000
00000000
,
01000000
00000000
00010000
00000000
00100000
00001000
00010000
00000000
00000100
00000000
00001000
00000000
00000001
00000100
00000010
00000000
,
00000000
00000000
00001010
00000000
00001001
00000000
00001100
00000000
00000010
00000000
00000001
00000000
00000100
00000001
00000010
00000000
,
00001000
00000000
00010000
00001000
00010000
00000000
01000000
00000000
00100000
00000000
10000000
00000000
00100000
00010000
10000000
00000000
,
00000000
00000000
01100000
00000000
00110000
00000000
01001000
00000000
00100000
00000000
00010000
00000000
01000000
00001000
00010000
00000000
,
00000100
00000000
00000010
00000001
00000010
00000000
00000100
00000000
00010000
00000000
00001000
00000000
01000000
00100000
10000000
00000000
,
00000000
00000000
00100000
00000000
00010000
00000000
00100000
00000000
01000000
00000000
00001000
00010000
00000100
00000000
00000010
00000000
,
00000001
00000000
00001010
00000000
00000000
00000000
00000101
00000000
00000110
00000000
00001010
00000000
00000001
00000100
00000010
00000000
,
00010000
00001000
01000000
00000000
00010000
00100000
01000000
00000000
10000000
00000000
00100000
00000000
10010000
00000000
00000000
00000000
,
01100000
00000000
00001000
00010000
00001000
00000000
01000000
00000000
00000000
00000000
00110000
00000000
00000000
00000000
00011000
00000000
,
00000000
00000000
00000100
00000010
00000001
00000000
00001000
00000000
00000001
00000000
00000100
00000000
00001010
00000000
00000000
00000000
,
00011000
00000000
01000000
00100000
10000000
00000000
00010000
00000000
00000000
00000000
11000000
00000000
00000000
00000000
00101000
00000000
,
00000000
00000000
00010000
00001000
01000000
00000000
00100000
00000000
00010000
00000000
00001000
00000000
00000010
00000000
00000000
00000000
,
00000100
00000000
00001000
00000001
00001000
00000000
00000100
00000000
00000000
00000000
00001001
00000000
00000000
00000000
00000110
00000000
,
00000000
00000000
00001000
00000100
00001000
00000000
00000001
00000000
00000100
00000000
00001000
00000000
00010000
00000000
00000000
00000000
,
00110000
00000000
10000000
01000000
10000000
00000000
00010000
00000000
00000000
00000000
01100000
00000000
00000000
00000000
00101000
00000000
,
00000000
00000000
00010000
00001000
00010000
00000000
00000100
00000000
00000010
00000000
00001001
00000000
00000000
00000000
00001000
00000100
,
00001000
00000010
00000001
00000100
00001000
00010000
01000000
00010000
,
00001000
00000000
00000010
00000000
00001000
00000000
00010000
00000000
00100000
00000000
00010000
00000000
00001000
00000010
00000100
00000000
,
00010000
00000000
00001000
00000000
01000000
00100000
10000000
00000000
01100000
00000000
00000000
00000000
00100000
00000000
00010000
00000000
,
00001000
00000000
00000100
00000010
00000100
00000000
00000001
00000000
00000110
00000000
00001000
00000000
00000000
00000000
00000001
00000000
,
00000100
00001000
00010000
01000000
10000000
01000000
00010000
00001000
,
00000100
00000000
00000001
00000000
00000010
00000000
00001000
00000000
00010000
00000000
00100000
00000000
10000000
01000000
10000000
00000000
,
01000000
00000000
00010000
00000000
00001000
00000100
00001000
00000000
00000100
00000000
00000001
00000010
00000001
00000000
00000010
00001000
,
00000010
00000000
00001000
00010000
00001000
00000000
01000000
00000000
00000000
00100000
00000000
00000000
00010000
00000000
10000000
01000000
,
00010000
00000000
00001000
00000010
00000001
00000000
00000001
00000100
00001000
00000000
00010000
00100000
10000000
00000000
10000000
01000000
,
00010000
00000000
00001000
00000010
00000001
00000000
00000001
00000100
00001000
00000000
00010000
00100000
10000000
00000000
10000000
01000000
,
00010000
00000000
00001000
00000010
00000001
00000000
00000001
00000100
00001000
00000000
00010000
00100000
10000000
00000000
10000000
01000000
,
00010000
00002000
00000000
00000000
00000000
00000000
00000000
00000000
,
00000000
00003000
00000000
00000000
00000000
00000000
00000000
00000000
,
00000000
00000000
00000000
00000000
;

//---------------dance-double - ----------------
#NOTES:
     dance-double:
     :
     Challenge:
     16:
     0.724,0.789,0.052,0.010,0.609:
00000000
00000000
00000000
00000000
,
00000000
00000000
00000000
00000000
,
00000000
00000000
00000000
00000000
,
00000000
00000000
00000000
00000000
,
00000000
00000000
00000000
00000000
,
10000000
00000000
01000000
00000000
,
00010000
00000000
00001000
00000000
,
00000010
00000000
00000000
00000000
,
00001001
00000000
00000000
00000000
00000100
00000001
00000100
00000010
,
00010000
00000000
00001000
00010000
00001000
00000000
01000000
00000000
00100000
00000000
10000000
00010000
10000000
00000000
01000000
00000000
,
00010000
00000000
00001000
00010000
00000100
00000000
00001010
00000000
00000001
00000000
00000100
00000000
00001000
00000000
00010000
00000000
,
00001000
00000000
01000000
00010000
00000000
00000000
10000000
00100000
00000000
00000000
01000000
00001000
00000000
00000000
00010000
00001000
,
00010000
00000000
00000100
00000000
00000010
00000000
00000010
00000000
00000001
00000000
00000100
00000010
00000100
00000000
00001000
00000000
,
00010000
00000000
01000000
00100000
01000000
00000000
10000000
00000000
01000000
00000000
00010000
00001000
00010000
00000000
00000000
00000000
,
00000100
00000000
00000010
00000000
00000000
00000000
00001001
00000000
00000100
00000000
00001000
00010000
00001000
00000000
01000000
00100000
,
01000000
00000000
00100000
10000000
00000000
00000000
10000000
01000000
00000000
00000000
01000000
00010000
00000000
00000000
00010000
00001000
,
00000000
00000000
00000110
00000000
00000001
00000000
00000010
00000000
00001000
00000000
00010000
00000000
00001000
00000000
00000010
00000100
,
00000010
00000000
00000001
00000000
00000100
00000000
00001000
00000000
00010000
00000000
01000000
00100000
01000000
00000000
10000000
00000000
,
01000000
00000000
00010000
00000000
00000000
00000000
00001000
00000000
00000010
00000000
00000001
00000100
00000000
00000000
00000100
00001000
,
00000000
00000000
00001000
00010000
00000000
00000000
01100000
00000000
10000000
00000000
01000000
00100000
01000000
00000000
00010000
00000000
,
00001000
00000000
00000010
00000000
00000001
00000000
00000010
00000000
00000001
00000000
00000100
00001000
00000000
00000000
00001000
00010000
,
00000000
00000000
00010000
00100000
00000000
00000000
00100000
10000000
00000000
00000000
10000000
00100000
00000000
00000000
00100000
00010000
,
00000000
00000000
00001000
00000000
00000100
00000000
00000001
00000000
00000010
00000000
00000001
00000100
00000000
00000010
00010000
00000000
,
00001000
00000000
00010000
00000100
00000000
00000010
00000001
00000000
00000100
00000000
00001000
00010000
00000000
01000000
00100000
00000000
,
10000000
00000000
00100000
00000000
00001000
00010000
00001000
00000000
00000100
00000000
00000001
00001000
00000001
00000000
00000100
00000000
,
00001000
00000000
00100000
01000000
00100000
00000000
10000000
00000000
00100000
00000000
00010000
01000000
00100000
00000000
10000000
00000000
,
01000000
00100000
01000000
00000000
00010000
00000000
00001000
00000000
00000000
00000000
00000010
00000001
00000000
00000000
00000001
00000100
,
00000000
00000000
00000100
00001000
00000000
00000000
00001000
00000000
00010000
00000000
01000000
00100000
01000000
00000000
00010000
00000000
,
01000000
10000000
01000000
00000000
10000000
00000000
00100000
00000000
00000000
00000000
00010000
00001000
00000000
00000000
00001000
00000100
,
00000000
00000000
00000100
00000010
00000100
00000000
00000001
00000000
00000010
00001000
00000000
00000000
00001000
00010000
00000000
00000000
,
00010000
01000000
00000000
00000000
10000000
00000000
01000000
00000000
00010000
00000000
00001000
00000000
00010000
01000000
00010000
00000000
,
00001000
00000000
00000100
00000000
00000001
00000100
00000001
00000000
00000010
00000000
00001000
00000000
00010000
00000100
00010000
00000000
,
00000010
00000000
00000100
00000000
00001000
00010000
00001000
00000000
01000000
00000000
00100000
00000000
10000000
00010000
10000000
00000000
,
00000000
00000000
01000000
00000000
10000000
00000000
10000000
00000000
00100000
00000000
00010000
00000000
00001000
01000000
00001000
00000000
,
00100000
00000000
01000000
00000000
00010000
00001000
00010000
00000000
00000100
00000000
00000010
00000000
00000001
00001000
00000001
00000000
,
00000000
00000000
00000100
00000000
00000001
00000000
00000001
00000000
00000100
00000000
00001000
00000000
00010000
00000010
00010000
00000000
,
00000100
00000000
00000010
00000000
00001000
00010000
00001000
00000000
00100000
00000000
01000000
00000000
10000000
00010000
10000000
00000000
,
00000000
00000000
00100000
00000000
10000000
00000000
10000000
00000000
01000000
00000000
00010000
00000000
00001000
00100000
00001000
00000000
,
01000000
00000000
00100000
00000000
00010000
00001000
00010000
00000000
00000100
00000000
00000010
00000000
00000001
00000100
00000001
00000000
,
00000100
00001000
00000100
00000000
00001000
00010000
00001000
00000000
00010000
00000000
01000000
00100000
01000000
00000000
10000000
00000000
,
01000000
00000000
00010000
00001000
00010000
00000000
00000100
00000000
00000000
00000000
00000010
00000001
00000000
00000000
00000010
00001000
,
00000000
00000000
00010000
00001000
00010000
00000000
00010000
00000000
00001000
00000000
00000100
00000010
00000100
00000000
00000001
00000000
,
00000100
00000000
00001000
00010000
00001000
00000000
01000000
00000000
00000000
00000000
00100000
10000000
00000000
00000000
00100000
00010000
,
00000000
00000000
00001000
00010000
00001000
00000000
00001000
00000000
00010000
00000000
00100000
01000000
00100000
00000000
10000000
00000000
,
00100000
00000000
00010000
00001000
00010000
00000000
00000010
00000000
00000000
00000000
00000100
00000001
00000000
00000000
00000100
00001000
,
00000000
00000000
00010000
00001000
00010000
00000000
00010000
00000000
00001000
00000000
00000010
00000100
00000010
00000000
00000001
00000000
,
00000010
00000000
00001000
00010000
00001000
00000000
00100000
00000000
00000000
00000000
01000000
10000000
00000000
00000000
01000000
00010000
,
00000000
00000000
00001000
00010000
00001000
00000000
00001000
00000000
00000010
00000000
00000001
00000000
00000100
00000000
00000010
00000001
,
00000010
00000000
00000100
00000000
00001000
00000000
00010000
00001000
00010000
00000000
01000000
00000000
00100000
00000000
00001000
00010000
,
00001000
00000000
01000000
00000000
00100000
00000000
10000000
01000000
10000000
00000000
01000000
00000000
00100000
01000000
00100000
00000000
,
00010000
00000000
10000000
00000000
01000000
00010000
01000000
00000000
00010000
00000000
00000000
00000000
00001000
00000000
00000100
00000000
,
00000010
00000000
00000100
00000001
00000100
00000000
00001000
00000000
00000100
00000000
00000001
00000000
00000000
00000000
00000010
00001000
,
00000010
00000000
00001000
00000000
00010000
00000000
01000000
00100000
01000000
00000000
10000000
00000000
01000000
00000000
00100000
00010000
,
00100000
00000000
01000000
00000000
00010000
00000000
00001000
00000010
00000100
00000000
00000010
00000000
00000001
00000100
00000001
00000000
,
00000100
00000000
00001000
00000000
00010000
01000000
00100000
00000000
10000000
00000000
00100000
00001000
00010000
00000000
00000100
00000010
,
00000001
00000000
00001000
00000100
00000010
00000000
00000001
00000000
00000000
00000100
00000000
00000000
00001000
00000000
00000001
00000100
,
00001000
00000000
00010000
01000000
10000000
00000000
10000000
00100000
00010000
00000000
00001000
00000010
00000001
00000000
00000001
00000100
,
00001000
00000000
00010000
01000000
10000000
00000000
10000000
00100000
00010000
00000000
00001000
00000010
00000001
00000000
00000001
00000100
,
00001000
00000000
00010000
01000000
10000000
00000000
10000000
00100000
00010000
00000000
00001000
00000010
00000001
00000000
00000001
00000100
,
00001000
00020000
00000000
00000000
00000000
00000000
00000000
00000000
,
00000000
00030000
00000000
00000000
00000000
00000000
00000000
00000000
,
00000000
00000000
00000000
00000000
;
