#TITLE:SUNRISE(JASON NEVINS REMIX);
#SUBTITLE:;
#ARTIST:DURAN DURAN;
#TITLETRANSLIT:;
#SUBTITLETRANSLIT:;
#ARTISTTRANSLIT:;
#CREDIT:;
#BANNER:SUNRISE(JASON NEVINS REMIX).png;
#BACKGROUND:SUNRISE(JASON NEVINS REMIX)-bg.png;
#LYRICSPATH:;
#CDTITLE:./CDTITLES/DanceDanceRevolution SuperNOVA2.png;
#MUSIC:SUNRISE(JASON NEVINS REMIX).ogg;
#OFFSET:0.000;
#SAMPLESTART:38.770;
#SAMPLELENGTH:15.000;
#SELECTABLE:YES;
#DISPLAYBPM:130.000;
#BPMS:0.000=130.435,4.000=129.974,49.000=129.995,79.000=130.024;
#STOPS:49.000=1.153
,79.000=0.927
;
#BGCHANGES:;

//---------------dance-single - ----------------
#NOTES:
     dance-single:
     :
     Beginner:
     2:
     0.083,0.102,0.050,0.000,0.000:
0000
0000
0000
0000
,
0000
0000
0000
0000
,
0000
0000
0000
0000
,
0000
0000
0000
0000
,
0000
0000
0000
0000
,
0001
0000
0000
0000
,
0100
0000
0000
0000
,
1000
0000
0000
0000
,
0100
0000
0000
0000
,
0001
0000
0000
0000
,
0010
0000
0000
0000
,
0001
0000
0000
0000
,
1000
0000
0000
0000
,
0000
0001
0000
0000
0000
0000
0000
0000
,
0000
1000
0000
0000
0000
0000
0000
0000
,
0000
0010
0000
0000
0000
0000
0000
0000
,
0000
0000
0000
0010
0000
0000
0000
0010
,
0000
0000
0000
0000
,
0000
0000
0000
0100
0000
0000
0000
0100
,
0000
0000
0000
0000
,
0000
0000
0000
0000
0000
0000
0000
0001
,
0000
0000
0000
0000
0000
0000
0000
0100
,
0000
0000
0000
0000
0000
0000
0000
1000
,
0000
0000
0000
0000
0000
0000
0000
1000
,
0000
1000
0000
1000
0000
0000
0000
0000
,
0000
0000
0000
0000
0000
0000
0000
0010
,
0000
0000
0000
0000
0000
0000
0000
1001
,
0000
0000
0000
0000
0000
0000
0000
0001
,
0000
0000
0000
0000
0000
0000
0000
1000
,
0000
0000
0000
0000
0000
0000
0000
0100
,
0000
0000
0000
0000
0000
0000
0000
0001
,
0000
0000
0000
0000
0000
0000
0000
0010
,
0000
0000
0000
0000
0000
0000
0000
1000
,
0000
0000
0000
0000
0000
0000
0000
0100
,
0000
0000
0000
0000
0000
0000
0000
0001
,
0000
0000
0000
0000
0000
0000
0000
1000
,
0000
1000
0000
1000
0000
0000
0000
0100
,
0000
0000
0000
0000
0000
0000
0000
0001
,
0000
0000
0000
0000
0000
0000
0000
1000
,
0000
0000
0000
0000
0000
0000
0000
0001
,
0000
0001
0000
0001
0000
0000
0000
0100
,
0000
0000
0000
0000
0000
0000
0000
1000
,
0000
0000
0000
0000
0000
0000
0000
0001
,
0000
0000
0000
0000
0000
0000
0000
1000
,
0000
1000
0000
1000
0000
0000
0000
0010
,
0000
0000
0000
0000
0000
0000
0000
0001
,
0000
0000
0000
0000
0000
0000
0000
0010
,
0000
0000
0000
0000
0000
0000
0000
1001
,
0000
0000
0000
0000
0000
0000
0000
0110
,
0000
0000
0000
0000
0000
0000
0000
1001
,
0000
0000
0000
0000
0000
0000
0000
1001
,
0000
0000
0000
0000
;

//---------------dance-single - ----------------
#NOTES:
     dance-single:
     :
     Easy:
     4:
     0.126,0.179,0.070,0.000,0.000:
0000
0000
0000
0000
,
0000
0000
0000
0000
,
0000
0000
0000
0000
,
0000
0000
0000
0000
,
0000
0000
0000
0000
,
1000
0000
0000
0000
,
0100
0000
0000
0000
,
0001
0000
0001
0000
,
1000
0000
1000
0000
,
0001
0000
0000
0000
,
0010
0000
0000
0000
,
1000
0000
1000
0000
,
0001
0000
0000
0000
,
0000
0000
0000
0100
0000
0000
0000
0000
,
0000
0000
0000
0001
0000
0000
0000
0001
,
0000
0000
0000
1000
0000
0000
0000
1000
,
0000
0000
0000
0010
0000
0000
0000
0000
,
0000
0000
0000
1000
0000
0000
0000
0000
,
0000
0000
0000
0001
0000
0000
0000
0000
,
0000
0000
0000
0000
0000
0000
0000
1000
,
0000
0000
0000
1000
0000
0000
0000
0001
,
0000
0000
0000
0001
0000
0000
0000
0100
,
0000
0000
0000
0100
0000
0000
0000
1000
,
0000
0000
0000
1000
0000
0000
0000
0001
,
0000
0000
0000
0001
0000
0000
0000
1000
,
0000
0000
0000
1000
0000
0000
0000
0010
,
0000
0000
0000
0010
0000
0000
0000
0001
,
0000
0000
0000
1001
0000
0000
0000
0010
,
0000
0000
0000
0000
0000
0000
0000
1000
,
0000
0000
0000
0000
0000
0000
0000
0100
,
0000
0000
0000
0000
0000
0000
0000
0001
,
0000
0000
0000
0000
0000
0000
0000
0010
,
0000
0000
0000
1000
0000
0000
0000
1000
,
0000
0000
0000
0100
0000
0000
0000
0100
,
0000
0000
0000
0001
0000
0000
0000
0001
,
0000
0000
0000
0010
0000
0000
0000
0010
,
0000
0000
0000
0100
0000
0000
0000
1000
,
0000
0000
0000
0100
0000
0000
0000
0001
,
0000
0000
0000
1000
0000
0000
0000
0001
,
0000
1000
0000
0001
0000
1000
0000
1001
,
0000
0000
0000
0010
0000
0000
0000
0001
,
0000
0000
0000
0010
0000
0000
0000
1000
,
0000
0000
0000
0001
0000
0000
0000
1000
,
0000
0001
0000
0100
0000
0010
0000
0110
,
0000
0000
0000
1000
0000
0000
0000
0100
,
0000
0000
0000
0010
0000
0000
0000
0010
,
0000
0000
0000
0100
0000
0000
0000
0010
,
0000
0100
0000
0010
0000
0100
0000
1001
,
0000
0000
0000
0000
0000
0000
0000
0110
,
0000
0000
0000
0000
0000
0000
0000
1001
,
0000
0000
0000
0000
0000
0000
0000
1001
,
0000
0000
0000
0000
;

//---------------dance-single - ----------------
#NOTES:
     dance-single:
     :
     Medium:
     5:
     0.264,0.333,0.291,0.020,0.000:
0000
0000
0000
0000
,
0000
0000
0000
0000
,
0000
0000
0000
0000
,
0000
0000
0000
0000
,
0000
0000
0000
0000
,
1000
0000
0100
0000
,
0001
0000
0100
0000
,
1000
1000
0100
0000
,
0001
0001
0010
0000
,
1000
0000
0100
0000
,
0001
0000
0100
0000
,
1000
1000
0010
0001
,
0001
0000
0100
0000
0000
0001
0000
0000
,
0000
0001
0000
0000
0000
1000
0000
0000
,
0000
1000
0000
0010
0000
0001
0000
0100
,
0000
0000
0000
0100
0000
1000
0000
0010
,
0000
0000
0000
0001
0000
0001
0000
0100
,
0000
0001
0000
1000
0000
1000
0000
0100
,
0000
1000
0000
1001
0000
0000
0000
0100
,
0000
0000
0000
1001
0000
0110
0000
0000
,
0000
1001
0000
0100
0000
1001
0000
1000
,
0000
0100
0000
0001
0000
0010
0000
1000
,
0000
1000
0000
0001
0000
0001
0000
1000
,
0000
1000
0000
0001
0000
0001
0000
1001
,
0000
1001
0000
0100
0000
1001
0000
0001
,
0000
0100
0000
1000
0000
0010
0000
0001
,
0000
0100
0000
1000
0000
0100
0000
0001
,
0000
0010
0000
1000
0000
1001
0000
0000
,
0000
0000
0000
0010
0000
0000
0000
1000
,
0000
0000
0000
0100
0000
0000
0000
0001
,
0000
0000
0000
0100
0000
0000
0000
1000
,
0000
0000
0000
0010
0000
0000
0000
0001
,
0000
0001
0000
0100
0000
0000
0000
1000
,
0000
1000
0000
0010
0000
0000
0000
0001
,
0000
0001
0000
1000
0000
1000
0000
1001
,
0000
0100
0000
1001
0000
0000
0000
1001
,
0000
1001
0000
0100
0000
1001
0000
1000
,
0000
0100
0000
0001
0000
0010
0000
1000
,
0000
1000
0000
0001
0000
0001
0000
1000
,
0000
0100
0000
0001
0000
0100
0000
1001
,
0000
1001
0000
0100
0000
0100
0000
1001
,
0000
0100
0000
1000
0000
0010
0000
0001
,
0000
0100
0000
1000
0000
0100
0000
0001
,
0000
0010
0000
1000
0000
0001
0000
1001
,
0000
0100
0000
1001
0000
0100
0000
1000
,
0000
0110
0000
1001
0000
0110
0000
1000
,
0000
0100
0000
0001
0000
0100
0000
1000
,
0000
0010
0000
0001
0000
0100
0000
1000
,
0001
2002
0000
0000
0000
3003
0000
0101
,
0000
1100
0000
1010
0000
0011
0000
0000
,
0000
1001
0000
0000
0001
0100
1000
0000
,
0000
1001
0000
0000
0000
0000
0000
0000
,
0000
0000
0000
0000
;

//---------------dance-single - ----------------
#NOTES:
     dance-single:
     :
     Hard:
     9:
     0.414,0.487,0.582,0.080,0.010:
0000
0000
0000
0000
,
0000
0000
0000
0000
,
0000
0000
0000
0000
,
0000
0000
0000
0000
,
0000
0000
0000
0000
,
0010
0000
1000
0100
0010
0001
0000
0000
,
0100
0000
0001
0010
0100
1000
0000
0000
,
0000
0000
1010
0000
0000
1000
0010
0000
,
1001
0101
0101
0000
,
0010
0000
1000
0100
0010
0001
0000
0000
,
0100
0000
0001
0010
0100
1000
0000
0000
,
0000
0000
0011
0000
0000
0001
0010
0000
,
1001
0000
0110
0000
0000
0010
0000
1000
,
0100
0001
0000
0101
0000
0010
0000
0001
,
0100
1000
0000
0000
0000
0110
0000
0000
,
1000
0010
0000
1001
0000
0101
0000
0101
,
0000
0000
0000
0010
1000
0100
0010
0001
,
0100
0100
0000
0100
0001
0010
0100
1000
,
0010
0010
0000
0000
0000
0011
0000
0000
,
0010
0001
0000
1001
0000
0101
0000
2000
,
0000
0002
0000
0000
0000
3003
0000
0001
,
0100
0100
0000
1000
0100
0100
0000
0010
,
0100
1000
0001
0010
0100
0100
0000
0101
,
0000
1001
0000
0100
0100
1001
0000
0002
,
0000
2000
0000
0000
0000
3003
0000
1000
,
0100
0100
0000
0001
0100
0100
0000
0010
,
0100
0001
1000
0010
0100
0100
0000
1100
,
0000
1001
0000
0100
0100
1001
0000
1000
,
0100
0001
0100
1000
0010
0000
0000
1001
,
0000
0000
1100
0000
0100
1000
0000
0001
,
0100
1000
0100
0001
0010
0000
0000
1001
,
0000
0000
0101
0000
0100
0001
0000
0100
,
1000
0010
1000
0100
0001
0000
0000
0110
,
0000
0000
1010
0000
0010
1000
0000
0100
,
0001
0010
0001
0100
1000
0000
0000
0110
,
0000
0000
0011
0000
0010
0001
0000
2000
,
0000
0002
0000
0000
0000
3003
0000
0001
,
0100
0101
0000
1000
0100
1100
0000
0010
,
0100
1000
0001
0010
0100
1100
0000
0101
,
0000
0000
1001
0000
0000
0000
0100
1000
0100
0000
1001
0000
0000
0000
0002
0000
,
0000
2000
0000
0000
0000
3003
0000
1000
,
0100
1100
0000
0001
0100
0101
0000
0010
,
0100
0001
1000
0010
0100
0101
0000
1100
,
0000
0000
1001
0000
0000
0000
0100
0001
0100
0000
1001
0000
0000
0000
1010
0000
,
0000
1010
0000
0011
0000
0011
0000
1000
,
0100
0110
0000
0001
0100
0110
0000
0001
,
0000
0100
0000
1000
0000
0100
0000
0001
,
0000
1100
0000
0010
0000
0101
0000
1001
,
1001
1001
0000
0100
0100
1001
0000
1100
,
0100
0101
0000
0011
0010
1010
0000
0001
,
0000
1000
0000
0000
1000
0100
0001
0000
,
0000
1100
0000
0000
0000
0000
0000
0000
,
0000
0000
0000
0000
;

//---------------dance-double - ----------------
#NOTES:
     dance-double:
     :
     Easy:
     4:
     0.126,0.179,0.030,0.000,0.000:
00000000
00000000
00000000
00000000
,
00000000
00000000
00000000
00000000
,
00000000
00000000
00000000
00000000
,
00000000
00000000
00000000
00000000
,
00000000
00000000
00000000
00000000
,
00010000
00000000
00000000
00000000
,
01000000
00000000
00000000
00000000
,
10000000
00000000
00000000
00000000
,
01000000
00000000
00000000
00000000
,
00010000
00000000
00000000
00000000
,
00001000
00000000
00000000
00000000
,
00000100
00000000
00000000
00000000
,
00001001
00000000
00000000
00000000
00000000
00000001
00000000
00000000
,
00000000
00000000
00000000
00000000
00000000
00000010
00000000
00000000
,
00000000
00000000
00000000
00000000
00000000
00000100
00000000
00000000
,
00000000
00000000
00000000
00000000
00000000
00001000
00000000
00000000
,
00000000
00000000
00000000
00000000
00000000
00010000
00000000
00000000
,
00000000
00000000
00000000
00000000
00000000
00011000
00000000
00000000
,
00000000
00000000
00000000
00000000
00000000
00001000
00000000
00000000
,
00000000
00000000
00000000
00000000
,
00000000
00000000
00000000
00000010
00000000
00000000
00000000
00000010
,
00000000
00000000
00000000
00000000
,
00000000
00000000
00000000
00010000
00000000
00000000
00000000
00010000
,
00000000
00000000
00000000
00000000
00000000
00000000
00000000
00001000
,
00000000
00001000
00000000
00001000
00000000
00000000
00000000
00001000
,
00000000
00000000
00000000
00000000
,
00000000
00000000
00000000
01000000
00000000
00000000
00000000
01000000
,
00000000
00000000
00000000
00000000
00000000
00000000
00000000
00010000
,
00000000
00000000
00000000
00010000
00000000
00000000
00000000
01000000
,
00000000
00000000
00000000
01000000
00000000
00000000
00000000
10000000
,
00000000
00000000
00000000
10000000
00000000
00000000
00000000
00100000
,
00000000
00000000
00000000
00100000
00000000
00000000
00000000
00010000
,
00000000
00001000
00000000
00010000
00000000
00000000
00000000
00001000
,
00000000
00010000
00000000
00001000
00000000
00000000
00000000
00000100
,
00000000
00000000
00000000
00000100
00000000
00000000
00000000
00000001
,
00000000
00000000
00000000
00000001
00000000
00000000
00000000
00001000
,
00000000
00001000
00000000
00001000
00000000
00000000
00000000
00000001
,
00000000
00000000
00000000
00000010
00000000
00000000
00000000
00001000
,
00000000
00000000
00000000
00010000
00000000
00000000
00000000
01000000
,
00000000
00000000
00000000
10000000
00000000
10000000
00000000
00010000
,
00000000
00010000
00000000
00010000
00000000
00000000
00000000
10000000
,
00000000
00000000
00000000
00100000
00000000
00000000
00000000
00010000
,
00000000
00000000
00000000
00001000
00000000
00000000
00000000
00000100
,
00000000
00000000
00000000
00000001
00000000
00000000
00000000
00001000
,
00000000
00000100
00000000
00000001
00000000
00000100
00000000
00001000
,
00000000
00000000
00000000
00010000
00000000
00000000
00000000
00010000
,
00000000
01000000
00000000
10000000
00000000
01000000
00000000
00010000
,
00000000
00000000
00000000
00000000
00000000
00000000
00000000
00001000
,
00000000
01000000
00000000
00001000
00000000
01000000
00000000
00010000
,
00000000
00000100
00000000
00010000
00000000
00000100
00000000
00000000
,
00000000
00010000
00000000
00000000
00001000
00000000
00010000
00000000
,
00000000
00011000
00000000
00000000
00000000
00000000
00000000
00000000
,
00000000
00000000
00000000
00000000
;

//---------------dance-double - ----------------
#NOTES:
     dance-double:
     :
     Medium:
     6:
     0.261,0.333,0.221,0.000,0.000:
00000000
00000000
00000000
00000000
,
00000000
00000000
00000000
00000000
,
00000000
00000000
00000000
00000000
,
00000000
00000000
00000000
00000000
,
00000000
00000000
00000000
00000000
,
00001000
00000000
00010000
00000000
,
01000000
00000000
00001000
00000000
,
00001000
00010000
01000000
00000000
,
00010000
00001000
00000100
00000000
,
00010000
00000000
00001000
00000000
,
00000100
00000000
00010000
00000000
,
00010000
00001000
00000100
00001000
,
00010000
00000000
01000000
00000000
00000000
10000000
00000000
00000000
,
00000000
10000000
00000000
00000000
00000000
00100000
00000000
00000000
,
00000000
00100000
00000000
00010000
00000000
00001000
00000000
00000100
,
00000000
00000000
00000000
00000001
00000000
00000001
00000000
00001000
,
00000000
00001000
00000000
00000000
00000000
00000001
00000000
00000000
,
00000000
00000001
00000000
00000000
00000000
00000010
00000000
00000000
,
00000000
00000010
00000000
00001000
00000000
00010000
00000000
01000000
,
00000000
00000000
00000000
10000000
00000000
00010000
00000000
00000000
,
00000000
10010000
00000000
01000000
00000000
10010000
00000000
00100000
,
00000000
00010000
00000000
00001000
00000000
00000100
00000000
00000001
,
00000000
00000001
00000000
00001000
00000000
00001000
00000000
00000001
,
00000000
00000010
00000000
00001000
00000000
00000010
00000000
00001001
,
00000000
00000100
00000000
00001001
00000000
00000001
00000000
00000010
,
00000000
00001000
00000000
00010000
00000000
01000000
00000000
10000000
,
00000000
10000000
00000000
00010000
00000000
00010000
00000000
10000000
,
00000000
01000000
00000000
00010000
00000000
01000000
00000000
00000000
,
00000000
00001000
00000000
00010000
00000000
00001000
00000000
00000000
,
00000000
00100000
00000000
00000000
00000000
00100000
00000000
00000000
,
00000000
00010000
00000000
00001000
00000000
00010000
00000000
00000000
,
00000000
00000100
00000000
00000000
00000000
00000100
00000000
00001000
,
00000000
00010000
00000000
01000000
00000000
10000000
00000000
00100000
,
00000000
00010000
00000000
00001000
00000000
00000100
00000000
00000001
,
00000000
00000010
00000000
00001000
00000000
00010000
00000000
00001000
,
00000000
00010000
00000000
01000000
00000000
00000000
00000000
00010000
,
00000000
10010000
00000000
01000000
00000000
10010000
00000000
00100000
,
00000000
00010000
00000000
00001000
00000000
00000100
00000000
00000001
,
00000000
00000001
00000000
00001000
00000000
00001000
00000000
00000001
,
00000000
00001000
00000000
00000001
00000000
00001001
00000000
00001000
,
00000000
00001001
00000000
00000100
00000000
00001001
00000000
00000010
,
00000000
00001000
00000000
00010000
00000000
01000000
00000000
10000000
,
00000000
10000000
00000000
00010000
00000000
00010000
00000000
10010000
,
00000000
10100000
00000000
10010000
00000000
00110000
00000000
10010000
,
00000000
01000000
00000000
10010000
00000000
00100000
00000000
00010000
,
00000000
00001000
00000000
00000100
00000000
00010000
00000000
01000000
,
00000000
00001000
00000000
00000100
00000000
00010000
00000000
00010100
,
00000000
00011000
00000000
01001000
00000000
00011000
00000000
00001000
,
00000000
00000100
00000000
00000001
00000000
00000100
00000000
00000001
,
00000100
00001000
00000000
00010000
01000000
10000000
00000000
01100000
,
00000000
10010000
00000000
00000000
10000000
01000000
00010000
00000000
,
00000000
00011000
00000000
00000000
00000000
00000000
00000000
00000000
,
00000000
00000000
00000000
00000000
;

//---------------dance-double - ----------------
#NOTES:
     dance-double:
     :
     Hard:
     10:
     0.383,0.333,0.241,0.120,0.000:
00000000
00000000
00000000
00000000
,
00000000
00000000
00000000
00000000
,
00000000
00000000
00000000
00000000
,
00000000
00000000
00000000
00000000
,
00000000
00000000
00000000
00000000
,
00100000
00000000
10000000
01000000
00010000
00000000
00001000
00000000
,
00010000
00000000
00001000
00000100
00000001
00000000
00001000
00000000
,
00000001
00000000
00000011
00000000
00001000
00000001
00000010
00001000
,
00000000
00011000
00000000
00000000
00000000
00000000
00001000
00000000
,
00000010
00000000
00000001
00000100
00001000
00000000
00010000
00000000
,
00000010
00000000
00001000
00010000
00100000
00000000
10000000
00000000
,
01000000
00000000
00010000
00001000
00000000
00000000
01000000
00010000
,
00000000
00000000
00000000
00000100
00000000
00000010
00000000
00000001
,
00000100
00001000
00000000
00010000
00000000
00000010
00000000
00001000
,
00000100
00000001
00000000
00001000
00000000
00000110
00000000
00001000
,
00010000
00001000
01000000
00000000
00011000
00000000
00000000
00000000
,
00000000
00010000
00000000
01000000
00000000
10000000
00100000
00010000
,
00001000
00100000
00000000
00001000
00000000
00010000
00000100
00000010
,
00000000
00000001
00000000
00000000
00000000
00001100
00000000
00000000
,
00000001
00000010
00000000
00001001
00000000
00000000
00000000
00000010
,
00000000
00001010
00000000
00001000
00000000
00010000
00001000
00000000
,
00000100
00000001
00000000
00000010
00001000
00010000
00000100
00000020
,
00000000
00001030
00000000
00010000
00100000
10000000
01000000
00020000
,
00000000
00031000
00000000
01000000
00010000
00001000
00000000
00100000
,
00000000
00110000
00000000
00010000
00000000
00001000
00010000
00000000
,
01000000
10000000
00000000
00100000
00010000
00001000
01000000
00200000
,
00000000
00310000
00000000
00001000
00000010
00000001
00000100
00002000
,
00000000
00013000
00000000
00000010
00000000
00000100
00000000
00000001
,
00000100
00001000
00010000
00001000
00000100
00000000
00000000
00011000
,
00000000
00000000
00010100
00000000
00010000
00100000
00000000
10000000
,
01000000
00010000
00001000
00010000
01000000
00000000
00000000
00011000
,
00000000
00000000
01001000
00000000
00001000
00000010
00000000
00001000
,
00010000
00100000
00010000
00001000
00000100
00000000
00000000
00001001
,
00000000
00000000
00000110
00000000
00000100
00001000
00000000
00010000
,
00001000
00000010
00001000
00010000
01000000
00000000
00000000
10010000
,
00000000
00000000
01100000
00000000
01000000
00010000
00000000
00100000
,
00000000
00101000
00000000
00010000
00000000
00001000
01000000
00000000
,
00100000
10000000
00000000
00100000
00010000
00001000
01000000
00200000
,
00000000
00310000
00000000
00001000
00000010
00000001
00000100
00002000
,
00000000
00013000
00000000
01001000
00000000
00011000
00000000
00000010
,
00000000
00010010
00000000
00001000
00000000
00010000
00000100
00000000
,
00000010
00000001
00000000
00000010
00001000
00010000
00000100
00000020
,
00000000
00001030
00000000
00010000
00100000
10000000
01000000
00020000
,
00000000
00031000
00000000
00000000
00010000
00010000
00000000
00100000
,
00000000
10100000
00000000
01000000
00000000
00010000
00001000
00000000
,
00000010
00001000
00000000
00100000
00001000
00010000
01000000
00200000
,
00000000
00301000
00000000
00010000
00001000
00000100
00000001
00000020
,
00000000
00001030
00000000
00011000
00000000
00010100
00000000
00000010
,
00000000
00000011
00000000
00000100
00000000
00001000
00010000
00000000
,
00100000
00010000
00000000
00000010
00010000
00001000
00000100
00000020
,
00000000
00010030
00000000
00001000
00010000
01000000
10000000
00200000
,
00000000
00310000
00000000
00000000
00000000
00000000
00000000
00000000
,
00000000
00000000
00000000
00000000
;
