#TITLE:PARANOiA ~HADES~;
#SUBTITLE:;
#ARTIST:αTYPE-300;
#TITLETRANSLIT:;
#SUBTITLETRANSLIT:;
#ARTISTTRANSLIT:;
#CREDIT:;
#BANNER:PARANOiA ~HADES~.png;
#BACKGROUND:PARANOiA ~HADES~-bg.png;
#LYRICSPATH:;
#CDTITLE:./CDTITLES/DanceDanceRevolution SuperNOVA2.png;
#MUSIC:PARANOiA ~HADES~.ogg;
#OFFSET:0.000;
#SAMPLESTART:1.610;
#SAMPLELENGTH:15.000;
#SELECTABLE:YES;
#DISPLAYBPM:75.000:300.000;
#BPMS:0.000=300.000,4.000=300.000,264.000=75.000,272.000=150.000,336.000=300.000;
#STOPS:;
#BGCHANGES:;

//---------------dance-single - ----------------
#NOTES:
     dance-single:
     :
     Beginner:
     7:
     0.280,0.293,0.029,0.000,0.000:
0000
0000
0000
0000
,
0000
0000
0000
0000
,
0000
0000
0000
0000
,
0000
0000
0000
0000
,
0000
0000
0000
0000
,
0000
0000
0000
0000
,
1000
0000
0001
0000
,
0001
0000
1000
0000
,
0001
0000
1000
0000
,
1000
0000
0000
0000
,
1000
0000
1000
0000
,
0010
0000
1000
0000
,
1000
0000
1000
0000
,
0100
0000
0010
0000
,
1000
0000
1000
0000
,
0100
0000
0010
0000
,
1000
0000
1000
0000
,
0010
0000
1000
0000
,
0010
0000
0010
0000
,
0001
0000
1000
0000
,
0001
0000
0010
0000
,
1000
0000
0100
0000
,
0100
0000
0100
0000
,
0001
0000
1000
0000
,
0001
0000
0100
0000
,
1000
0000
0010
0000
,
1000
0000
0001
0000
,
1000
0000
0001
0000
,
1000
0000
0001
0000
,
0110
0000
0001
0000
,
0100
0000
0010
0000
,
0100
0000
0010
0000
,
0100
0000
0010
0000
,
0110
0000
1000
0000
,
1000
0000
0001
0000
,
1000
0000
1000
0000
,
1000
0000
0001
0000
,
1000
0000
0010
0000
,
0001
0000
1000
0000
,
0001
0000
0001
0000
,
0001
0000
1000
0000
,
0001
0000
0100
0000
,
0010
0000
1000
1000
,
0000
0100
0000
0000
,
0010
0000
0001
0001
,
0000
0010
0000
0000
,
0100
0000
1000
1000
,
0000
0001
0000
0000
,
0100
0000
0001
0001
,
0000
1000
0000
0000
,
1000
0000
1000
0000
,
0010
0010
0010
0010
,
0000
0100
0000
1000
,
0000
0010
0010
0010
,
0000
0010
0000
0001
,
0000
1000
1000
1000
,
0000
0010
0000
1000
,
0000
0001
0001
0001
,
0000
1000
0000
0000
,
0010
0000
0010
0000
,
0010
0000
0010
0000
,
0001
0001
0001
0001
,
0000
1000
0000
0000
,
1000
1000
1000
1000
,
0000
0001
0000
0000
,
0100
0000
0100
0000
,
0100
0000
0010
0000
,
1000
0000
0001
0000
,
1000
1000
0000
0100
,
0000
0001
0000
0100
,
0000
1000
0000
0010
,
0000
0001
0000
0010
,
0000
0100
0000
0010
,
0000
0100
0000
0010
,
0000
0100
0000
0010
,
0000
0100
0000
0010
,
0000
0010
0000
0100
,
0100
0000
0100
0100
,
0100
0100
0000
0100
,
0100
0000
0010
0000
,
0010
0000
0100
0000
,
0010
0010
0000
0010
,
0010
0000
0010
0010
,
0010
0000
1000
0000
,
1000
0000
0001
0000
,
1000
0000
0001
0000
,
1000
0000
0001
0000
,
1000
0000
0001
0000
,
0001
0000
1000
0000
,
0001
0000
1000
0000
,
0001
0000
1000
0000
,
0001
0000
1000
0000
,
1000
0000
0001
0000
,
0001
0000
1000
0000
,
0001
0000
1000
0000
,
1000
0000
0001
0000
,
1000
0000
0001
0000
,
0001
0000
1000
0000
,
0001
0000
1000
0000
,
1000
0000
0001
0000
,
0010
0000
0000
1000
,
0000
0000
1001
0000
,
0000
0000
0000
0000
;

//---------------dance-single - ----------------
#NOTES:
     dance-single:
     :
     Easy:
     11:
     0.566,0.748,0.663,0.019,0.000:
0000
0000
0000
0000
,
0000
0000
0000
0000
,
0000
0000
0000
0000
,
0000
0000
0000
0000
,
0000
0000
0000
0000
,
0000
0000
0000
0000
,
1000
0100
0001
0000
,
0001
0000
1000
0000
,
0001
0100
1000
0000
,
1000
0001
0000
0000
,
1000
0100
1000
0001
,
0010
0100
1100
0000
,
1000
0010
1000
0001
,
0100
0010
1010
0000
,
1000
0010
1000
0001
,
0100
0010
1010
0000
,
1000
0100
1000
0001
,
0010
0100
1100
0000
,
0010
0100
0010
1000
,
0001
0000
1000
0100
,
0001
0100
0010
0001
,
1000
0000
0100
0001
,
0100
0010
0100
1000
,
0001
0000
1000
0010
,
0001
0010
0100
0001
,
1000
0000
0010
0001
,
1100
0000
0101
0000
,
1100
0000
0101
0000
,
1100
0000
0101
0000
,
0110
0000
0001
1000
,
0011
0000
1010
0000
,
0011
0000
1010
0000
,
0011
0000
1010
0000
,
0110
0000
1000
0001
,
1000
0100
0001
0100
,
1000
0000
1100
0011
,
1000
0010
0001
0010
,
1000
0000
1010
0101
,
0001
0100
1000
0100
,
0001
0000
0101
1010
,
0001
0010
1000
0010
,
0001
0000
0011
1100
,
0010
0100
1000
1000
,
0100
0011
1001
0000
,
0010
0100
0001
0001
,
0100
1010
1001
0000
,
0100
0010
1000
1000
,
0010
0101
1001
0000
,
0100
0010
0001
0001
,
0010
1100
1001
0000
,
1000
0100
1000
0001
,
0010
0010
0010
0010
,
0001
0100
0001
1000
,
0010
0010
0010
0010
,
1000
0010
1000
0001
,
1000
1000
1000
1000
,
0001
0010
0001
1000
,
0001
0001
0001
0001
,
0100
1000
0100
0000
,
1010
1000
1010
1000
,
0010
0001
0010
0000
,
0101
0001
0101
0001
,
0010
1000
0010
0000
,
1100
1000
1100
1000
,
0100
0001
0100
0000
,
0011
0001
0011
0001
,
0100
1001
0010
1001
,
1000
0110
0001
0110
,
1000
1000
0100
0100
,
0001
0001
0100
0100
,
1000
1000
0010
0010
,
0001
0001
0010
0010
,
1000
0100
0001
0010
,
1000
0100
0001
0010
,
0001
0100
1000
0010
,
0001
0100
1000
0010
,
0100
1010
0101
0100
,
0100
1100
0011
0100
,
0100
0011
1100
0100
,
0100
0101
1010
0100
,
0010
1100
0011
0010
,
0010
1010
0101
0010
,
0010
0101
1010
0010
,
1010
0011
1100
0101
,
1000
0100
0001
0100
,
1000
0100
0001
0100
,
1000
0010
0001
0010
,
1000
0010
0001
1000
,
0001
0100
1000
0100
,
0001
0100
1000
0100
,
0001
0010
1000
0010
,
0001
0010
1000
0001
,
1000
0100
0001
0010
,
0001
0100
1000
0010
,
0001
0100
1000
0010
,
1000
0010
0001
0100
,
1000
0010
0001
0100
,
0001
0010
1000
0100
,
0001
0010
1000
0100
,
1000
0010
0001
0100
,
1010
0011
0000
1100
,
0101
0000
2002
0000
,
0000
0000
0000
0000
,
0000
0000
0000
3003
,
0000
0000
0000
0000
;

//---------------dance-single - ----------------
#NOTES:
     dance-single:
     :
     Medium:
     15:
     0.787,0.998,1.000,0.019,0.135:
0000
0000
0000
0000
,
0000
0000
0000
0000
,
0000
0000
0000
0000
,
0000
0000
0000
0000
,
0000
0000
0000
0000
,
0000
0000
0000
0000
,
1000
0001
0100
0010
,
1100
0000
1001
0000
,
0001
1000
0100
0010
,
0101
0000
1001
0000
,
0100
1100
0100
0101
,
0010
0001
0010
0000
0100
0000
1100
0000
,
0010
0011
0010
1010
,
0100
1000
0100
0000
0010
0000
0011
0000
,
0100
0101
0100
1100
,
0010
1000
0010
0000
0100
0000
0101
0000
,
0010
1010
0010
0011
,
0100
0001
0100
0000
0010
1000
0010
0000
,
1000
1100
1000
1001
,
1000
0000
1010
0000
1000
0001
1000
0000
,
0010
1000
0010
0000
0001
0000
0110
0000
,
1100
0101
0011
1010
,
0001
0101
0001
1001
,
0001
0000
0011
0000
0001
1000
0001
0000
,
0010
0001
0010
0000
1000
0000
0110
0000
,
0101
1100
1010
0011
,
0100
0000
0000
0010
1000
0000
0000
0010
,
0001
0000
0000
0010
1000
0000
0000
0000
,
0010
0000
0000
0100
1000
0000
0000
0100
,
0001
0000
0000
0100
1000
0000
0010
0000
,
0100
0000
0000
0010
0001
0000
0000
0010
,
1000
0000
0000
0010
0001
0000
0000
0000
,
0010
0000
0000
0100
0001
0000
0000
0100
,
1000
0000
0000
0100
0001
0000
0010
0000
,
0100
1000
0100
0000
0101
0000
0010
0000
,
1100
0000
0000
0001
0100
0000
1010
0000
,
0100
0001
0100
0000
1100
0000
0010
0000
,
0101
0000
0000
1000
0100
0000
0011
0000
,
0010
1000
0010
0000
0011
0000
0100
0000
,
1010
0000
0000
0001
0010
0000
1100
0000
,
0010
0001
0010
0000
1010
0000
0100
0000
,
0011
0000
0000
1000
0010
0000
0101
0000
,
1010
0000
1100
0000
0001
0010
0001
0000
,
1010
0100
1001
0000
,
0011
0000
0101
0000
1000
0010
1000
0000
,
0011
0100
1001
0000
,
1100
0000
1010
0000
0001
0100
0001
0000
,
1100
0010
1001
0000
,
0101
0000
0011
0000
1000
0100
1000
0000
,
0101
0010
1001
0000
,
1100
0101
1100
0001
,
0010
1000
0100
0000
0011
0000
0000
0000
,
0101
1100
0101
1000
,
0010
0001
0100
0000
1010
0000
0000
0000
,
1010
0011
1010
0001
,
0100
1000
0010
0000
0101
0000
0000
0000
,
0011
1010
0011
1000
,
0100
0001
0010
0000
1100
0000
0000
0000
,
1100
0101
0011
0000
,
1000
0010
1000
0000
1100
0000
0110
0000
,
0101
1100
1010
0000
,
0001
0010
0001
0000
0101
0000
0110
0000
,
1010
0011
0101
0000
,
1000
0100
1000
0000
1010
0000
0110
0000
,
0011
1010
1100
0000
,
0001
0100
0001
0000
1000
0100
1000
0000
,
0101
0000
1000
1000
0101
0000
1000
1000
,
1100
0000
0001
0001
1100
0000
0001
0001
,
0100
0000
1000
0100
0000
0000
0010
0000
0001
0100
0000
1000
,
0100
0000
0001
0010
0000
0000
0100
0000
1000
0010
0000
0001
,
0010
0000
1000
0010
0000
0000
0100
0000
0001
0010
0000
1000
,
0010
0000
0001
0100
0000
0000
0010
0000
1000
0100
0000
0001
,
1000
0000
1000
0100
0000
0100
0001
0000
0001
0100
0000
0100
,
1000
0000
1000
0010
0000
0010
0001
0000
0001
0010
0000
0010
,
1000
0000
1000
0100
0000
0100
0001
0000
0001
0010
0000
0010
,
1000
0000
1000
0100
0000
0100
0001
0000
0001
0010
0000
0010
,
1000
0100
1000
0010
1000
0100
0001
0100
,
1000
0010
1000
0100
1000
0010
0001
0100
,
0001
0100
0001
0010
0001
0100
1000
0100
,
0001
0010
0001
0100
0001
0010
1000
0100
,
0011
0000
1001
1100
0010
0100
0001
0000
,
1010
0000
1001
0101
0010
0100
1000
0000
,
0101
0000
1001
1010
0100
0010
0001
0000
,
1100
0000
1001
0011
0100
0010
1000
0000
,
0001
0100
1000
0100
,
0001
0000
0100
0000
0001
0010
0001
0000
,
1000
0100
0001
0100
,
1000
0000
0100
0000
1000
0010
1000
0000
,
0001
0010
1000
0010
,
0001
0000
0010
0000
0001
0100
0001
0000
,
1000
0010
0001
0010
,
1000
0000
0010
0000
1000
0100
1000
0000
,
0001
0100
1000
0010
,
0001
0000
0100
1000
0100
0000
0001
0010
,
1000
0100
0001
0010
,
1000
0000
0100
0001
0100
0000
1000
0010
,
0001
0010
1000
0100
,
0001
0000
0010
1000
0010
0000
0001
0100
,
1000
0010
0001
0100
,
1000
0000
0010
0001
0010
0000
1000
0100
,
0011
1100
0000
0101
,
1010
0000
2002
0000
,
0000
0000
0000
0000
,
0000
0000
0000
3003
,
0000
0000
0000
0000
;

//---------------dance-single - ----------------
#NOTES:
     dance-single:
     :
     Hard:
     16:
     0.837,1.000,0.817,0.019,0.221:
0000
0000
0000
0000
,
0000
0000
0000
0000
,
0000
0000
0000
0000
,
0000
0000
0000
0000
,
0000
0000
0000
0000
,
0000
0000
0000
0000
,
1000
0100
1000
0000
0001
0100
0001
0000
,
1010
0100
1001
0100
,
0001
0010
0001
0000
1000
0010
1000
0000
,
0101
0010
1001
0010
,
0100
1000
0100
0000
0010
0000
0011
0000
,
0100
1000
0010
0001
0010
0000
1100
0000
,
0010
0001
0010
0000
0100
0000
1100
0000
,
0010
0001
0100
1000
0100
0000
0011
0000
,
0100
0001
0100
0000
0010
0000
1010
0000
,
0100
0001
0010
1000
0010
0000
1100
0000
,
0010
1000
0010
0000
0100
0000
1100
0000
,
0010
1000
0100
0001
0100
0000
0011
0000
,
1010
0100
0011
0100
,
0010
0000
0101
0000
0010
1000
0001
0000
,
0011
0100
1010
0100
,
0010
0000
1100
0000
0010
0001
1000
0000
,
1100
0010
0101
0010
,
0100
0000
0011
0000
0100
1000
0001
0000
,
0101
0010
1100
0010
,
0100
1000
0010
0000
0100
0001
1000
0000
,
0010
0000
0000
0001
0100
0000
0000
1000
,
0100
0000
0000
0001
0010
0000
0000
1000
,
0010
0000
0000
0100
0001
0000
0000
0100
,
1000
0000
0000
0010
0001
0000
1001
0000
,
0100
0000
0000
1000
0010
0000
0000
0001
,
0010
0000
0000
1000
0100
0000
0000
0001
,
0100
0000
0000
0010
1000
0000
0000
0010
,
0001
0000
0000
0100
1000
0000
1001
0000
,
0010
1000
0100
0000
0001
0000
0101
0000
,
0100
0000
0000
0010
1000
0000
1100
0000
,
0010
0001
0100
0000
1000
0000
1100
0000
,
0100
0000
0000
0010
0001
0000
0101
0000
,
0100
1000
0010
0000
0001
0000
0011
0000
,
0010
0000
0000
0100
1000
0000
1010
0000
,
0100
0001
0010
0000
1000
0000
1010
0000
,
0010
0000
1000
0000
0010
0001
0010
0000
,
0101
0000
0011
0000
0100
1000
0100
0000
,
1010
0100
0011
0000
,
1100
0000
1010
0000
0100
0001
0100
0000
,
0011
0100
1100
0000
,
0011
0000
0101
0000
0010
1000
0010
0000
,
1100
0010
0101
0000
,
1010
0000
1100
0000
0010
0001
0010
0000
,
0101
0010
1100
0000
,
0011
0100
1010
0100
,
0010
0001
0010
0000
0010
1000
0010
0000
,
0101
0010
1100
0010
,
0100
0001
0100
0000
0100
1000
0100
0000
,
0101
0010
1100
0010
,
0100
1000
0100
0000
0100
0001
0100
0000
,
0011
0100
1010
0100
,
0010
1000
0010
0000
0010
0001
0010
0000
,
0101
0110
1010
0000
,
1000
0010
0100
0001
0100
0010
1000
0000
,
1010
0110
0101
0000
,
0001
0100
0010
1000
0010
0100
0001
0000
,
0011
0110
1100
0000
,
1000
0100
0010
0001
0010
0100
1000
0000
,
1100
0110
0011
0000
,
0001
0010
0100
1000
0100
0010
0001
1000
,
0110
0000
0000
0000
0001
0100
1000
0100
0110
0000
0000
0000
1000
0010
0001
0010
,
0110
0000
0000
0000
1000
0010
0001
0010
0110
0000
0000
0000
0001
0100
1000
0100
,
1000
0100
0001
0100
0000
0000
0010
0000
1000
0100
0000
0001
,
1000
0010
0001
0010
0000
0000
0100
0000
0001
0010
0000
1000
,
0010
1000
0010
0001
0000
0000
0100
0000
1000
0010
0000
0001
,
0100
1000
0100
0001
0000
0000
0010
0000
0001
0100
0000
1000
,
0001
0000
0001
0100
0000
0100
1000
0000
1000
0100
0000
0100
,
0001
0000
0001
0010
0000
0010
1000
0000
1000
0010
0000
0010
,
0001
0000
0001
0100
0000
0100
1000
0000
1000
0010
0000
0010
,
0001
0000
0001
0100
0000
0100
1000
0000
1000
0010
0000
0010
,
0001
0100
0001
0010
0001
0100
1000
0100
,
0010
0000
1000
0001
0010
0000
0001
1000
0100
0000
1000
0001
0100
0000
0010
0000
,
1000
0100
1000
0010
1000
0100
0001
0100
,
0010
0000
0001
1000
0010
0000
1000
0001
0100
0000
0001
1000
0100
0000
0010
0000
,
1010
0000
0001
0100
0010
1000
0011
0000
,
0101
0000
1000
0010
0100
0001
1100
0000
,
0011
0000
1000
0100
0010
0001
1010
0000
,
1100
0000
0001
0010
0100
1000
0101
0000
,
1000
0100
0001
0100
,
0010
1000
0010
0001
0100
0010
1000
0000
,
0001
0100
1000
0100
,
0010
0001
0010
1000
0100
0010
0001
0000
,
1000
0010
0001
0010
,
0100
1000
0100
0001
0010
0100
1000
0000
,
0001
0010
1000
0010
,
0100
0001
0100
1000
0010
0100
0001
0000
,
1000
0100
0001
0010
,
0100
0001
0100
1000
0010
0100
0001
0000
,
1000
0010
0001
0100
,
0010
0001
0010
1000
0100
0010
0001
0000
,
0001
0100
1000
0010
,
0100
1000
0100
0001
0010
0100
1000
0000
,
0001
0010
1000
0100
,
0010
1000
0010
0001
0100
0010
1000
0000
,
1100
0011
0000
0101
,
1010
0000
2002
0000
,
0000
0000
0000
0000
,
0000
0000
0000
3003
,
0000
0000
0000
0000
;

//---------------dance-single - ----------------
#NOTES:
     dance-single:
     :
     Challenge:
     18:
     1.000,1.000,0.683,0.019,0.481:
0000
0000
0000
0000
,
0000
0000
0000
0000
,
0000
0000
0000
0000
,
0000
0000
0000
0000
,
0000
0000
0000
0000
,
0000
0000
0000
0000
,
0010
1000
0100
0000
0010
0001
0100
0000
,
1000
0100
0010
0001
0100
0000
1010
0000
,
0100
0001
0010
0000
0100
1000
0010
0000
,
0001
0010
0100
1000
0010
0000
0101
0000
,
0010
1000
0010
0000
0100
0001
0100
0000
,
0010
1000
0100
0001
0100
1000
0010
0000
,
0100
0001
0100
0000
0010
1000
0010
0000
,
0100
0001
0010
1000
0010
0001
0100
0000
,
0010
0001
0010
0000
0100
1000
0100
0000
,
0010
0001
0100
1000
0100
0001
0010
0000
,
0100
1000
0100
0000
0010
0001
0010
0000
,
0100
1000
0010
0001
0010
1000
0100
0000
,
0010
0001
0100
0000
0010
0000
0101
0000
,
0010
0000
1100
0000
0010
0001
1000
0000
,
0010
1000
0100
0000
0010
0000
1100
0000
,
0010
0000
0101
0000
0010
1000
0001
0000
,
0100
0001
0010
0000
0100
0000
0011
0000
,
0100
0000
1010
0000
0100
0001
1000
0000
,
0100
1000
0010
0000
0100
0000
1010
0000
,
0100
0001
0010
0000
0100
1000
0001
0000
,
0010
0000
0000
1000
0100
0000
0000
0001
,
0100
0000
0000
1000
0010
0000
0000
0001
,
0010
0000
0000
0100
1000
0000
0000
0100
,
0001
0000
0000
0010
1000
0010
0001
0010
,
0100
0000
0000
0001
0010
0000
0000
1000
,
0010
0000
0000
0001
0100
0000
0000
1000
,
0100
0000
0000
0010
0001
0000
0000
0010
,
1000
0000
0000
0100
0001
0100
1000
0100
,
0010
0001
0100
0010
1000
0000
1100
0000
,
0100
0000
0000
0010
0001
0000
0101
0000
,
0010
1000
0100
0010
0001
0000
0101
0000
,
0100
0000
0000
0010
1000
0000
1100
0000
,
0100
0001
0010
0100
1000
0000
1010
0000
,
0010
0000
0000
0100
0001
0000
0011
0000
,
0100
1000
0010
0100
0001
0000
0011
0000
,
0010
0001
1000
0100
0010
1000
0010
0001
,
1100
0000
1010
0000
0100
0001
0100
1000
,
0011
0100
1010
0000
,
0101
0000
0011
0000
0100
1000
0100
0001
,
1010
0100
0101
0000
,
1010
0000
1100
0000
0010
0001
0010
1000
,
0101
0010
1100
0000
,
0011
0000
0101
0000
0010
1000
0010
0001
,
1100
0010
0101
0000
,
1010
0100
0011
0100
,
0010
1000
0010
0001
0010
1000
0010
0001
,
1100
0010
0101
0010
,
0100
1000
0100
0001
0100
1000
0100
0001
,
1100
0010
0101
0010
,
0100
1000
0100
0001
0100
1000
0100
0001
,
1010
0100
0011
0100
,
0010
1000
0010
0001
0010
1000
0010
0001
,
1100
0110
0011
0000
,
0001
0010
0100
1000
0100
0010
0001
1000
,
0011
0110
1100
0000
,
1000
0100
0010
0001
0010
0100
1000
0001
,
1010
0110
0101
0000
,
0001
0100
0010
1000
0010
0100
0001
1000
,
0101
0110
1010
0000
,
1000
0010
0100
0001
0100
0010
1000
0001
,
0110
0000
0000
0000
0100
0000
0000
0000
0010
1000
0100
1000
0001
0010
0100
1000
0110
0000
0000
0000
0010
0000
0000
0000
0100
0001
0010
0001
1000
0100
0010
0001
,
0110
0000
0000
0000
0100
0000
0000
0000
0010
0001
0100
0001
1000
0010
0100
0001
0110
0000
0000
0000
0010
0000
0000
0000
0100
1000
0010
1000
0001
0100
0010
1000
,
0001
0100
1000
0100
0000
0000
0010
0001
0010
1000
0010
1000
,
0001
0010
1000
0010
0000
0000
0100
0001
0100
1000
0100
1000
,
0010
0001
0010
1000
0000
0000
0100
0001
0100
1000
0100
0010
,
0100
0001
0100
1000
0000
0000
0010
0001
0010
1000
0010
0100
,
0010
1000
0100
0100
1000
0010
0100
0001
0010
0010
0001
0100
,
0001
0100
1000
1000
0100
0001
0001
0010
1000
1000
0010
0001
,
1000
1000
1000
0100
0100
0100
0001
0001
0001
0010
0010
0010
,
0001
0001
0001
0100
0100
0100
1000
1000
1000
0010
0010
0010
,
0100
0000
0001
1000
0010
0000
1000
0001
0100
0000
0001
1000
0010
0000
1000
0001
,
0100
0000
1000
0001
0010
0000
0001
1000
0100
0000
1000
0001
0010
0000
0001
1000
,
0001
0000
0100
0010
1000
0000
0010
0100
0001
0000
0100
0010
1000
0000
0010
0100
,
0001
0000
0100
0010
1000
0000
0010
0100
0001
0000
0100
0010
1000
0000
0010
0100
,
0011
0000
0000
0000
1000
0000
0100
0000
0010
0000
0001
0100
1010
0000
0000
0000
,
1100
0000
0000
0000
0001
0000
0010
0000
0100
0000
1000
0010
0101
0000
0000
0000
,
1010
0000
0000
0000
0001
0000
0100
0000
0010
0000
1000
0100
0011
0000
0000
0000
,
0101
0000
0000
0000
1000
0000
0010
0000
0100
0000
0001
0010
1100
0000
0000
0000
,
0001
0100
1000
0100
0001
0010
0100
1000
,
0010
0001
0010
1000
0100
0010
0001
1000
,
0100
0001
0100
1000
0010
1000
0100
0001
,
0100
1000
0010
0001
0010
1000
0100
0010
,
0001
0010
1000
0010
0001
0100
0010
1000
,
0100
0001
0100
1000
0010
0100
0001
1000
,
0010
0001
0010
1000
0100
1000
0010
0001
,
0010
1000
0100
0001
0100
1000
0110
0010
,
1000
0100
0001
0100
1000
0010
0100
0001
,
0010
1000
0010
0001
0100
0010
1000
0001
,
0100
1000
0100
0001
0010
0001
0100
1000
,
0100
0001
0010
1000
0010
0001
0100
0010
,
1000
0010
0001
0010
1000
0100
0010
0001
,
0100
1000
0100
0001
0010
0100
1000
0001
,
0010
1000
0010
0001
0100
0001
0010
1000
,
0010
0001
0100
1000
0100
0001
0110
0010
,
0101
1010
0000
1100
,
0011
0000
2002
0000
,
0000
0000
0000
0000
,
0000
0000
0000
3003
,
0000
0000
0000
0000
;

//---------------dance-double - ----------------
#NOTES:
     dance-double:
     :
     Easy:
     12:
     0.563,0.648,0.644,0.019,0.000:
00000000
00000000
00000000
00000000
,
00000000
00000000
00000000
00000000
,
00000000
00000000
00000000
00000000
,
00000000
00000000
00000000
00000000
,
00000000
00000000
00000000
00000000
,
00000000
00000000
00000000
00000000
,
00010000
00001000
00000100
00000000
,
00001000
00000000
00011000
00000000
,
00010000
01000000
10000000
00000000
,
00010000
00000000
01100000
00000000
,
10000000
01000000
00010000
00001000
,
00010000
00000100
00000110
00000000
,
00000001
00000100
00001000
00010000
,
00001000
01000000
01100000
00000000
,
10000000
00100000
00010000
00001000
,
00010000
00000010
00000110
00000000
,
00000001
00000010
00001000
00010000
,
00001000
00100000
01100000
00000000
,
10010000
01000000
01100000
00010000
,
00001000
00000000
00000100
00000001
,
00000100
00001000
00010000
00100000
,
00010000
00000000
00000100
00000110
,
00001001
00000100
00000110
00001000
,
00010000
00000000
01000000
10000000
,
01000000
00010000
00001000
00000010
,
00001000
00000000
01000000
01100000
,
11000000
00000000
01010000
00000000
,
00011000
00000000
00001010
00000000
,
00000011
00000000
00000101
00000000
,
00001100
00000000
00000010
00001000
,
00000101
00000000
00001100
00000000
,
00011000
00000000
00110000
00000000
,
10100000
00000000
11000000
00000000
,
01010000
00000000
00100000
00010000
,
10000000
01000000
00010000
00001000
,
00000010
00000000
00000100
00000100
,
00000001
00000100
00001000
00010000
,
00100000
00000000
01000000
01000000
,
10000000
00100000
00010000
00001000
,
00000100
00000000
00000010
00000010
,
00000001
00000010
00001000
00010000
,
01000000
00000000
00100000
00100000
,
10000000
01000000
00010000
01000000
,
00010000
00001000
00000110
00000000
,
00000001
00000010
00001000
00000010
,
00001000
00010000
01100000
00000000
,
10000000
00100000
00010000
00100000
,
00010000
00001000
00000110
00000000
,
00000001
00000100
00001000
00000100
,
00001000
00010000
01100000
00000000
,
10000000
01000000
00100000
00001000
,
00010000
00000100
00000010
00000010
,
00000001
00000100
00000010
00010000
,
00001000
01000000
00100000
00100000
,
10000000
00100000
01000000
00001000
,
00010000
00000010
00000100
00000100
,
00000001
00000010
00000100
00010000
,
00001000
00100000
01000000
01000000
,
11000000
00101000
00011000
00000000
,
00000100
00000100
00000001
00000001
,
00000101
00010010
00011000
00000000
,
01000000
01000000
10000000
10000000
,
10100000
01001000
00011000
00000000
,
00000010
00000010
00000001
00000001
,
00000011
00010100
00011000
00000000
,
00100000
00100000
10000000
10000000
,
01100000
00010000
00011000
00001000
,
00000110
00001000
00011000
00010000
,
00100000
10000000
00100000
00010000
,
00001000
00000100
00000001
00001000
,
00000010
00000001
00000010
00001000
,
00010000
01000000
10000000
00010000
,
10000000
10000000
01000000
01000000
,
00010000
00010000
00001000
00001000
,
00000100
00000100
00001000
00001000
,
00010000
00010000
00100000
00100000
,
10000000
00110000
11000000
00010000
,
00001000
00000110
00001001
00000100
,
00000001
00001010
00000101
00001000
,
00010000
01100000
10010000
01000000
,
10000000
01010000
10100000
00010000
,
00001000
00000110
00001001
00000010
,
00000001
00001100
00000011
00001000
,
00010000
01100000
10010000
00100000
,
10000000
01000000
00010000
00001000
,
00000010
00000001
00000001
00000001
,
00000010
00001000
00010000
01000000
,
10000000
00100000
00100000
00100000
,
10000000
00100000
00010000
00001000
,
00000100
00000001
00000001
00000001
,
00000100
00001000
00010000
00100000
,
10000000
01000000
01000000
01000000
,
10000000
00100000
00010000
00001000
,
00010000
00000100
00000010
00000010
,
00000001
00000010
00001000
00010000
,
00001000
01000000
00100000
00100000
,
10000000
01000000
00010000
00001000
,
00010000
00000010
00000100
00000100
,
00000001
00000100
00001000
00010000
,
00001000
00100000
01000000
01000000
,
10100000
01001000
00000000
00010010
,
00000101
00000000
00002002
00000000
,
00000000
00000000
00000000
00000000
,
00000000
00000000
00000000
00003003
,
00000000
00000000
00000000
00000000
;

//---------------dance-double - ----------------
#NOTES:
     dance-double:
     :
     Medium:
     15:
     0.721,0.898,0.625,0.019,0.135:
00000000
00000000
00000000
00000000
,
00000000
00000000
00000000
00000000
,
00000000
00000000
00000000
00000000
,
00000000
00000000
00000000
00000000
,
00000000
00000000
00000000
00000000
,
00000000
00000000
00000000
00000000
,
00100000
00010000
00100000
10000000
,
00100000
00000000
00010000
00000000
00001000
00000100
00000001
00000000
,
00000010
00001000
00000010
00000001
,
00000010
00000000
00001000
00000000
00010000
01000000
10000000
00000000
,
00100000
10000000
01000000
00010000
,
00001000
00000010
00001000
00000000
00000010
00000000
00000101
00000000
,
00000010
00000001
00000100
00001000
,
00010000
00100000
00010000
00000000
00100000
00000000
11000000
00000000
,
01000000
10000000
00100000
00010000
,
00001000
00000100
00001000
00000000
00000100
00000000
00000011
00000000
,
00000100
00000001
00000010
00001000
,
00010000
01000000
00010000
00000000
01000000
00000000
10100000
00000000
,
10010000
01000000
01100000
10000000
,
01000000
00000000
00010000
00000000
00001000
00010000
00000100
00000000
,
00000010
00000001
00001000
00000000
00000101
00000000
00000110
00000000
,
00010000
00000100
00000010
00000001
,
00001001
00000100
00000110
00000001
,
00000100
00000000
00001000
00000000
00010000
00001000
01000000
00000000
,
00100000
10000000
00010000
00000000
11000000
00000000
01100000
00000000
,
00001000
01000000
00100000
10000000
,
01000000
00000000
00000000
00100000
00001000
00000000
00000000
00010000
,
00000100
00000000
00000000
00000010
00000001
00000000
00000000
00000000
,
00000100
00000000
00000000
00000010
00010000
00000000
00000000
00001000
,
01000000
00000000
00000000
00100000
10000000
00000000
00000000
00000000
,
00100000
00000000
00000000
01000000
00001000
00000000
00000000
00010000
,
00000010
00000000
00000000
00000100
00000001
00000000
00000000
00000000
,
00000010
00000000
00000000
00000100
00010000
00000000
00000000
00001000
,
00100000
00000000
00000000
01000000
10000000
00000000
00010000
00000000
,
10000000
01000000
10000000
00000000
01000000
00000000
00010000
00000000
,
00011000
00000000
00000000
00000100
00000010
00000000
00001001
00000000
,
00000001
00000100
00000001
00000000
00000100
00000000
00001000
00000000
,
00011000
00000000
00000000
01000000
00100000
00000000
10010000
00000000
,
10000000
00100000
10000000
00000000
00100000
00000000
00010000
00000000
,
00011000
00000000
00000000
00000010
00000100
00000000
00001001
00000000
,
00000001
00000010
00000001
00000000
00000010
00000000
00001000
00000000
,
00011000
00000000
00000000
00100000
01000000
00000000
10010000
00000000
,
11000000
00000000
01100000
00000000
10000000
01000000
00010000
00000000
,
00011000
00000110
00001001
00000000
,
00000101
00000000
00000110
00000000
00000001
00000100
00001000
00000000
,
00011000
01100000
10010000
00000000
,
10100000
00000000
01100000
00000000
10000000
00100000
00010000
00000000
,
00011000
00000110
00001001
00000000
,
00000011
00000000
00000110
00000000
00000001
00000010
00001000
00000000
,
00011000
01100000
10010000
00000000
,
10000000
01000000
00010000
00001000
,
00000010
00000100
00000010
00000000
00001000
00000000
00000000
00000000
,
00000001
00000010
00001000
00010000
,
01000000
00100000
01000000
00000000
00010000
00000000
00000000
00000000
,
10000000
00100000
00010000
00001000
,
00000100
00000010
00000100
00000000
00001000
00000000
00000000
00000000
,
00000001
00000100
00001000
00010000
,
00100000
01000000
00100000
00000000
00010000
00000000
00000000
00000000
,
10010000
01000000
00101000
00000000
,
00010000
00000100
00001000
00000000
00000010
00000000
00000010
00000000
,
00001001
00000100
00010010
00000000
,
00001000
01000000
00010000
00000000
00100000
00000000
00100000
00000000
,
10010000
00100000
01001000
00000000
,
00010000
00000010
00001000
00000000
00000100
00000000
00000100
00000000
,
00001001
00000010
00010100
00000000
,
00001000
00100000
00010000
00000000
01000000
00000000
01000000
00000000
,
10010000
00000000
01000000
01000000
01100000
00000000
00010000
00010000
,
00011000
00000000
00001000
00001000
00000110
00000000
00000010
00000010
,
00000001
00000000
00000001
00000100
00000000
00000000
00001000
00000000
00001000
00010000
00000000
00010000
,
00100000
00000000
00100000
10000000
00000000
00000000
01000000
00000000
01000000
00100000
00000000
00010000
,
10000000
00000000
10000000
01000000
00000000
00000000
00010000
00000000
00010000
00001000
00000000
00001000
,
00000010
00000000
00000010
00000001
00000000
00000000
00000100
00000000
00000100
00000010
00000000
00001000
,
00000001
00000000
00000001
00000100
00000000
00000100
00001000
00000000
00001000
00010000
00000000
00010000
,
00100000
00000000
00100000
10000000
00000000
10000000
01000000
00000000
01000000
00100000
00000000
00010000
,
10000000
00000000
10000000
01000000
00000000
01000000
00010000
00000000
00010000
00001000
00000000
00001000
,
00000010
00000000
00000010
00000001
00000000
00000001
00000100
00000000
00000100
00000010
00000000
00001000
,
00000001
00000100
00001000
00000100
00001000
00010000
00100000
10000000
,
00100000
00010000
00001000
00000100
00001000
00010000
01000000
00100000
,
10000000
01000000
00010000
01000000
00010000
00001000
00000010
00000001
,
00000010
00001000
00010000
01000000
00010000
00001000
00000100
00000010
,
00001001
00000000
00000100
00001000
00010000
00100000
01100000
00000000
,
10010000
00000000
01000000
00010000
00001000
00000010
00000110
00000000
,
00001001
00000000
00000010
00001000
00010000
01000000
01100000
00000000
,
10010000
00000000
00100000
00010000
00001000
00000100
00000110
00000000
,
00000001
00000100
00001000
00010000
,
00100000
00000000
10000000
00000000
01000000
00100000
01000000
00000000
,
10000000
00100000
00010000
00001000
,
00000100
00000000
00000001
00000000
00000010
00000100
00000010
00000000
,
00000001
00000100
00001000
00010000
,
00100000
00000000
10000000
00000000
01000000
00100000
01000000
00000000
,
10000000
00100000
00010000
00001000
,
00000100
00000000
00000001
00000000
00000010
00000100
00000010
00000000
,
00000001
00000100
00000010
00010000
,
00001000
00000000
01000000
00100000
10000000
00000000
01000000
00100000
,
00001000
00010000
00000100
00000010
,
00001000
00000000
00010000
01000000
00100000
00000000
00010000
00000000
,
10000000
01000000
00100000
00001000
,
00010000
00000000
00000100
00000010
00000001
00000000
00000100
00000010
,
00010000
00001000
01000000
00100000
,
00010000
00000000
00001000
00000100
00000010
00000000
00001000
00000000
,
00000011
00001001
00000000
00010100
,
00101000
00000000
20020000
00000000
,
00000000
00000000
00000000
00000000
,
00000000
00000000
00000000
30030000
,
00000000
00000000
00000000
00000000
;

//---------------dance-double - ----------------
#NOTES:
     dance-double:
     :
     Hard:
     17:
     0.809,1.000,0.663,0.019,0.216:
00000000
00000000
00000000
00000000
,
00000000
00000000
00000000
00000000
,
00000000
00000000
00000000
00000000
,
00000000
00000000
00000000
00000000
,
00000000
00000000
00000000
00000000
,
00000000
00000000
00000000
00000000
,
00100000
10000000
01000000
00000000
00101000
00000000
00010000
00000000
,
00001000
00000000
00000100
00000000
00000010
00001000
00000100
00000000
,
00000010
00000001
00000100
00000000
00010010
00000000
00001000
00000000
,
00010000
00000000
01000000
00000000
00100000
00010000
01000000
00000000
,
00100000
10000000
01000000
00010000
,
00001000
00000010
00001000
00000000
00000010
00000000
00000101
00000000
,
00000100
00000001
00000100
00000000
00000001
00000010
00000001
00000000
,
00000010
00001000
00010000
00001000
00010000
00100000
10000000
00000000
,
01000000
10000000
01000000
00000000
10000000
00100000
10000000
00000000
,
01000000
10000000
00100000
00010000
,
00001000
00000100
00001000
00000000
00000100
00000000
00000011
00000000
,
00000100
00001000
00010000
00001000
00010000
01000000
10000000
00000000
,
00100000
00010000
00001000
00000000
00010000
00000000
00010100
00000000
,
00001000
00000000
00010010
00000000
00000100
00001000
00000001
00000000
,
00000010
00001000
00010000
00000000
00001000
00000000
01001000
00000000
,
00010000
00000000
00101000
00000000
01000000
00010000
10000000
00000000
,
01000000
00010000
00001000
00000000
00010000
00000000
00010010
00000000
,
00001000
00000000
00010100
00000000
00000010
00001000
00000001
00000000
,
00000100
00001000
00010000
00000000
00001000
00000000
00101000
00000000
,
00010000
00000000
01001000
00000000
00100000
00010000
10000000
00000000
,
01000000
00000000
00000000
10000000
00100000
00000000
00000000
00100000
,
00010000
00000000
00000000
00010000
00001000
00000000
00000000
00001000
,
00000010
00000000
00000000
00000010
00000001
00000000
00000000
00000001
,
00000100
00000000
00000000
00000010
00001000
00000000
00000011
00000000
,
00000010
00000000
00000000
00000001
00000100
00000000
00000000
00000100
,
00001000
00000000
00000000
00001000
00010000
00000000
00000000
00010000
,
01000000
00000000
00000000
01000000
10000000
00000000
00000000
10000000
,
00100000
00000000
00000000
01000000
00010000
00000000
11000000
00000000
,
10000000
00100000
10000000
00000000
00100000
00000000
00010000
00000000
,
00011000
00000000
00000000
00000010
00000100
00000000
00001001
00000000
,
00000100
00001000
00000100
00000010
00010000
00000000
00001000
00000000
,
00010000
00000000
00000000
01000000
00100000
00000000
10010000
00000000
,
10000000
01000000
10000000
00000000
01000000
00000000
00010000
00000000
,
00011000
00000000
00000000
00000100
00000010
00000000
00001001
00000000
,
00000010
00001000
00000010
00000100
00010000
00000000
00001000
00000000
,
00010000
00000000
00000000
00100000
01000000
00000000
10010000
00000000
,
11000000
00000000
00110000
00000000
10000000
01000000
00010000
00000000
,
00001000
00001100
00001001
00000000
,
00000101
00000000
00001010
00000000
00000001
00000100
00001000
00000000
,
00010000
01010000
10010000
00000000
,
10100000
00000000
01010000
00000000
10000000
00100000
00010000
00000000
,
00001000
00001010
00001001
00000000
,
00000011
00000000
00001100
00000000
00000001
00000010
00001000
00000000
,
00010000
00110000
10010000
00000000
,
01000000
00010000
00001000
00000010
,
00000001
00000100
00000010
00010000
00001000
00000000
00000000
00100000
,
01000000
10000000
00100000
10000000
,
01000000
00010000
00001000
00000010
00000001
00000000
00000100
00000000
,
00000010
00001000
00010000
01000000
,
10000000
00100000
01000000
00001000
00010000
00000000
00000000
00000100
,
00000010
00000001
00000100
00000001
,
00000010
00001000
00010000
01000000
10000000
00000000
00100000
00000000
,
10010000
01000000
00101000
00000000
,
00001000
00010000
01000000
00010000
00001000
00000000
00000011
00000000
,
00001001
00000100
00010010
00000000
,
00010000
00001000
00000100
00001000
00010000
00000000
10100000
00000000
,
10010000
00100000
01001000
00000000
,
00001000
00010000
00100000
00010000
00001000
00000000
00000101
00000000
,
00001001
00000010
00010100
00000000
,
00010000
00001000
00000010
00001000
00010000
00000000
11000000
00000000
,
01100000
00000000
00000000
00000000
10000000
01000000
00010000
00001000
00000110
00000000
00000000
00000000
00000001
00000100
00001000
00010000
,
01100000
00000000
00000000
00000000
10000000
00100000
00010000
00001000
00000110
00000000
00000000
00000000
00000001
00000010
00001000
00010000
,
00100000
10000000
01000000
00010000
00000000
00000000
00001000
00000000
00000010
00000001
00000000
00001000
,
00000010
00001000
00000001
00000100
00000000
00000000
00001000
00000000
00010000
10000000
00000000
00010000
,
01000000
10000000
00100000
00010000
00000000
00000000
00001000
00000000
00000100
00000001
00000000
00001000
,
00000100
00001000
00000001
00000010
00000000
00000000
00001000
00000000
00010000
10000000
00000000
00010000
,
10000000
00000000
10000000
00100000
00000000
00100000
00010000
00000000
00010000
00001000
00000000
00001000
,
00000100
00000000
00000100
00000001
00000000
00000001
00000010
00000000
00000010
00000100
00000000
00001000
,
00000001
00000000
00000001
00000010
00000000
00000010
00001000
00000000
00001000
00010000
00000000
00010000
,
01000000
00000000
01000000
10000000
00000000
10000000
00100000
00000000
00100000
01000000
00000000
00010000
,
10000000
01000000
00010000
00001000
00010000
00001000
01000000
00100000
,
00010000
00000000
00001000
00000000
00000010
00000000
00000001
00000100
00000010
00000000
00001000
00000001
00000100
00000000
00000000
00000000
,
00000001
00000100
00001000
00010000
00001000
00010000
00000100
00000010
,
00001000
00000000
00010000
00000000
00100000
00001000
10000000
01000000
00100000
00000000
00010000
10000000
01000000
00000000
00000000
00000000
,
10100000
00000000
11000000
00010000
00001000
00000010
00001100
00000000
,
00000011
00000000
00000101
00001000
00010000
00100000
01010000
00000000
,
11000000
00000000
10100000
00010000
00001000
00000100
00001010
00000000
,
00000101
00000000
00000011
00001000
00010000
01000000
00110000
00000000
,
10000000
01000000
00010000
00001000
,
00000010
00000001
00000010
00001000
00000010
00000001
00001000
00000000
,
00000001
00000100
00001000
00010000
,
00100000
10000000
00100000
00010000
00100000
10000000
00010000
00000000
,
10000000
00100000
00010000
00001000
,
00000100
00000001
00000100
00001000
00000100
00000001
00001000
00000000
,
00000001
00000010
00001000
00010000
,
01000000
10000000
01000000
00010000
01000000
10000000
00010000
00000000
,
10000000
01000000
00010000
00001000
,
00000100
00000001
00000100
00001000
00000100
00000001
00001000
00000000
,
00000001
00000010
00001000
00010000
,
00100000
10000000
00100000
00010000
00100000
10000000
00010000
00000000
,
10000000
00100000
00010000
00001000
,
00000100
00000001
00000100
00001000
00000100
00000001
00001000
00000000
,
00000001
00000010
00001000
00010000
,
01000000
10000000
01000000
00010000
01000000
10000000
00010000
00000000
,
11000000
00101000
00000000
00010100
,
00000011
00000000
00002002
00000000
,
00000000
00000000
00000000
00000000
,
00000000
00000000
00000000
00003003
,
00000000
00000000
00000000
00000000
;

//---------------dance-double - ----------------
#NOTES:
     dance-double:
     :
     Challenge:
     18:
     0.978,1.000,0.548,0.019,0.471:
00000000
00000000
00000000
00000000
,
00000000
00000000
00000000
00000000
,
00000000
00000000
00000000
00000000
,
00000000
00000000
00000000
00000000
,
00000000
00000000
00000000
00000000
,
00000000
00000000
00000000
00000000
,
00001000
00010000
01000000
10000000
01000000
00000000
00101000
00000000
,
00010000
00001000
00000100
00000001
00000100
00000000
00010010
00000000
,
00001000
00010000
00100000
10000000
00100000
00000000
01001000
00000000
,
00010000
00001000
00000010
00000001
00000010
00000000
00010100
00000000
,
00100000
10000000
00100000
00000000
10000000
01000000
10000000
00000000
,
01000000
00010000
00001000
00010000
00001000
00000100
00000001
00000000
,
00000100
00000001
00000100
00000000
00000001
00000010
00000001
00000000
,
00000010
00001000
00010000
00001000
00010000
00100000
10000000
00000000
,
01000000
10000000
01000000
00000000
10000000
00100000
10000000
00000000
,
00100000
00010000
00001000
00010000
00001000
00000010
00000001
00000000
,
00000010
00000001
00000010
00000000
00000001
00000100
00000001
00000000
,
00000100
00001000
00010000
00001000
00010000
01000000
10000000
00000000
,
00100000
00010000
00001000
00000000
00010000
00000000
00010100
00000000
,
00001000
00000000
00010010
00000000
00000100
00001000
00000001
00000000
,
00000010
00001000
00010000
00000000
00001000
00000000
01001000
00000000
,
00010000
00000000
00101000
00000000
01000000
00010000
10000000
00000000
,
01000000
00010000
00001000
00000000
00010000
00000000
00010010
00000000
,
00001000
00000000
00010100
00000000
00000010
00001000
00000001
00000000
,
00000100
00001000
00010000
00000000
00001000
00000000
00101000
00000000
,
00010000
00000000
01001000
00000000
00100000
00010000
10000000
00000000
,
00100000
00000000
00000000
10000000
01000000
00000000
00000000
01000000
,
00010000
00000000
00000000
00010000
00001000
00000000
00000000
00001000
,
00000100
00000000
00000000
00000100
00000001
00000000
00000000
00000001
,
00000010
00000000
00000000
00000100
00001000
00000010
00000100
00000001
,
00000100
00000000
00000000
00000001
00000010
00000000
00000000
00000010
,
00001000
00000000
00000000
00001000
00010000
00000000
00000000
00010000
,
00100000
00000000
00000000
00100000
10000000
00000000
00000000
10000000
,
01000000
00000000
00000000
00100000
00010000
01000000
00100000
10000000
,
01000000
00010000
01000000
00100000
00001000
00000000
00010000
00000000
,
00001000
00000000
00000000
00000100
00000010
00000000
00001001
00000000
,
00000100
00001000
00000100
00000010
00010000
00000000
00001000
00000000
,
00010000
00000000
00000000
01000000
00100000
00000000
10010000
00000000
,
00100000
00010000
00100000
01000000
00001000
00000000
00010000
00000000
,
00001000
00000000
00000000
00000010
00000100
00000000
00001001
00000000
,
00000010
00001000
00000010
00000100
00010000
00000000
00001000
00000000
,
00010000
00000000
00000000
00100000
01000000
00000000
10010000
00000000
,
11000000
00000000
00110000
00000000
10000000
01000000
00010000
00001000
,
00000010
00001100
00001001
00000000
,
00000101
00000000
00001010
00000000
00000001
00000100
00001000
00010000
,
00100000
01010000
10010000
00000000
,
10100000
00000000
01010000
00000000
10000000
00100000
00010000
00001000
,
00000100
00001010
00001001
00000000
,
00000011
00000000
00001100
00000000
00000001
00000010
00001000
00010000
,
01000000
00110000
10010000
00000000
,
01000000
00010000
00001000
00000010
,
00000001
00000100
00000010
00001000
00000100
00010000
00001000
00100000
,
01000000
10000000
00100000
10000000
,
01000000
00010000
00001000
00000010
00000001
00001000
00000100
00000000
,
00000010
00001000
00010000
01000000
,
10000000
00100000
01000000
00010000
00100000
00001000
00010000
00000100
,
00000010
00000001
00000100
00000001
,
00000010
00001000
00010000
01000000
10000000
00010000
00100000
00000000
,
01000000
10010000
00110000
00000000
,
00001000
00010000
01000000
00010000
00001000
00000010
00000001
00001000
,
00000100
00001001
00001010
00000000
,
00010000
00001000
00000100
00001000
00010000
00100000
10000000
00010000
,
00100000
10010000
01010000
00000000
,
00001000
00010000
00100000
00010000
00001000
00000100
00000001
00001000
,
00000010
00001001
00001100
00000000
,
00010000
00001000
00000010
00001000
00010000
01000000
10000000
00010000
,
01000000
00000000
00000000
00000000
01100000
00000000
00000000
00000000
00010000
00001000
00000100
00000010
00010000
00001000
00000010
00000001
00000100
00000000
00000000
00000000
00000110
00000000
00000000
00000000
00001000
00010000
01000000
00100000
00001000
00010000
00100000
10000000
,
00100000
00000000
00000000
00000000
01100000
00000000
00000000
00000000
00010000
00001000
00000010
00000100
00010000
00001000
00000100
00000001
00000010
00000000
00000000
00000000
00000110
00000000
00000000
00000000
00001000
00010000
00100000
01000000
00001000
00010000
01000000
10000000
,
00100000
10000000
01000000
00010000
00000000
00000000
00010000
00001000
00000010
00000001
00001000
00000100
,
00000010
00000001
00000100
00001000
00000000
00000000
00001000
00010000
00100000
10000000
00010000
01000000
,
00100000
10000000
01000000
00010000
00000000
00000000
00010000
00001000
00000010
00000001
00001000
00000100
,
00000010
00000001
00000100
00001000
00000000
00000000
00001000
00010000
00100000
10000000
00010000
01000000
,
00100000
10000000
01000000
00010000
00001000
00000100
00000001
00000100
00001000
00010000
01000000
10000000
,
01000000
10000000
00100000
00010000
00001000
00000010
00000001
00000010
00001000
00010000
00100000
10000000
,
01000000
01000000
01000000
00010000
00010000
00010000
00001000
00001000
00001000
00000010
00000010
00000010
,
00000100
00000100
00000100
00010000
00010000
00010000
00001000
00001000
00001000
00100000
00100000
00100000
,
00010000
00000000
10000000
01000000
00010000
00000000
00010000
00001000
00000010
00000000
00000010
00000001
00000100
00000000
00000100
00001000
,
00010000
00000000
00010000
00100000
10000000
00000000
10000000
01000000
00010000
00000000
00010000
00001000
00000010
00000000
00000001
00000000
,
00001000
00000000
00000001
00000010
00001000
00000000
00001000
00010000
01000000
00000000
01000000
10000000
00100000
00000000
00100000
00010000
,
00001000
00000000
00001000
00000100
00000001
00000000
00000001
00000010
00001000
00000000
00001000
00010000
01000000
00000000
10000000
00000000
,
10100000
00000000
00000000
00000000
11000000
00000000
00100000
00000000
00010000
00000000
00001000
00000100
00000001
00000000
00000000
00000000
,
00000011
00000000
00000000
00000000
00000101
00000000
00000010
00000000
00001000
00000000
00010000
01000000
10000000
00000000
00000000
00000000
,
11000000
00000000
00000000
00000000
10100000
00000000
01000000
00000000
00010000
00000000
00001000
00000010
00000001
00000000
00000000
00000000
,
00000101
00000000
00000000
00000000
00000011
00000000
00000100
00000000
00001000
00000000
00010000
00100000
10000000
00000000
00000000
00000000
,
10000000
01000000
00010000
00001000
00000010
00001000
00010000
01000000
,
00010000
00001000
00000010
00000001
00001000
00000100
00000010
00000100
,
00001000
00000001
00000010
00001000
00010000
00001000
01000000
00100000
,
10000000
01000000
00010000
00001000
00000100
00000001
00001000
00001000
,
00000001
00000100
00001000
00010000
00100000
00010000
00001000
00000100
,
00001000
00010000
00100000
10000000
00010000
01000000
00100000
01000000
,
00010000
10000000
00100000
00010000
00001000
00010000
00000100
00000010
,
00000001
00000100
00001000
00010000
01000000
10000000
00010000
00010000
,
10000000
00100000
00010000
00001000
00000100
00001000
00010000
00100000
,
00010000
00001000
00000100
00000001
00001000
00000010
00000100
00000010
,
00001000
00000001
00000100
00001000
00010000
00001000
00100000
01000000
,
10000000
00100000
00010000
00001000
00000010
00000001
00001000
00001000
,
00000001
00000010
00001000
00010000
01000000
00010000
00001000
00000010
,
00001000
00010000
01000000
10000000
00010000
00100000
01000000
00100000
,
00010000
10000000
01000000
00010000
00001000
00010000
00000010
00000100
,
00000001
00000010
00001000
00010000
00100000
10000000
00010000
00010000
,
11000000
00101000
00000000
00010100
,
00000011
00000000
00002002
00000000
,
00000000
00000000
00000000
00000000
,
00000000
00000000
00000000
00003003
,
00000000
00000000
00000000
00000000
;
