#TITLE:D2R ("FREEZE" Special);
#SUBTITLE:;
#ARTIST:NAOKI;
#TITLETRANSLIT:;
#SUBTITLETRANSLIT:;
#ARTISTTRANSLIT:;
#CREDIT:;
#BANNER:D2R (FREEZE Special).png;
#BACKGROUND:D2R (FREEZE Special)-bg.png;
#LYRICSPATH:;
#CDTITLE:./CDTITLES/DDRMAX2 -Dance Dance Revolution 7thMIX-.png;
#MUSIC:D2R (FREEZE Special).ogg;
#OFFSET:0.000;
#SAMPLESTART:26.080;
#SAMPLELENGTH:15.000;
#SELECTABLE:YES;
#DISPLAYBPM:160.000;
#BPMS:0.000=160.000,4.000=160.000;
#STOPS:;
#BGCHANGES:;

//---------------dance-single - ----------------
#NOTES:
     dance-single:
     :
     Challenge:
     12:
     0.387,0.558,0.125,0.760,0.047:
0000
0000
0000
0000
,
0000
0000
0000
0000
,
0000
0000
0000
0000
,
0000
0000
0000
0000
0000
0000
0000
2000
,
0002
0000
0000
0000
,
0000
0000
0000
0000
0000
0003
3000
0002
,
2000
0000
0000
0000
0000
0000
0000
0000
0000
0000
0000
0000
0000
0003
0000
0000
,
0200
0000
0000
3000
,
0002
0000
0000
0000
0000
0303
0000
2002
,
0000
0000
3003
2001
,
0020
3000
2000
0030
,
0200
3000
0002
0300
,
0020
0003
2000
0030
,
0200
0000
0000
0000
3000
0000
0000
0000
0002
0000
0000
0000
0300
0003
0000
0000
,
0020
0000
0002
0030
,
0200
0003
2000
0300
,
0020
3000
0002
0030
,
1000
0000
0000
1000
0000
0000
1000
0000
0000
0000
0003
0000
0000
0000
0000
0000
,
2100
0000
0000
0000
,
0000
0010
0000
0100
0200
0000
0300
0000
,
0002
0000
0000
0000
0000
0000
0000
0003
,
0000
0010
0000
0100
0200
0000
3300
0000
,
0200
0000
0000
0001
0000
0000
1000
0000
,
0300
0002
0000
0010
0000
0003
0100
0000
,
0020
0000
0000
0100
0000
0000
0002
0000
,
0000
0000
0000
0033
,
2002
0000
0000
3003
,
1001
0202
0000
0303
,
0010
0000
1000
0000
0001
0000
0100
0010
0000
1000
0000
0001
0100
0000
0010
0000
,
0000
1000
1000
1000
,
0001
0000
0000
0000
1000
0000
0100
0000
0000
0010
0100
0000
0001
0000
1000
0000
,
0000
0001
0001
0001
,
0010
0000
0001
0000
1000
0000
0100
0010
0000
0001
0000
1000
0100
0000
0010
0000
,
0001
1000
0100
0010
0001
0000
1002
0000
,
0010
0010
0023
0000
0001
0001
0032
0000
,
0100
0100
0203
0000
1000
1000
2300
0000
,
0010
0010
3020
0000
0001
0001
0032
0000
,
0100
0100
0203
0000
2000
0000
3300
0000
,
0010
1000
0020
0000
1000
0100
2030
0000
,
0100
0001
3200
0000
0001
0010
0302
0000
,
0010
1000
0023
0000
1000
0001
2030
0000
,
0001
0000
0000
0001
0000
0000
0002
0000
0000
0000
0000
0000
3003
0000
0000
0000
,
0102
0000
0000
0000
,
0000
0010
0000
0100
0200
0000
0300
0000
,
2000
0000
0000
0000
0000
0000
0000
3000
,
0000
0010
0000
0100
0200
0000
0303
0000
,
0200
0000
0000
1000
0000
0000
0001
0000
,
0300
2000
0000
0010
0000
3000
0100
0000
,
0020
0000
0000
0100
0000
0000
2000
0000
,
0000
0000
0000
3030
,
2100
0000
0000
0000
,
0000
0010
0000
0100
0200
0000
3000
0000
,
0002
0000
0000
0000
0000
0000
0000
0300
,
0000
0010
0000
0100
0200
0000
0003
0000
,
0001
0000
0000
2000
0300
0000
0010
0000
,
0000
0200
3000
0001
0000
0000
1000
0000
,
0020
0300
0000
0001
0000
0000
1000
0000
,
0000
0000
0000
0030
,
0022
0000
0033
0000
0100
0010
0000
2002
,
0000
0000
3003
0000
0001
0100
0000
0220
,
0000
0000
0000
0000
0000
0330
0000
1000
,
0000
0100
0000
0100
0001
1000
0100
0000
,
1000
0010
0020
0000
0000
0000
0000
0000
,
0030
0000
0000
0000
,
0000
0000
0000
0000
;

//---------------dance-double - ----------------
#NOTES:
     dance-double:
     :
     Challenge:
     12:
     0.339,0.558,0.115,0.615,0.047:
00000000
00000000
00000000
00000000
,
00000000
00000000
00000000
00000000
,
00000000
00000000
00000000
00000000
,
00000000
00000000
00000000
00000000
00000000
00000000
00000000
00200000
,
02000000
00000000
00000000
00000000
,
00000000
00000000
00000000
00000000
00000000
03300000
00000000
00020000
,
00002000
00000000
00000000
00000000
,
00000000
00000000
00000000
00000000
00000000
00033000
00000000
00000200
,
00000020
00000000
00000000
00000000
,
00000000
00000000
00000000
00000000
00000000
00000330
00000000
00000000
,
00020000
00000000
00002000
00030000
,
00020000
00003000
02000000
03030000
,
00002000
00000000
00020000
00003000
,
00002000
00030000
00000200
00003300
,
00020000
00000000
00200000
00030000
,
20000000
00300000
02000000
30000000
,
00020000
03000000
00002000
00030000
,
00000001
00000000
00000000
00000001
00000000
00000000
00000001
00000000
00000000
00000000
00003000
00000000
00000000
00000000
00000000
00000000
,
00020100
00000000
00000000
00000000
,
00000000
00001000
00000000
01000000
01000000
00000000
00030000
00000000
,
00000200
00000000
00000000
00000000
,
00000000
00000001
00000000
00001000
00002000
00000000
00003300
00000000
,
00002000
00000000
00000000
00010000
00000000
00000000
00000100
00000000
,
00003000
00020000
00000000
00100000
00000000
02030000
00000000
03000000
,
00200000
00000000
00000000
01000000
00000000
00000000
20000000
00000000
,
00000000
00000000
00000000
30300000
,
20020000
00000000
00000000
30030000
,
10010000
02020000
00000000
03030000
,
00100000
00000000
10000000
00000000
00010000
00000000
01000000
00010000
00000000
00001000
00000000
00000100
00000010
00000000
00001000
00000000
,
00000000
00000001
00000001
00000001
,
00001000
00000000
00000000
00000000
00010000
00000000
01000000
00000000
00000000
10000000
01000000
00000000
00100000
00000000
01000000
00000000
,
00000000
10000000
10000000
10000000
,
00100000
00000000
00010000
00000000
01000000
00000000
00010000
00001000
00000000
00000100
00000000
00000010
00001000
00000000
00000001
00000000
,
00001000
00000001
00000100
00000000
00000110
00000000
00021000
00000000
,
00100000
00000000
10000000
00000000
,
01000000
00000000
00002000
00030000
,
00000010
00000000
00000001
00000000
,
00000100
00000000
00020000
00003000
,
00100000
00100000
00100000
00000000
10000000
10000000
10000000
00000000
,
01000000
01000000
01000000
00000000
00001000
00001000
00032000
00000000
,
00000010
00000010
00000010
00000000
00000001
00000001
00000001
00000000
,
00000100
00000000
00000000
00000100
00000000
00000000
00020000
00000000
00000000
00000000
00000000
00000000
00033000
00000000
00000000
00000000
,
01002000
00000000
00000000
00000000
,
00000000
00010000
00000000
00000100
00000100
00000000
00003000
00000000
,
02000000
00000000
00000000
00000000
,
00000000
10000000
00000000
00010000
00020000
00000000
03030000
00000000
,
00020000
00000000
00000000
00001000
00000000
00000000
01000000
00000000
,
00030000
00002000
00000000
00000010
00000000
00003200
00000000
00000300
,
00000020
00000000
00000000
00000100
00000000
00000000
00000200
00000000
,
00000000
00000000
00000000
00000330
,
00020100
00000000
00000000
00000000
,
00000000
00001000
00000000
01000000
02000000
00000000
00030000
00000000
,
00020000
00000000
00000000
00000000
00000000
00000000
00000000
03000000
,
00000000
00000100
00000000
00001000
00002000
00000000
00030000
00000000
,
00010000
00000000
00000000
00000020
00003000
00000000
00000100
00000000
,
00000000
00020000
00000030
00001000
00000000
00000000
01000000
00000000
,
00002000
00030000
00000000
00000010
00000000
00000000
00010000
00000000
,
00000000
00000000
00000000
00003000
,
00020020
00000000
00030030
00000000
00001000
00001000
00000000
00002002
,
00000000
00000000
00003003
00000000
00001000
00010000
00000000
20020000
,
00000000
00000000
00000000
00000000
00000000
30030000
00000000
10000000
,
00000000
01000000
00000000
01000000
00010000
00001000
00000100
00000000
,
00000001
00000010
00000020
00000000
00000000
00000000
00000000
00000000
,
00000030
00000000
00000000
00000000
,
00000000
00000000
00000000
00000000
;
