#TITLE:BRILLIANT 2U ("STREAM" Special);
#SUBTITLE:;
#ARTIST:NAOKI;
#TITLETRANSLIT:;
#SUBTITLETRANSLIT:;
#ARTISTTRANSLIT:;
#CREDIT:;
#BANNER:BRILLIANT 2U (STREAM Special).png;
#BACKGROUND:BRILLIANT 2U (STREAM Special)-bg.png;
#LYRICSPATH:;
#CDTITLE:./CDTITLES/Dance Dance Revolution 2ndMIX.png;
#MUSIC:BRILLIANT 2U (STREAM Special).ogg;
#OFFSET:0.000;
#SAMPLESTART:27.200;
#SAMPLELENGTH:15.000;
#SELECTABLE:YES;
#DISPLAYBPM:150.000;
#BPMS:0.000=150.000,20.000=150.000;
#STOPS:;
#BGCHANGES:;

//---------------dance-single - ----------------
#NOTES:
     dance-single:
     :
     Challenge:
     13:
     0.597,0.561,0.174,0.069,0.434:
0000
0000
0000
0000
,
0000
0000
0000
0000
,
0000
0000
0000
0000
,
0000
0000
0000
0000
,
0000
0000
0000
0000
,
0000
0000
0000
0000
,
0000
0010
0000
0010
,
0000
0000
0000
0000
0010
0000
0000
0000
0000
0000
0000
0000
0010
0000
0000
0100
,
1000
0000
0000
0010
0001
0000
0000
0100
1000
0000
0000
0000
0001
1000
0001
0100
,
0010
0000
0000
0100
0010
0000
0100
0000
0001
1000
0000
0000
0101
0000
0000
0000
,
0010
0000
0001
0010
0000
0100
0010
0000
0001
0000
1000
0000
0001
0000
1000
0000
,
0100
0000
0000
0010
0100
0000
0010
0000
0001
1000
0000
0000
0001
0000
0000
0000
,
0010
0000
0001
0010
0000
0100
0010
0000
0001
0100
0000
0100
0001
0000
1000
0000
,
0010
0000
0000
0100
0010
0000
0100
0000
1000
0001
0000
0000
1100
0000
0000
0000
,
0100
0000
1000
0100
0000
0001
0100
0000
1000
0000
0001
0000
1000
0000
0001
0000
,
0100
0000
0000
0010
0100
0000
0010
0000
0001
0010
0000
0000
0100
0000
0001
0000
,
0010
0001
0100
1000
0100
0001
0100
0010
,
1000
0001
1000
0100
1000
0010
0001
0000
,
0010
1000
0000
0000
1000
0100
0000
0000
0100
0001
0000
0000
0100
0000
0001
0000
,
1100
0000
1000
0100
0010
0001
1000
0000
,
0100
0001
0000
0000
0001
0010
0000
0000
0010
1000
0000
0000
0010
0000
0001
0000
,
1100
0000
0001
0010
0001
1000
0100
1000
,
0010
0001
0000
0000
0001
0100
0000
0000
0100
1000
0000
0000
0100
0000
1000
0000
,
0101
0000
0010
0001
0010
0100
0010
1000
,
0010
1000
0100
0001
0100
1000
0100
0010
,
0001
0000
0100
0000
0001
0010
0000
0001
0000
0200
0000
0000
0000
0310
1000
0001
,
1000
0000
0100
0000
1000
0200
0000
0000
1000
0000
0000
0000
1300
0000
0000
0000
,
0001
0000
0100
0000
0001
0010
0000
0001
0000
0200
0000
0000
0000
0310
1000
0001
,
1000
0100
1000
0100
0010
0001
0100
0001
,
1000
0000
0100
0000
1000
0010
0000
1000
0000
0200
0000
0000
0000
0310
0001
1000
,
0001
0000
0100
0000
0001
0200
0000
0000
0001
0000
0000
0000
0301
0000
0000
0000
,
1000
0000
0100
0000
1000
0010
0000
1000
0000
0200
0000
0000
0010
0300
0010
0000
,
0001
0100
0010
1000
0010
0100
0001
1000
,
0010
0000
0000
0100
0010
0000
0100
0000
1000
0001
0000
0000
1100
0000
0000
0000
,
0010
0000
1000
0010
0000
0100
0010
0000
1000
0000
0001
0000
1000
0000
0001
0000
,
0100
0000
0000
0010
0100
0000
0010
0000
1000
0001
0000
0000
1000
0000
0000
0000
,
0010
0000
1000
0010
0000
0100
0010
0000
1000
0100
0000
0100
1000
0000
0001
0000
,
0010
0000
0000
0100
0010
0000
0100
0000
0001
1000
0000
0000
0101
0000
0000
0000
,
0100
0000
0001
0100
0000
1000
0100
0000
0001
0000
1000
0000
0001
0000
1000
0000
,
0100
0000
0000
0010
0100
0000
0010
0000
1000
0001
0000
0000
0110
0000
0000
0000
,
0010
1000
0100
0001
0100
1000
0100
0010
,
0001
1000
0001
0100
0001
0010
1000
0000
,
0010
0001
0000
0000
0001
0100
0000
0000
0100
1000
0000
0000
0100
0000
1100
0000
,
0101
0000
0001
0100
0010
1000
0001
0010
,
0100
1000
0000
0000
1000
0010
0000
0000
0010
0001
0000
0000
1000
0000
0001
0000
,
0101
0000
1000
0010
1000
0001
0100
0001
,
0010
1000
0000
0000
1000
0100
0000
0000
0100
0001
0000
0000
1100
0000
0101
0000
,
1100
0000
0010
1000
0010
0100
0010
0001
,
0010
0001
0100
1000
0100
0001
0100
0010
,
1000
0100
0100
0000
0100
0000
0100
0100
,
1000
0100
0100
1000
0001
0010
0001
0010
,
1100
0000
0000
0000
,
0000
0000
0000
0000
;

//---------------dance-double - ----------------
#NOTES:
     dance-double:
     :
     Challenge:
     13:
     0.567,0.502,0.208,0.000,0.347:
00000000
00000000
00000000
00000000
,
00000000
00000000
00000000
00000000
,
00000000
00000000
00000000
00000000
,
00000000
00000000
00000000
00000000
,
00000000
00000000
00000000
00000000
,
00000000
00000000
00000000
00000000
,
00000000
00000001
00000000
00001000
,
00010000
00100000
11000000
00000000
01000000
00100000
00110000
00000000
,
00011000
00000000
00000000
00000000
00001100
00000000
00000000
00000000
00011000
00000000
00000000
00000000
00001000
00010000
01000000
10000000
,
00010000
00000000
00000000
01000000
00000000
00000000
10000000
00000000
01000000
00100000
00000000
00000000
10000000
00000000
00000000
00000000
,
01000000
00000000
00010000
01000000
00000000
00100000
01000000
00000000
10000000
00000000
01000000
00000000
00010000
00000000
00001000
00000000
,
00000100
00000000
00000000
00000010
00000000
00000000
00000001
00000000
00000000
00000100
00000000
00000000
00001000
00000000
00000000
00000000
,
00000100
00000000
00000001
00000100
00000000
00000010
00000100
00000000
00000001
00000010
00000000
00000100
00000010
00000000
00001000
00000000
,
00010000
00000000
00000000
01000000
00000000
00000000
10000000
00000000
01000000
00100000
00000000
00000000
10000000
00000000
00000000
00000000
,
01000000
00000000
00010000
01000000
00100000
00000000
00000000
00000000
00010000
01000000
00000000
00000000
10000000
01000000
00000000
00000000
,
00100000
00001000
00010000
00001000
00010000
01000000
00010000
00000010
,
00001000
00000010
00001000
00010000
00001000
00000100
00000001
00000000
,
00001000
00000001
00001000
00000100
00001000
00000010
00000001
00000000
,
00000010
00000001
00000000
00000000
00001000
00000100
00000000
00000000
00010000
00001000
00000000
00000000
01000000
00000000
00010000
00000000
,
11000000
00000000
10000000
01000000
00100000
00010000
10000000
01000000
,
00100000
10000000
00000000
00000000
00010000
01000000
00000000
00000000
00001000
00010000
00000000
00000000
00000100
00000000
00000001
00000000
,
00001100
00000001
00001000
00000100
00001000
00000010
00000001
00000000
,
00000010
00000001
00000000
00000000
00001000
00000100
00000000
00000000
00010000
00001000
00000000
00000000
01000000
00000000
00010000
00000000
,
11000000
00000000
10000000
01000000
00100000
00010000
10000000
01000000
,
10000000
01000000
00010000
00001000
00000100
00000001
00001000
00000000
,
00000001
00000000
00000100
00000000
00000001
00000010
00000000
00000001
00000100
00000000
00000001
00000000
00000010
00000000
00001000
00000000
,
00010000
00000000
00001000
00000000
00010000
00000010
00000000
00000000
00011000
00000000
00000000
00000000
01010000
00000000
00000000
00000000
,
10000000
00000000
01000000
00000000
10000000
00100000
00000000
10000000
01000000
00000000
10000000
00000000
00100000
00000000
00000000
00000000
,
10000000
01000000
00010000
00000000
00001000
00000100
00000001
00000010
,
00000001
00000000
00000100
00000000
00000001
00000010
00000000
00000001
00000100
00000000
00000001
00000000
00000010
00000000
00001000
00000000
,
00010000
00000000
00001000
00000000
00010000
00000010
00000000
00000000
00011000
00000000
00000000
00000000
01010000
00000000
00000000
00000000
,
10000000
00000000
01000000
00000000
10000000
00100000
00000000
10000000
01000000
00000000
10000000
00000000
00100000
00000000
00000000
00000000
,
01000000
10000000
01000000
00010000
00001000
00000100
00000001
00000010
,
00001000
00000000
00000000
00000100
00000000
00000000
00000001
00000000
00000100
00000010
00000000
00000000
00000001
00000000
00000000
00000000
,
00000100
00000000
00001000
00000100
00000000
00000010
00000100
00000000
00000001
00000000
00000100
00000000
00001000
00000000
00010000
00000000
,
01000000
00000000
00000000
00100000
00000000
00000000
10000000
00000000
00000000
01000000
00000000
00000000
00010000
00000000
00000000
00000000
,
01000000
00000000
10000000
01000000
00000000
00100000
01000000
00000000
10000000
00100000
00000000
01000000
00100000
00000000
00010000
00000000
,
00001000
00000000
00000000
00000100
00000000
00000000
00000001
00000000
00000100
00000010
00000000
00000000
00000001
00000000
00000000
00000000
,
00000100
00000000
00001000
00000100
00000010
00000000
00000000
00000000
00001000
00000100
00000000
00000000
00000001
00000100
00000000
00000000
,
00000010
00010000
00001000
00010000
00001000
00000100
00001000
00100000
,
00010000
00100000
00010000
00001000
00010000
01000000
10000000
00000000
,
00010000
10000000
00010000
01000000
00010000
00100000
10000000
00000000
,
00100000
10000000
00000000
00000000
00010000
01000000
00000000
00000000
00001000
00010000
00000000
00000000
00000100
00000000
00001000
00000000
,
00000101
00000000
00000001
00000100
00000010
00001000
00000001
00000100
,
00000010
00000001
00000000
00000000
00001000
00000100
00000000
00000000
00010000
00001000
00000000
00000000
01000000
00000000
10000000
00000000
,
01010000
10000000
00010000
01000000
00010000
00100000
10000000
00000000
,
00100000
10000000
00000000
00000000
00010000
01000000
00000000
00000000
00001000
00010000
00000000
00000000
00000100
00000000
00001000
00000000
,
00000101
00000000
00000001
00000100
00000010
00001000
00000001
00000100
,
00000001
00000100
00001000
00010000
01000000
10000000
00010000
00000000
,
11000000
01100000
00000000
10000000
00000000
10000000
00000000
00100000
,
00010000
00001000
00000000
00000100
00001000
00010000
00001000
00000100
,
00011000
00000000
00000000
00000000
,
00000000
00000000
00000000
00000000
;
