#TITLE:B4U ("VOLTAGE" Special);
#SUBTITLE:;
#ARTIST:NAOKI;
#TITLETRANSLIT:;
#SUBTITLETRANSLIT:;
#ARTISTTRANSLIT:;
#CREDIT:;
#BANNER:B4U (VOLTAGE Special).png;
#BACKGROUND:B4U (VOLTAGE Special)-bg.png;
#LYRICSPATH:;
#CDTITLE:./CDTITLES/Dance Dance Revolution 4thMIX.PNG;
#MUSIC:B4U (VOLTAGE Special).ogg;
#OFFSET:0.000;
#SAMPLESTART:26.320;
#SAMPLELENGTH:15.000;
#SELECTABLE:YES;
#DISPLAYBPM:155.000;
#BPMS:0.000=155.172,12.000=155.085;
#STOPS:;
#BGCHANGES:;

//---------------dance-single - ----------------
#NOTES:
     dance-single:
     :
     Challenge:
     14:
     0.636,0.845,0.747,0.000,0.389:
0000
0000
0000
0000
,
0000
0000
0000
0000
,
0000
0000
0000
0000
,
0000
0000
0000
0000
,
0000
0000
1000
1001
,
0000
1000
0000
0010
0000
0100
0000
0001
,
0000
0010
0000
0100
0000
1001
0101
1100
,
0000
0001
0000
1000
0000
0100
0000
0010
,
0000
0100
0000
1000
0000
1001
1100
0101
,
1000
0000
0100
0000
1000
0000
0010
0000
1000
0000
1000
0100
0001
0000
0100
0000
,
0010
0001
0100
0000
0010
0000
0010
1000
0100
0000
1000
0000
1000
0000
1000
0000
,
0001
0000
0100
0000
0001
0000
0010
0000
0001
0000
0001
0100
1000
0000
0100
0000
,
0010
1000
0100
0000
0010
0000
0010
0001
0100
0000
0001
0000
0001
0000
0001
0000
,
0000
0000
0000
0000
0000
0000
1000
0000
0001
0000
0000
0001
0000
0000
0001
0000
,
0000
0000
0000
0000
,
0000
0000
0000
0000
0000
0000
0001
0000
1000
0000
0000
1000
0000
0000
1000
0000
,
0010
0000
0100
0000
0010
0100
0010
0100
,
1001
1001
1100
1100
,
0101
0000
0101
0000
0101
0000
0001
0100
,
1000
1100
1001
1001
,
1000
0100
1000
0010
0000
0000
0100
0001
0010
0000
0100
0000
0001
0000
0100
0000
,
1001
1001
0101
0101
,
1100
0000
1100
0000
1100
0000
1000
0100
,
0001
0101
1001
1001
,
0001
0100
0001
0010
0100
0000
1000
0010
0100
0000
1000
0000
0100
0000
0001
0000
,
0100
0000
0010
0000
0000
1000
0000
0000
0100
0000
0000
0001
0000
0000
0010
0000
,
0100
0000
0010
0000
0000
1000
0000
0000
0100
0000
0000
0001
0000
0000
0010
0000
,
0100
0000
0010
0000
0000
1000
0000
0000
0100
0000
0000
0001
0000
0000
0010
0000
,
0100
0000
0010
0000
0000
1000
0000
0000
0100
0000
0000
0001
0000
0000
0010
0000
,
0100
1001
0000
1001
0000
1001
0000
1001
,
0000
0110
0000
1001
0000
1001
1100
0101
,
0000
1001
0000
1001
0000
1001
0000
1001
,
0000
0110
0000
1001
0000
1001
0101
1100
,
0001
0000
0100
0000
0001
0000
0010
0000
0001
0000
0001
0100
1000
0000
0100
0000
,
0010
1000
0100
0000
0010
0000
0010
0001
0100
0000
0001
0000
0100
0000
0001
0000
,
1000
0000
0100
0000
1000
0000
0010
0000
1000
0000
1000
0100
0001
0000
0100
0000
,
0010
0001
0100
0000
0010
0000
0010
1000
0100
0000
1000
0000
0100
0000
1000
0000
,
0000
0000
0000
0000
0000
0000
0001
0000
1000
0000
0000
0100
0000
0000
1000
0000
,
0000
0000
0000
0000
,
0000
0000
0000
0000
0000
0000
1000
0000
0001
0000
0000
0100
0000
0000
0001
0000
,
0010
0000
0100
0000
0010
0100
0010
0100
,
1001
0000
0000
0000
1001
0000
0000
0000
0101
0000
0000
0001
1000
0000
0010
0000
,
1100
0000
1100
0000
1100
0000
1000
0100
,
0101
0000
0000
0000
0101
0000
0000
0000
1001
0000
0000
0010
0001
0000
1000
0000
,
0001
0100
0001
0010
0100
0000
1000
0010
0100
0000
1000
0000
0100
0000
0001
0000
,
1001
0000
0000
0000
1001
0000
0000
0000
1100
0000
0000
1000
0001
0000
0010
0000
,
0101
0000
0101
0000
0101
0000
0001
0100
,
1100
0000
0000
0000
1100
0000
0000
0000
1001
0000
0000
0010
1000
0000
0001
0000
,
1000
0100
1000
0010
0000
0000
0100
0001
0010
0000
0100
0000
0001
0000
0100
0000
,
1000
0000
0011
0000
,
0100
0000
0011
0000
,
0011
1100
0011
1100
,
0001
0000
0100
0000
0010
0000
1000
0000
0001
1000
0001
1000
0000
0000
0000
0000
,
1000
1000
0000
0001
0000
0001
0000
0010
0000
0010
0000
0100
1000
0000
0001
0000
,
1100
0000
1100
0000
0010
0001
1000
0010
,
0001
0001
0000
1000
0000
1000
0000
0010
0000
0010
0000
0100
0001
0000
1000
0000
,
0100
1000
0100
1000
0100
0100
1000
1000
0010
1000
0001
0100
1000
0100
1000
0010
,
0100
0100
0000
0010
0000
0010
0000
0001
0000
0001
0000
1000
0100
0000
0010
0000
,
0101
0000
0101
0000
1000
0010
0001
1000
,
0010
0010
0000
0100
0000
0100
0000
0001
0000
0001
0000
1000
0010
0000
0100
0000
,
0001
0100
0001
0100
0001
0000
0100
1000
0100
0000
0001
0000
0010
0000
0001
0000
,
1000
1000
0000
0001
0010
0001
1000
0000
,
0101
0000
0000
0000
,
0000
0000
0000
0000
;

//---------------dance-double - ----------------
#NOTES:
     dance-double:
     :
     Challenge:
     15:
     0.611,0.845,0.575,0.000,0.404:
00000000
00000000
00000000
00000000
,
00000000
00000000
00000000
00000000
,
00000000
00000000
00000000
00000000
,
00000000
00000000
00000000
00000000
,
00000000
00000000
10000000
00011000
,
00000000
00001000
00000000
00000010
00000000
00000100
00000000
00000001
,
00000000
00000010
00000000
00000100
00000000
00001000
00010000
01000000
,
00000000
00010000
00000000
00100000
00000000
01000000
00000000
10000000
,
00000000
00100000
00000000
01000000
00000000
00010000
00001000
00000100
,
00000001
00000000
00000100
00000000
00000001
00000000
00000010
00000000
00001000
00000000
00001000
00010000
01000000
00000000
01000000
00000000
,
00100000
00010000
00001000
00000000
00000010
00000000
00000010
00001000
00000100
00000000
00001000
00000000
00010000
00000000
01000000
00000000
,
10000000
00000000
01000000
00000000
10000000
00000000
00100000
00000000
00010000
00000000
00010000
00001000
00000100
00000000
00000100
00000000
,
00000010
00001000
00010000
00000000
00100000
00000000
00100000
00010000
01000000
00000000
00010000
00000000
00001000
00000000
00000100
00000000
,
00000000
00000000
00000000
00000000
00000000
00000000
00000001
00000000
00001100
00000000
00000000
00011000
00000000
00000000
00110000
00000000
,
00000000
00000000
00000000
00000000
,
00000000
00000000
00000000
00000000
00000000
00000000
10000000
00000000
01010000
00000000
00000000
00011000
00000000
00000000
00001010
00000000
,
00000010
00000000
01001000
00000000
00011000
00010100
00011000
01001000
,
10000000
10000000
01000000
01000000
,
00011000
00000000
00011000
00000000
00001100
00000000
00000001
00000010
,
00000100
00001000
00010000
00100000
,
10000000
01000000
10000000
00100000
01000000
00000000
00000000
00010000
00001000
00000000
00000010
00000000
00000100
00000000
00000010
00000000
,
00001000
00000001
00000100
00000100
,
00011000
00000000
00011000
00000000
01010000
00000000
10000000
00100000
,
01000000
00010000
00001000
00000010
,
00000001
00000100
00000001
00000010
00000100
00000000
00000000
00001000
00010000
00000000
00100000
00000000
01000000
00000000
00100000
00000000
,
00000000
00000000
00100000
00000000
00000000
10000000
00000000
00000000
01000000
00000000
00000000
00010000
00000000
00000000
00001000
00000000
,
00000100
00000000
00000010
00000000
00000000
00000001
00000000
00000000
00000100
00000000
00000000
00001000
00000000
00000000
00010000
00000000
,
01000000
00000000
00100000
00000000
00000000
10000000
00000000
00000000
01000000
00000000
00000000
00010000
00000000
00000000
00001000
00000000
,
00000100
00000000
00000010
00000000
00000000
00000001
00000000
00000000
00000100
00000000
00000000
00001000
00000000
00000000
00010000
00000000
,
01000000
10010000
00000000
10010000
00000000
10010000
00000000
10010000
,
00000000
01100000
00000000
00011000
00000000
00011000
01001000
00010100
,
00000000
00001001
00000000
00001001
00000000
00001001
00000000
00001001
,
00000000
00000110
00000000
00011000
00000000
00011000
00000000
00011000
,
00010000
00000000
00010000
01000000
00100000
00000000
01000000
00000000
00010000
00000000
00010000
00001000
00000100
00000000
00000001
00000000
,
00000010
00001000
00010000
00000000
00001000
00000000
00001000
00010000
00100000
00000000
10000000
00000000
01000000
00000000
00010000
00000000
,
00001000
00000000
00001000
00000100
00000010
00000000
00000100
00000000
00001000
00000000
00001000
00010000
01000000
00000000
10000000
00000000
,
00100000
00010000
00001000
00000000
00010000
00000000
00010000
00001000
00000010
00000000
00000001
00000000
00000100
00000000
00001000
00000000
,
00000000
00000000
00000000
00000000
00000000
00000000
00010000
00000000
00001100
00000000
00000000
00011000
00000000
00000000
00110000
00000000
,
10000000
01000000
00010000
00100000
,
00000000
00000000
00000000
00000000
00000000
00000000
00001000
00000000
01010000
00000000
00000000
00011000
00000000
00000000
00001010
00000000
,
00000001
00000100
00001000
00000010
,
00000001
00000000
00000000
00000000
00000001
00000000
00000000
00000000
00000100
00000000
00000000
00000100
00000010
00000000
00001000
00000000
,
00011000
00000000
00011000
00000000
01010000
00000000
10000000
00100000
,
01000000
00000000
00000000
00000000
00010000
00000000
00000000
00000000
00001000
00000000
00000000
00000100
00000010
00000000
00001000
00000000
,
00000001
00000100
00000001
00000010
00000100
00000000
00000000
00001000
00010000
00000000
00100000
00000000
01000000
00000000
00100000
00000000
,
10000000
00000000
00000000
00000000
10000000
00000000
00000000
00000000
01000000
00000000
00000000
01000000
00100000
00000000
00010000
00000000
,
00011000
00000000
00011000
00000000
00001100
00000000
00000001
00000010
,
00000100
00000000
00000000
00000000
00001000
00000000
00000000
00000000
00010000
00000000
00000000
01000000
00100000
00000000
00010000
00000000
,
10000000
01000000
10000000
00100000
01000000
00000000
00000000
00010000
00001000
00000000
00000010
00000000
00000100
00000000
00000010
00000000
,
00000001
00000000
00001001
00000000
,
00000100
00000100
00000110
00000000
,
00010000
00001000
00010000
00001000
,
00100000
00000000
00001000
00000000
01000000
00000000
00010000
00000000
10000000
01000000
00010000
01000000
00000000
00000000
00000000
00000000
,
10000000
10000000
00000000
00010000
00000000
00010000
00000000
00100000
00000000
00100000
00000000
01000000
00010000
00000000
00001000
00000000
,
00001100
00000000
00001100
00000000
00000010
00000001
00001000
00000010
,
00000001
00000001
00000000
00001000
00000000
00001000
00000000
00000010
00000000
00000010
00000000
00000100
00001000
00000000
00010000
00000000
,
01000000
10000000
01000000
10000000
01000000
01000000
00100000
00010000
00001000
00001000
00000100
00000100
00000010
00000010
00001000
00001000
,
00000001
00000001
00000000
00001000
00000000
00001000
00000000
00000010
00000000
00000010
00000000
00000100
00001000
00000000
00010000
00000000
,
01010000
00000000
01010000
00000000
00100000
10000000
00010000
00100000
,
10000000
10000000
00000000
00010000
00000000
00010000
00000000
00100000
00000000
00100000
00000000
01000000
00010000
00000000
00001000
00000000
,
00000010
00000001
00000100
00001000
00110000
00000000
00100000
10000000
01000000
00010000
00001010
00000000
00000000
00000000
00000000
00000000
,
00000001
00000001
00000000
00000010
00001000
00010000
01100000
00000000
,
11000000
00000000
00000000
00000000
,
00000000
00000000
00000000
00000000
;
