#TITLE:AM-3P ("CHAOS" Special);
#SUBTITLE:;
#ARTIST:KTz;
#TITLETRANSLIT:;
#SUBTITLETRANSLIT:;
#ARTISTTRANSLIT:;
#CREDIT:;
#BANNER:AM-3P(CHAOS Special).png;
#BACKGROUND:AM-3P(CHAOS Special)-bg.png;
#LYRICSPATH:;
#CDTITLE:./CDTITLES/Dance Dance Revolution 2ndMIX.PNG;
#MUSIC:AM-3P (CHAOS Special).ogg;
#OFFSET:0.000;
#SAMPLESTART:46.120;
#SAMPLELENGTH:15.000;
#SELECTABLE:YES;
#DISPLAYBPM:130.000;
#BPMS:0.000=130.152,20.000=130.109;
#STOPS:;
#BGCHANGES:;

//---------------dance-single - ----------------
#NOTES:
     dance-single:
     :
     Challenge:
     14:
     0.582,0.873,0.389,0.047,0.507:
0000
0000
0000
0000
,
0000
0000
0000
0000
,
0000
0000
0000
0000
,
0000
0000
0000
0000
,
0000
0000
0000
0000
,
0000
0000
0000
0000
,
0000
0000
0000
0000
,
0100
0001
0100
0001
0100
1000
0100
1000
,
0100
0001
0100
0001
0100
1000
0100
1000
,
0100
0001
0100
0001
0100
1000
0100
1000
0100
0001
0100
0001
0100
1000
0100
1000
,
0100
0001
0100
0001
0100
1000
0100
1000
0100
0000
0010
0000
0100
0000
0010
0000
,
0100
0001
0100
0001
0100
1000
0100
1000
0100
0001
0100
0001
0100
1000
0100
1000
,
0100
0001
0100
0001
0100
0010
0100
0010
0100
1000
0100
1000
0100
0010
0100
0010
,
0001
0100
0001
0100
0001
0010
0001
0010
0001
0100
0001
0100
0001
0010
0001
0010
,
0001
1001
0000
0000
1000
1001
0000
0000
,
1000
0101
1001
0000
0001
1100
1001
0000
,
0010
0000
0000
0001
0000
0000
0100
0000
0000
1000
0000
0000
0010
0000
0001
0000
,
1000
0000
0000
1000
0000
0000
1000
0000
0000
0100
1000
0000
0001
0000
0100
0000
,
0001
0000
0000
0001
0000
0000
0001
0000
0000
0010
0001
0000
1000
0000
0100
0000
,
0010
0000
0000
0010
0000
0000
0010
0000
0000
0100
1000
0000
0001
0000
0100
0000
,
0010
1000
0000
0000
0100
1000
0000
0000
0001
1000
0000
0000
0100
1000
0000
0000
,
1000
0000
0000
0100
0000
0000
0110
0000
0000
0001
0100
0000
0010
0000
1000
0000
,
0100
0000
0000
0010
0000
0000
1001
0000
0000
1000
0100
0000
1000
0000
0001
0000
,
0010
0000
0000
0100
0000
0000
1001
0000
0000
0010
0100
0000
0001
0000
0010
0000
,
0100
0000
0000
1000
0000
0000
0000
0000
0000
0000
0000
0000
0001
0000
0000
0000
1000
0000
0000
0000
0000
0000
0000
0000
0100
0000
0000
0000
1000
0000
0000
0000
0000
0000
0000
0000
0100
0000
0000
0000
1000
0000
0000
0000
0000
0000
0000
0000
0000
0000
0000
0000
0000
0000
0000
0000
0000
0000
0000
0000
0000
0000
0000
0000
,
2000
0010
0000
0010
0000
0000
0001
0000
,
3002
0100
0000
0100
0000
1000
1003
0000
,
2000
0000
0001
0000
0001
0000
0000
0000
0100
0000
0000
0100
0000
0000
0001
0000
,
3002
0000
0000
0100
0000
0100
1003
0000
,
0100
1000
0100
0000
0001
0010
0001
0000
0100
1000
0100
0000
0001
0010
0001
0000
,
0001
0000
0100
0001
0100
0000
0010
1000
0010
0000
1000
0000
1010
0000
0000
0000
,
0100
1000
0010
1000
0001
0100
0010
1000
,
0100
0010
0100
0000
0001
0100
0001
0000
0010
0100
0010
0000
1001
0000
0000
0000
,
0010
0000
0000
0000
1000
0000
0000
0000
0100
1000
0100
0001
0100
0000
0000
0000
,
0100
0000
0000
0000
0001
0000
0000
0000
0010
0001
0010
1000
0010
0000
0000
0000
,
0010
1000
0100
0010
0001
0010
0001
0100
0010
1000
0100
0000
0100
0000
0000
0000
,
1100
0000
0000
0000
1010
0000
0000
0000
0010
0001
0101
0000
0101
0000
0000
0000
,
1001
0000
0000
0000
0100
0000
0000
0000
0001
0100
1000
0000
0010
0000
0000
0000
,
1001
0000
0000
0000
0100
0000
0000
0000
1000
0100
0001
0000
0010
0000
0000
0000
,
1001
0000
0000
0000
0101
0000
0000
0000
0001
0010
0101
0000
0101
0000
0000
0000
,
0011
0000
0000
0000
1100
0000
0000
0000
1010
0010
0101
0000
0101
0000
0000
0000
,
1000
0101
0001
1100
,
0010
0000
0001
1100
0000
1000
0101
0000
,
0010
1000
0001
0000
0001
0000
1000
0100
0001
0000
0001
0000
0100
0010
0001
0000
,
0001
0000
0001
0100
1000
0000
1010
0000
0100
0000
1000
0000
1001
0000
0101
0000
,
0000
0000
0000
0000
;

//---------------dance-double - ----------------
#NOTES:
     dance-double:
     :
     Challenge:
     13:
     0.513,0.555,0.318,0.024,0.289:
00000000
00000000
00000000
00000000
,
00000000
00000000
00000000
00000000
,
00000000
00000000
00000000
00000000
,
00000000
00000000
00000000
00000000
,
00000000
00000000
00000000
00000000
,
00000000
00000000
00000000
00000000
,
00000000
00000000
00000000
00000000
,
00010000
00001000
00010000
00001000
00010000
01000000
00010000
01000000
,
00010000
00001000
00010000
00001000
00010000
01000000
00010000
01000000
,
00010000
00001000
00010000
01000000
00010000
00001000
00010000
01000000
,
00010000
00001000
00010000
01000000
00010000
00000010
00010000
00000010
,
00001000
00010000
00001000
00000100
00001000
00010000
00001000
00000100
,
00001000
00010000
00001000
00000010
00001000
00010000
01000000
10000000
,
00010000
00100000
00010000
00001000
00010000
00100000
00010000
00001000
,
00010000
10000000
00010000
10000000
00010000
00001000
00000100
00000001
,
00001000
00000001
00001000
00000001
00001000
00000001
00001001
00000000
,
00000010
00000000
00000000
00001000
00000000
00000000
00000100
00000000
00000000
00001000
00000000
00000000
00010000
00000000
00100000
00000000
,
10000000
00000000
00000000
10000000
00000000
00000000
10000000
00000000
00000000
01000000
00010000
00000000
00001000
00000000
00000100
00000000
,
00000001
00000000
00000000
00000001
00000000
00000000
00000001
00000000
00000000
00000100
00001000
00000000
00010000
00000000
01000000
00000000
,
00100000
00000000
00000000
00100000
00000000
00000000
00100000
00000000
00000000
01000000
00010000
00000000
10000000
00000000
00100000
00000000
,
01000000
00000000
00000000
00010000
00000000
00000000
00000000
00000000
00000000
00000000
00000000
00000000
00010000
00000000
00000000
00000000
00001000
00000000
00000000
00000000
00000000
00000000
00000000
00000000
00001000
00000000
00000000
00000000
00000100
00000000
00000000
00000000
00000000
00000000
00000000
00000000
00000100
00000000
00000000
00000000
00000001
00000000
00000000
00000000
00000000
00000000
00000000
00000000
00000000
00000000
00000000
00000000
00000000
00000000
00000000
00000000
00000000
00000000
00000000
00000000
00000000
00000000
00000000
00000000
,
00000001
00000000
00000000
00000100
00000000
00000000
00000110
00000000
00000000
00000010
00001000
00000000
00010000
00000000
01000000
00000000
,
10000000
00000000
00000000
01000000
00000000
00000000
01100000
00000000
00000000
00100000
00010000
00000000
00001000
00000000
00000100
00000000
,
00000010
00000000
00000000
00000100
00000000
00000000
00001001
00000000
00000000
00000010
00000100
00000000
00000001
00000000
00000010
00000000
,
00000100
00000000
00000000
00001000
00000000
00000000
00000000
00000000
00000000
00000000
00000000
00000000
00001000
00000000
00000000
00000000
00010000
00000000
00000000
00000000
00000000
00000000
00000000
00000000
00010000
00000000
00000000
00000000
01000000
00000000
00000000
00000000
00000000
00000000
00000000
00000000
01000000
00000000
00000000
00000000
10000000
00000000
00000000
00000000
00000000
00000000
00000000
00000000
00000000
00000000
00000000
00000000
00000000
00000000
00000000
00000000
00000000
00000000
00000000
00000000
00000000
00000000
00000000
00000000
,
00020000
00000010
00000000
00000010
00000000
00000000
00001000
00000000
,
00032000
01000000
00000000
01000000
00000000
00010000
00013000
00000000
,
00000000
00100000
00000000
10000000
00000000
01000000
00000000
00010000
,
00000000
00001000
00000000
00000100
00000000
00000001
00000010
00000000
,
00000100
00000001
00000100
00000000
00001000
00000010
00001000
00000000
00001000
00010000
00001000
00000000
00010000
00100000
00010000
00000000
,
00010000
00000000
01000000
00010000
01000000
00000000
00100000
10000000
00100000
00000000
10000000
00000000
10100000
00000000
00000000
00000000
,
01000000
10000000
00100000
00010000
00001000
00000100
00000010
00000001
,
00000100
00000010
00000100
00000000
00000001
00000100
00000001
00000000
00000010
00000100
00000010
00000000
00001001
00000000
00000000
00000000
,
00000010
00000000
00000000
00000000
00001000
00000000
00000000
00000000
00001000
00010000
01000000
00010000
00001000
00000000
00000000
00000000
,
00100000
00000000
00000000
00000000
00010000
00000000
00000000
00000000
00010000
00001000
00000100
00001000
00010000
00000000
00000000
00000000
,
00100000
10000000
01000000
00100000
00010000
00100000
00010000
01000000
00100000
10000000
01000000
00000000
01000000
00000000
00000000
00000000
,
01010000
00000000
00000000
00000000
00011000
00000000
00000000
00000000
00000010
00000001
00000101
00000000
00000101
00000000
00000000
00000000
,
00001001
00000000
00000000
00000000
00000100
00000000
00000000
00000000
00001000
00010000
01000000
00000000
01000000
00000000
00000000
00000000
,
10010000
00000000
00000000
00000000
01000000
00000000
00000000
00000000
00010000
00001000
00000100
00000000
00000100
00000000
00000000
00000000
,
00001001
00000000
00000000
00000000
00000101
00000000
00000000
00000000
00000001
00000010
00000101
00000000
00000101
00000000
00000000
00000000
,
00001000
00000000
00000000
00000000
00010000
00000000
00000000
00000000
00110000
00010000
11000000
00000000
11000000
00000000
00000000
00000000
,
10000000
01100000
00011000
00000110
,
00000001
00000000
00001000
00001100
00000000
00010000
01010000
00000000
,
00100000
10000000
00010000
00000000
00010000
00000000
00001000
00000100
00000001
00000000
00000001
00000000
00000100
00000010
00001000
00000000
,
00001000
00000000
00010000
01000000
10000000
00000000
10100000
00000000
01000000
00000000
10000000
00000000
10010000
00000000
01010000
00000000
,
00000000
00000000
00000000
00000000
;
