#TITLE:STRIKE (BPM142);
#SUBTITLE:;
#ARTIST:DDR SuperNOVA Mission;
#TITLETRANSLIT:;
#SUBTITLETRANSLIT:;
#ARTISTTRANSLIT:;
#CREDIT:;
#BANNER:;
#BACKGROUND:;
#LYRICSPATH:;
#CDTITLE:./CDTITLES/DanceDanceRevolution SuperNOVA.png;
#MUSIC:STRIKE (BPM142).mp3;
#OFFSET:-0.060;
#SAMPLESTART:0.020;
#SAMPLELENGTH:15.000;
#SELECTABLE:YES;
#BPMS:0.000=142.000;
#STOPS:;
#BGCHANGES:;

//---------------dance-single - ----------------
#NOTES:
     dance-single:
     :
     Easy:
     1:
     0.220,0.266,0.000,0.000,0.000:
0000
0000
0000
0000
,
0000
0000
0000
0000
,
0000
0000
0000
0000
,
0001
0100
1000
0000
0001
0100
1000
0000
,
0000
0000
0000
0000
,
0000
0000
0000
0000
,
0001
0010
1000
0010
,
0001
0010
1000
0010
,
0001
0010
1000
0000
0010
0000
0001
0000
,
0010
1000
0010
0001
,
1000
0010
0001
0010
,
1000
0010
0001
0010
,
1000
0010
0001
0000
0010
0000
1000
0000
,
0010
0001
0010
1000
,
0000
0000
0000
0000
,
0000
0000
0000
0000
,
1000
0100
0001
0000
1000
0100
0001
0000
,
0000
0000
0000
0000
,
0000
0000
0000
0000
,
0001
0100
1000
0000
0001
0100
1000
0000
,
0000
0000
0000
0000
,
0000
0000
0000
0000
,
0001
0100
1000
0100
,
0001
0100
1000
0100
,
0001
0100
1000
0000
0100
0000
0001
0000
,
0100
1000
0100
0001
,
1000
0100
0001
0100
,
1000
0100
0001
0100
,
1000
0100
0001
0000
0100
0000
1000
0000
,
0100
0001
0100
1000
,
0000
0000
0000
0000
,
0000
0000
0000
0000
,
0000
0000
0000
0000
;

//---------------dance-single - ----------------
#NOTES:
     dance-single:
     :
     Medium:
     1:
     0.599,0.500,1.000,0.000,0.000: // measure 1
0000
0000
0000
0000
,  // measure 2
0000
0000
0000
0000
,  // measure 3
1001
1001
1001
1001
,  // measure 4
1001
1001
1001
1001
,  // measure 5
1001
1001
1001
1001
,  // measure 6
1001
1001
1001
1001
,  // measure 7
1001
1001
1001
1001
,  // measure 8
1001
1001
1001
1001
,  // measure 9
1001
1001
1001
1001
,  // measure 10
1001
1001
1001
1001
,  // measure 11
1001
1001
1001
1001
,  // measure 12
1001
1001
1001
1001
,  // measure 13
1001
1001
1001
1001
,  // measure 14
1001
1001
1001
1001
,  // measure 15
1001
1001
1001
1001
,  // measure 16
1001
1001
1001
1001
,  // measure 17
1001
1001
1001
1001
,  // measure 18
1001
1001
1001
1001
,  // measure 19
1001
1001
1001
1001
,  // measure 20
1001
1001
1001
1001
,  // measure 21
1001
1001
1001
1001
,  // measure 22
1001
1001
1001
1001
,  // measure 23
1001
1001
1001
1001
,  // measure 24
1001
1001
1001
1001
,  // measure 25
1001
1001
1001
1001
,  // measure 26
1001
1001
1001
1001
,  // measure 27
1001
1001
1001
1001
,  // measure 28
1001
1001
1001
1001
,  // measure 29
1001
1001
1001
1001
,  // measure 30
1001
1001
1001
1001
,  // measure 31
1001
1001
1001
1001
,  // measure 32
1001
0000
0000
0000
;

//---------------dance-double - ----------------
#NOTES:
     dance-double:
     :
     Easy:
     1:
     0.328,0.256,0.000,0.000,0.000:
10000000
10000000
10000000
10000000
,
10000000
10000000
10000000
10000000
,
10000000
10000000
10000000
10000000
,
10000000
10000000
10000000
10000000
,
10000000
10000000
10000000
10000000
,
10000000
10000000
10000000
10000000
,
10000000
10000000
10000000
10000000
,
10000000
10000000
10000000
10000000
,
10000000
10000000
10000000
10000000
,
10000000
10000000
10000000
10000000
,
10000000
10000000
10000000
10000000
,
10000000
10000000
10000000
10000000
,
10000000
10000000
10000000
10000000
,
10000000
10000000
10000000
10000000
,
10000000
10000000
10000000
10000000
,
10000000
10000000
10000000
10000000
,
10000000
10000000
10000000
10000000
,
10000000
10000000
10000000
10000000
,
10000000
10000000
10000000
10000000
,
10000000
10000000
10000000
10000000
,
10000000
10000000
10000000
10000000
,
10000000
10000000
10000000
10000000
,
10000000
10000000
10000000
10000000
,
10000000
10000000
10000000
10000000
,
10000000
10000000
10000000
10000000
,
10000000
10000000
10000000
10000000
,
10000000
10000000
10000000
10000000
,
10000000
10000000
10000000
10000000
,
10000000
10000000
10000000
10000000
,
10000000
10000000
10000000
10000000
,
10000000
10000000
10000000
10000000
,
10000000
10000000
10000000
10000000
,
00000000
00000000
00000000
00000000
;
