#TITLE:STRIKE (BPM140);
#SUBTITLE:;
#ARTIST:DDR SuperNOVA Mission;
#TITLETRANSLIT:;
#SUBTITLETRANSLIT:;
#ARTISTTRANSLIT:;
#CREDIT:;
#BANNER:;
#BACKGROUND:;
#LYRICSPATH:;
#CDTITLE:./CDTITLES/DanceDanceRevolution SuperNOVA.png;
#MUSIC:STRIKE (BPM140).mp3;
#OFFSET:-0.060;
#SAMPLESTART:0.020;
#SAMPLELENGTH:15.000;
#SELECTABLE:YES;
#BPMS:0.000=139.980;
#STOPS:;
#BGCHANGES:;

//---------------dance-single - ----------------
#NOTES:
     dance-single:
     :
     Easy:
     1:
     0.196,0.243,0.000,0.000,0.000:
0000
0000
0000
0000
,
0000
0000
0000
0000
,
0001
0010
0100
1000
,
0000
0000
0000
0000
,
1000
0010
0100
0001
,
0000
0000
0000
0000
,
0001
0010
0100
1000
,
0000
0000
0000
0000
,
1000
0010
0100
0001
,
0001
0000
0001
0000
,
0001
0010
0100
1000
,
1000
0000
1000
0000
,
1000
0010
0100
0001
,
0001
0001
0001
0001
,
0001
0010
0100
1000
,
1000
1000
1000
1000
,
0000
0000
0000
0000
,
0000
0000
0000
0000
;

//---------------dance-single - ----------------
#NOTES:
     dance-single:
     :
     Medium:
     1:
     0.274,0.243,0.000,0.000,0.000: // measure 1
0000
0000
0000
0000
,  // measure 2
0000
0000
0000
0000
,  // measure 3
0010
0001
0100
1000
,  // measure 4
0010
0001
0100
1000
,  // measure 5
0010
0001
0100
1000
,  // measure 6
0010
0001
0100
1000
,  // measure 7
0010
0001
0100
1000
,  // measure 8
0010
0001
0100
1000
,  // measure 9
0010
1000
0100
0001
,  // measure 10
0010
1000
0100
0001
,  // measure 11
0010
1000
0100
0001
,  // measure 12
0010
1000
0100
0001
,  // measure 13
0010
1000
0100
0001
,  // measure 14
0010
1000
0100
0001
,  // measure 15
0010
1000
0100
0001
,  // measure 16
0010
1000
0100
0001
;

//---------------dance-double - ----------------
#NOTES:
     dance-double:
     :
     Easy:
     1:
     0.333,0.259,0.000,0.000,0.000:
10000000
10000000
10000000
10000000
,
10000000
10000000
10000000
10000000
,
10000000
10000000
10000000
10000000
,
10000000
10000000
10000000
10000000
,
10000000
10000000
10000000
10000000
,
10000000
10000000
10000000
10000000
,
10000000
10000000
10000000
10000000
,
10000000
10000000
10000000
10000000
,
10000000
10000000
10000000
10000000
,
10000000
10000000
10000000
10000000
,
10000000
10000000
10000000
10000000
,
10000000
10000000
10000000
10000000
,
10000000
10000000
10000000
10000000
,
10000000
10000000
10000000
10000000
,
10000000
10000000
10000000
10000000
,
10000000
10000000
10000000
10000000
,
10000000
10000000
10000000
10000000
,
00000000
00000000
00000000
00000000
;
