#TITLE:STRIKE (BPM140);
#SUBTITLE:;
#ARTIST:DDR SuperNOVA Mission;
#TITLETRANSLIT:;
#SUBTITLETRANSLIT:;
#ARTISTTRANSLIT:;
#CREDIT:;
#BANNER:;
#BACKGROUND:;
#LYRICSPATH:;
#CDTITLE:./CDTITLES/DanceDanceRevolution SuperNOVA.png;
#MUSIC:STRIKE (BPM140) 2.mp3;
#OFFSET:-0.060;
#SAMPLESTART:0.020;
#SAMPLELENGTH:15.000;
#SELECTABLE:YES;
#BPMS:0.000=140.140;
#STOPS:;
#BGCHANGES:;

//---------------dance-single - ----------------
#NOTES:
     dance-single:
     :
     Easy:
     1:
     0.200,0.221,0.466,0.000,0.000:
0000
0000
0000
0000
,
0000
0000
0000
0000
,
0000
0000
0000
0000
,
1000
0101
0001
0001
,
0000
0000
0000
0000
,
0001
1100
1000
1000
,
0000
0000
0000
0000
,
0001
0001
0001
0001
,
0000
0000
0000
0000
,
0001
0101
1000
1100
,
0000
0000
0000
0000
,
1010
1010
0101
0101
,
0000
0000
0000
0000
,
1001
0110
1001
0110
,
1000
0101
0001
1100
,
0000
0000
0000
0000
,
0000
0000
0000
0000
,
0000
0000
0000
0000
;

//---------------dance-single - ----------------
#NOTES:
     dance-single:
     :
     Medium:
     1:
     0.171,0.210,0.000,0.399,0.000: // measure 1
0000
0000
0000
0000
,  // measure 2
0000
0000
0000
0000
,  // measure 3
1000
0200
0002
0000
,  // measure 4
0300
0000
1000
0000
,  // measure 5
2000
0000
0000
0003
,  // measure 6
0200
3000
0002
0300
,  // measure 7
2000
0000
0000
0000
,  // measure 8
0000
0000
0000
3003
,  // measure 9
1000
0020
0002
0000
,  // measure 10
0030
0000
1000
0000
,  // measure 11
2000
0000
0000
0003
,  // measure 12
0020
3000
0002
0030
,  // measure 13
2000
0000
0000
0000
,  // measure 14
0000
0000
0000
3003
,  // measure 15
0010
0010
0010
0010
,  // measure 16
0100
0100
0100
0100
;

//---------------dance-double - ----------------
#NOTES:
     dance-double:
     :
     Easy:
     1:
     0.323,0.251,0.000,0.000,0.000:
10000000
10000000
10000000
10000000
,
10000000
10000000
10000000
10000000
,
10000000
10000000
10000000
10000000
,
10000000
10000000
10000000
10000000
,
10000000
10000000
10000000
10000000
,
10000000
10000000
10000000
10000000
,
10000000
10000000
10000000
10000000
,
10000000
10000000
10000000
10000000
,
10000000
10000000
10000000
10000000
,
10000000
10000000
10000000
10000000
,
10000000
10000000
10000000
10000000
,
10000000
10000000
10000000
10000000
,
10000000
10000000
10000000
10000000
,
10000000
10000000
10000000
10000000
,
10000000
10000000
10000000
10000000
,
10000000
10000000
10000000
10000000
,
10000000
10000000
10000000
10000000
,
00000000
00000000
00000000
00000000
;
