#TITLE:Party Collection (BPM128);
#SUBTITLE:;
#ARTIST:DDR SuperNOVA Mission;
#TITLETRANSLIT:;
#SUBTITLETRANSLIT:;
#ARTISTTRANSLIT:;
#CREDIT:;
#BANNER:;
#BACKGROUND:;
#LYRICSPATH:;
#CDTITLE:./CDTITLES/DanceDanceRevolution SuperNOVA.png;
#MUSIC:Party Collection (BPM128).mp3;
#OFFSET:-0.052;
#SAMPLESTART:0.020;
#SAMPLELENGTH:15.000;
#SELECTABLE:YES;
#BPMS:0.000=128.000;
#STOPS:;
#BGCHANGES:;

//---------------dance-single - ----------------
#NOTES:
     dance-single:
     :
     Easy:
     1:
     0.074,0.102,0.000,0.000,0.000: // measure 1
0000
0000
0000
0000
,  // measure 2
0000
0000
0000
0000
,  // measure 3
1000
0001
1000
0000
,  // measure 4
0000
0000
0000
0000
,  // measure 5
0001
1000
0010
0000
,  // measure 6
0000
0000
0000
0000
,  // measure 7
0000
0000
0000
0000
,  // measure 8
0000
0000
0000
0000
,  // measure 9
1000
0001
0010
0000
,  // measure 10
0000
0000
0000
0000
,  // measure 11
0000
0000
0000
0000
,  // measure 12
0000
0000
0000
0000
,  // measure 13
0001
1000
0100
0000
,  // measure 14
0000
0000
0000
0000
,  // measure 15
0000
0000
0000
0000
,  // measure 16
0000
0000
0000
0000
,  // measure 17
0010
1000
0001
0000
,  // measure 18
0000
0000
0000
0000
,  // measure 19
0000
0000
0000
0000
,  // measure 20
0000
0000
0000
0000
,  // measure 21
0010
0001
1000
0000
,  // measure 22
0000
0000
0000
0000
,  // measure 23
0000
0000
0000
0000
,  // measure 24
0000
0000
0000
0000
,  // measure 25
0010
1000
0001
0000
,  // measure 26
0000
0000
0000
0000
,  // measure 27
0000
0000
0000
0000
,  // measure 28
0000
0000
0000
0000
,  // measure 29
0010
0100
0001
0000
,  // measure 30
0000
0000
0000
0000
,  // measure 31
0000
0000
0000
0000
,  // measure 32
0000
0000
0000
0000
,  // measure 33
0001
1000
0001
0000
,  // measure 34
0000
0000
0000
0000
,  // measure 35
1000
0001
0100
0000
,  // measure 36
0000
0000
0000
0000
,  // measure 37
1000
0001
0010
0000
,  // measure 38
0000
0000
0000
0000
,  // measure 39
0001
0010
0100
0000
,  // measure 40
0000
0000
0000
0000
,  // measure 41
1000
0001
1000
0000
,  // measure 42
0000
0000
0000
0000
,  // measure 43
0001
1000
0100
0000
,  // measure 44
0000
0000
0000
0000
,  // measure 45
0001
1000
0010
0000
,  // measure 46
0000
0000
0000
0000
,  // measure 47
1000
0010
0100
0000
,  // measure 48
0000
0000
0000
0000
,  // measure 49
0010
0000
0000
0000
,  // measure 50
0010
0000
0000
0000
;

//---------------dance-single - ----------------
#NOTES:
     dance-single:
     :
     Medium:
     1:
     0.122,0.204,0.416,0.000,0.000:
0000
0000
0000
0000
,
0000
0000
0000
0000
,
1100
0101
1100
0000
,
0000
0000
0000
0000
,
0101
1100
0110
0000
,
0000
0000
0000
0000
,
0000
0000
0000
0000
,
0000
0000
0000
0000
,
1100
0101
0110
0000
,
0000
0000
0000
0000
,
0000
0000
0000
0000
,
0000
0000
0000
0000
,
0011
1010
1100
0000
,
0000
0000
0000
0000
,
0000
0000
0000
0000
,
0000
0000
0000
0000
,
0011
1100
0011
0000
,
0000
0000
0000
0000
,
0000
0000
0000
0000
,
0000
0000
0000
0000
,
0110
1001
1010
0000
,
0000
0000
0000
0000
,
0000
0000
0000
0000
,
0000
0000
0000
0000
,
0011
1100
1001
0000
,
0000
0000
0000
0000
,
0000
0000
0000
0000
,
0000
0000
0000
0000
,
0011
1001
0101
0000
,
0000
0000
0000
0000
,
0000
0000
0000
0000
,
0000
0000
0000
0000
,
0011
0101
1100
1010
,
0000
0000
0000
0000
,
0000
0000
0000
0000
,
0000
0000
0000
0000
,
0011
1100
1010
0101
,
0000
0000
0000
0000
,
0000
0000
0000
0000
,
0000
0000
0000
0000
,
1010
1100
0101
0011
,
0000
0000
0000
0000
,
0000
0000
0000
0000
,
0000
0000
0000
0000
,
1010
0101
0011
1100
,
0000
0000
0000
0000
,
0000
0000
0000
0000
,
0000
0000
0000
0000
,
0010
0000
0000
0000
,
0010
0000
0000
0000
,
0000
0000
0000
0000
;

//---------------dance-double - ----------------
#NOTES:
     dance-double:
     :
     Easy:
     1:
     0.291,0.233,0.000,0.000,0.000:
00000000
00000000
00000000
00000000
,
10000000
10000000
10000000
10000000
,
10000000
10000000
10000000
10000000
,
10000000
10000000
10000000
10000000
,
10000000
10000000
10000000
10000000
,
10000000
10000000
10000000
10000000
,
10000000
10000000
10000000
10000000
,
10000000
10000000
10000000
10000000
,
10000000
10000000
10000000
10000000
,
10000000
10000000
10000000
10000000
,
10000000
10000000
10000000
10000000
,
10000000
10000000
10000000
10000000
,
10000000
10000000
10000000
10000000
,
10000000
10000000
10000000
10000000
,
10000000
10000000
10000000
10000000
,
10000000
10000000
10000000
10000000
,
10000000
10000000
10000000
10000000
,
10000000
10000000
10000000
10000000
,
10000000
10000000
10000000
10000000
,
10000000
10000000
10000000
10000000
,
10000000
10000000
10000000
10000000
,
10000000
10000000
10000000
10000000
,
10000000
10000000
10000000
10000000
,
10000000
10000000
10000000
10000000
,
10000000
10000000
10000000
10000000
,
10000000
10000000
10000000
10000000
,
10000000
10000000
10000000
10000000
,
10000000
10000000
10000000
10000000
,
10000000
10000000
10000000
10000000
,
10000000
10000000
10000000
10000000
,
10000000
10000000
10000000
10000000
,
10000000
10000000
10000000
10000000
,
10000000
10000000
10000000
10000000
,
10000000
10000000
10000000
10000000
,
10000000
10000000
10000000
10000000
,
10000000
10000000
10000000
10000000
,
10000000
10000000
10000000
10000000
,
10000000
10000000
10000000
10000000
,
10000000
10000000
10000000
10000000
,
10000000
10000000
10000000
10000000
,
10000000
10000000
10000000
10000000
,
10000000
10000000
10000000
10000000
,
10000000
10000000
10000000
10000000
,
10000000
10000000
10000000
10000000
,
10000000
10000000
10000000
10000000
,
10000000
10000000
10000000
10000000
,
10000000
10000000
10000000
10000000
,
10000000
10000000
10000000
10000000
,
10000000
10000000
10000000
10000000
,
10000000
10000000
10000000
10000000
,
00000000
00000000
00000000
00000000
;
