#TITLE:FESTIVAL (BPM150);
#SUBTITLE:;
#ARTIST:DDR SuperNOVA Mission;
#TITLETRANSLIT:;
#SUBTITLETRANSLIT:;
#ARTISTTRANSLIT:;
#CREDIT:;
#BANNER:;
#BACKGROUND:;
#LYRICSPATH:;
#CDTITLE:./CDTITLES/DanceDanceRevolution SuperNOVA.png;
#MUSIC:FESTIVAL (BPM150).mp3;
#OFFSET:-0.060;
#SAMPLESTART:0.020;
#SAMPLELENGTH:15.000;
#SELECTABLE:YES;
#BPMS:0.000=150.000;
#STOPS:;
#BGCHANGES:;

//---------------dance-single - ----------------
#NOTES:
     dance-single:
     :
     Easy:
     1:
     0.267,0.373,0.012,0.449,0.000: // measure 1
0000
0000
0000
0000
,  // measure 2
0000
0000
0000
0000
,  // measure 3
2000
0000
3010
0000
,  // measure 4
0002
0000
0013
0000
,  // measure 5
2000
0000
3010
0000
,  // measure 6
0002
0000
0013
0000
,  // measure 7
0000
0000
0000
0000
,  // measure 8
0000
0000
0000
0000
,  // measure 9
2000
3010
0002
0013
,  // measure 10
2000
3010
0002
0013
,  // measure 11
2000
3010
0002
0013
,  // measure 12
2000
3010
0002
0013
,  // measure 13
2000
3010
0002
0013
,  // measure 14
2000
3010
0002
0013
,  // measure 15
2000
3010
0002
0013
,  // measure 16
2000
3010
0002
0013
,  // measure 17
0000
0000
0000
0000
,  // measure 18
0000
0000
0000
0000
,  // measure 19
2000
3010
0002
0013
,  // measure 20
2000
3010
0002
0013
,  // measure 21
1000
0010
0001
0010
,  // measure 22
1000
0010
0001
0010
,  // measure 23
1000
0010
0001
0010
,  // measure 24
1000
0010
0001
0010
,  // measure 25
1000
0000
0000
0000
,  // measure 26
0000
0000
0000
0000
,  // measure 27
0100
0100
0100
0100
,  // measure 28
0100
0100
0100
0000
,  // measure 29
0010
0000
0000
0000
,  // measure 30
0000
0000
0000
0000
,  // measure 31
0100
0100
0100
0100
,  // measure 32
0100
0100
0100
0000
,  // measure 33
2000
0000
0000
0000
,  // measure 34
3100
0000
0000
0000
,  // measure 35
0002
0000
0000
0000
,  // measure 36
0103
0000
0000
0000
,  // measure 37
2000
0000
0000
0000
,  // measure 38
3100
0000
0000
0000
,  // measure 39
0002
0000
0000
0000
,  // measure 40
0103
0000
0000
0000
,  // measure 41
2000
3100
0002
0103
,  // measure 42
2000
3100
0002
0103
,  // measure 43
2000
3100
0002
0103
,  // measure 44
2000
3100
0002
0103
,  // measure 45
1000
0100
0001
0100
,  // measure 46
1000
0100
0001
0100
,  // measure 47
1001
0000
0000
0000
;

//---------------dance-double - ----------------
#NOTES:
     dance-double:
     :
     Easy:
     1:
     0.349,0.279,0.000,0.000,0.000:
00000000
00000000
00000000
00000000
,
10000000
10000000
10000000
10000000
,
10000000
10000000
10000000
10000000
,
10000000
10000000
10000000
10000000
,
10000000
10000000
10000000
10000000
,
10000000
10000000
10000000
10000000
,
10000000
10000000
10000000
10000000
,
10000000
10000000
10000000
10000000
,
10000000
10000000
10000000
10000000
,
10000000
10000000
10000000
10000000
,
10000000
10000000
10000000
10000000
,
10000000
10000000
10000000
10000000
,
10000000
10000000
10000000
10000000
,
10000000
10000000
10000000
10000000
,
10000000
10000000
10000000
10000000
,
10000000
10000000
10000000
10000000
,
10000000
10000000
10000000
10000000
,
10000000
10000000
10000000
10000000
,
10000000
10000000
10000000
10000000
,
10000000
10000000
10000000
10000000
,
10000000
10000000
10000000
10000000
,
10000000
10000000
10000000
10000000
,
10000000
10000000
10000000
10000000
,
10000000
10000000
10000000
10000000
,
10000000
10000000
10000000
10000000
,
10000000
10000000
10000000
10000000
,
10000000
10000000
10000000
10000000
,
10000000
10000000
10000000
10000000
,
10000000
10000000
10000000
10000000
,
10000000
10000000
10000000
10000000
,
10000000
10000000
10000000
10000000
,
10000000
10000000
10000000
10000000
,
10000000
10000000
10000000
10000000
,
10000000
10000000
10000000
10000000
,
10000000
10000000
10000000
10000000
,
10000000
10000000
10000000
10000000
,
10000000
10000000
10000000
10000000
,
10000000
10000000
10000000
10000000
,
10000000
10000000
10000000
10000000
,
10000000
10000000
10000000
10000000
,
10000000
10000000
10000000
10000000
,
10000000
10000000
10000000
10000000
,
10000000
10000000
10000000
10000000
,
10000000
10000000
10000000
10000000
,
10000000
10000000
10000000
10000000
,
10000000
10000000
10000000
10000000
,
10000000
10000000
10000000
10000000
,
10000000
10000000
10000000
10000000
,
10000000
10000000
10000000
10000000
,
10000000
10000000
10000000
10000000
,
00000000
00000000
00000000
00000000
;
