
//----- mcode: trno -----
#TITLE:Turn On the Music (Axwell Radio Edit);
#ARTIST:Roger Sanchez;
#BANNER:Turn On the Music (Axwell Radio Edit).png;
#BACKGROUND:Turn On the Music (Axwell Radio Edit)-bg.png;
#CDTITLE:./CDTitles/DDR SuperNOVA PS2 US.png;
#MUSIC:Turn On the Music (Axwell Radio Edit).ogg;
#SAMPLESTART:8.372;
#SAMPLELENGTH:15;
#BPMS:0=129;
#NOTES:dance-single::Easy:3::
0000
0000
0000
0000
,
0000
0000
0000
0000
,
0100
0000
0000
0000
,
0001
0100
1000
0000
,
0001
0100
1000
0000
,
0010
0000
0000
0000
,
0100
0000
0000
0000
,
1000
0100
0001
0000
,
1000
0100
0001
0000
,
0100
0000
0000
0000
,
0010
0000
0000
0000
,
0001
0100
1000
0000
,
0001
0100
1000
0000
,
0100
0000
0010
0000
,
0100
0000
0010
0000
,
1000
0000
0100
0000
,
0001
0000
0100
0000
,
2000
0000
0000
3000
,
0002
0000
0000
0003
,
0200
0000
0000
0300
,
0020
0000
0000
0030
,
1000
0100
1000
0000
,
0001
0100
0001
0000
,
1000
0010
1000
0000
,
0001
0010
0001
0000
,
1001
0000
0000
0000
,
0110
0000
0000
0000
,
0200
0300
0020
0030
,
0002
0003
0020
0030
,
0100
1000
0001
0000
,
0100
0000
0100
0000
,
0001
1000
0010
0000
,
1000
0000
1000
0000
,
0010
1000
0001
0000
,
0100
0000
0100
0000
,
0001
1000
0010
0000
,
2002
0000
0000
3003
,
1000
1000
1000
0100
,
0020
0000
0000
0030
,
0001
0001
0001
0010
,
0200
0000
0000
0300
,
1000
1000
1000
0100
,
0020
0000
0000
0030
,
0001
0001
0001
0010
,
0200
0000
0000
0300
,
1000
1000
0100
0100
,
0010
0010
0001
0001
,
0200
0300
0020
0030
,
0200
0300
0020
0030
,
1000
0100
0001
0000
,
1000
0100
0001
0000
,
1001
0000
0000
0000
;
#NOTES:dance-single::Medium:5::
0000
0000
0000
0000
,
0000
0000
0000
0000
,
0100
0100
0010
0100
,
1000
0100
0100
0010
,
0001
0001
0100
0010
,
1000
0010
0200
0000
0300
0000
0001
0000
,
0010
0010
0100
1000
,
0001
0100
0020
0000
0030
0000
1000
0000
,
0100
0100
1000
0001
,
0100
0010
2000
0000
3000
0000
0010
0000
,
0100
0100
0001
1000
,
0010
0100
0002
0000
0003
0000
1000
0000
,
0010
0100
0001
1000
,
0101
0100
0010
0100
,
1100
1000
0001
1000
,
1001
0001
0100
0001
,
0101
0100
0010
0100
,
0002
0000
0203
0000
,
2300
0000
3200
0000
,
0302
0000
0023
0000
,
0230
0000
2300
0000
,
3100
0010
0001
0000
0001
0000
0100
0000
,
0010
0100
1000
0100
,
0001
0010
0100
0000
0100
0000
1000
0000
,
0010
0100
0001
1000
,
0001
0100
0001
0000
1000
0000
0100
0000
,
0010
0100
0010
0000
0100
0000
1000
0000
,
1001
0100
0001
0100
,
1001
0010
1000
0010
,
0100
0100
0002
0000
,
0103
0100
0010
0010
,
1000
1000
0200
0000
,
1300
1000
0010
0010
,
0100
0100
0002
0000
,
1003
1000
0001
0001
,
0100
0100
0020
0000
,
2030
0000
0000
3000
,
1000
0010
0200
0000
0300
0000
0001
0000
,
0010
0010
0100
1000
,
0001
0100
0020
0000
0030
0000
1000
0000
,
0100
0100
1000
0001
,
0100
0010
2000
0000
3000
0000
0010
0000
,
0100
0100
0001
1000
,
0010
0100
0002
0000
0003
0000
1000
0000
,
0001
0100
0100
0010
,
1000
0100
0010
0000
0001
0000
0001
0000
,
0010
0100
1000
0000
1000
0000
1000
0000
,
0001
0100
0010
0000
0100
0000
0100
0000
,
0010
1000
0100
0000
0010
0000
0010
0000
,
1100
0100
0010
0100
,
0101
0001
0100
0001
,
1001
0000
0000
0000
;
#NOTES:dance-single::Hard:7::
0000
0000
0000
0000
,
0000
0000
0000
0000
,
0010
1100
0001
0011
,
0010
0001
0100
0000
1000
0010
1000
0000
,
0200
0010
0001
0310
,
1000
0000
0100
0000
0010
0000
0100
1000
,
0010
0101
1000
1010
,
0010
1000
0100
0000
0001
0010
0001
0000
,
0200
0010
1000
0310
,
0001
0000
0100
0000
0010
0000
1000
0100
,
0010
1001
0001
0110
,
0010
0001
0100
0000
0010
1000
0010
0000
,
0200
0001
1000
0301
,
0020
0000
1000
0000
1030
0100
0001
0200
,
0000
0000
0010
0000
0310
0001
0100
2000
,
0000
0000
0100
0000
3100
0001
0010
0002
,
0000
0010
0000
0100
0000
0010
0000
0103
,
0100
0001
0100
1001
,
0100
0010
0100
1001
,
0100
0010
1000
0000
0001
0010
0100
0000
,
0010
0001
1000
0000
0100
1000
0010
0000
,
0100
0000
0101
0000
1100
0000
0100
1000
,
0010
0000
0100
0000
0010
1000
0100
1000
,
0001
0000
1001
0000
0110
0000
1000
0100
,
0001
0000
0100
0000
0010
0001
0100
0001
,
1000
0000
0101
0000
1100
0000
0100
1000
,
0010
0000
0010
0000
0001
0010
1000
0100
,
0000
0110
0000
0100
0000
0110
0000
1000
,
0000
0110
0000
0001
0000
0110
0000
0010
,
0001
0100
0000
1000
0010
1000
0000
0100
,
0001
0010
0000
0100
1000
0100
0001
0100
,
1000
0100
0010
0100
1000
0100
0001
0200
,
0000
1000
0000
0010
0000
1300
0000
0010
,
1000
0100
0000
0001
0010
0001
0000
0100
,
1000
0010
0000
0100
0001
0100
1000
0100
,
0001
0100
0010
0100
0001
0100
1000
0200
,
0000
0010
0000
1300
0000
0000
0000
0000
,
0100
0000
0011
0000
1100
0000
1000
0010
,
0100
0000
0001
0000
0010
0001
0100
1000
,
0100
0001
0010
0000
1000
0010
1000
0000
,
0100
0000
0010
0000
0100
0001
0100
1000
,
0010
0000
1100
0000
0101
0000
0100
0001
,
1000
0000
0100
0000
0010
0100
0010
0001
,
0010
0100
0010
0000
0001
0100
0001
0000
,
1000
0000
0100
0000
0001
0100
1000
0100
,
0001
0100
0010
0001
0010
0000
0100
0000
,
1000
0010
0100
1000
0100
0000
0001
0000
,
1000
0010
1000
0000
0001
0100
0001
0000
,
0010
1000
0100
1000
0010
0100
0001
0010
,
0100
1000
0010
0000
0110
0000
0100
0000
,
1001
0010
0110
0100
,
2002
0000
0000
3003
;
#NOTES:dance-single::Beginner:1::
0000
0000
0000
0000
,
0000
0000
0000
0000
,
1000
0000
0000
0000
,
0001
0000
0000
0000
,
0100
0000
0100
0000
,
0010
0000
0000
0000
,
1000
0000
0000
0000
,
0001
0000
0000
0000
,
0100
0000
0100
0000
,
0010
0000
0000
0000
,
1000
0000
0000
0000
,
0001
0000
0000
0000
,
0100
0000
0100
0000
,
0010
0000
0000
0000
,
1000
0000
1000
0000
,
0001
0000
0000
0000
,
1000
0000
1000
0000
,
0001
0000
0000
0000
,
0100
0000
0000
0000
,
0010
0000
0000
0000
,
1000
0000
0000
0000
,
0100
0100
0100
0000
,
0100
0000
0010
0000
,
0010
0010
0010
0000
,
0010
0000
0001
0000
,
0001
0000
0000
0000
,
1000
0000
0000
0000
,
0001
0001
0001
0001
,
0001
0000
0000
0000
,
1001
0000
0000
0000
,
1001
0000
0000
0000
,
0100
0000
0000
0000
,
0100
0000
0000
0000
,
1001
0000
0000
0000
,
1001
0000
0000
0000
,
0100
0000
0000
0000
,
0100
0000
0000
0000
,
1000
1000
0000
0000
,
0001
0001
0000
0000
,
0100
0100
0000
0000
,
0010
0010
0000
0000
,
1000
1000
0000
0000
,
0001
0001
0000
0000
,
0100
0100
0000
0000
,
0010
0010
0000
0000
,
1000
0000
0000
0000
,
0001
0000
0000
0000
,
1001
0000
0000
0000
,
1001
0000
0000
0000
,
1000
0000
0000
0000
,
0001
0000
0000
0000
,
1001
0000
0000
0000
;
#NOTES:dance-double::Easy:3::
00000000
00000000
00000000
00000000
,
00000000
00000000
00000000
00000000
,
00001000
00000000
00010000
00000000
,
01000000
10000000
01000000
00000000
,
10000000
01000000
10000000
00000000
,
00100000
00000000
10000000
00000000
,
01000000
00000000
00010000
00000000
,
00001000
00010000
00001000
00000000
,
00010000
00001000
00010000
00000000
,
00001000
00000000
00000100
00000000
,
00000001
00000000
00000010
00000000
,
00000001
00000100
00000001
00000000
,
00000100
00000001
00000100
00000000
,
00000001
00000000
00001000
00001000
,
00001000
00000000
00000100
00000100
,
00000100
00000000
00010000
00000000
,
00010000
00000000
01000000
00000000
,
20000000
00000000
00000000
30000000
,
00200000
00000000
00000000
00300000
,
02000000
00000000
00000000
03000000
,
00020000
00000000
00000000
00030000
,
10000000
01000000
00010000
00001000
,
00010000
00001000
00000100
00000001
,
00000010
00000000
00000100
00000000
,
00001000
00000000
00000001
00000100
,
00001000
00000000
00001000
00000000
,
00010000
00000000
00010000
01000000
,
10000000
01000000
00010000
01000000
,
10000000
00000000
00100000
00000000
,
10000000
01000000
10000000
01000000
,
00010000
00001000
00010000
00001000
,
00000100
00000000
00000100
00000000
,
00000001
00000000
00000010
00000000
,
00000001
00000100
00000001
00000100
,
00001000
00010000
00001000
00010000
,
01000000
00000000
01000000
00000000
,
10010000
00000000
00000000
00000000
,
10000000
00000000
01000000
00000000
,
00010000
00000000
00001000
00000000
,
00000100
00000001
00000100
00000000
,
00000001
00000100
00000001
00000000
,
00000010
00000000
00000001
00000000
,
00000100
00000000
00001000
00000000
,
00010000
00001000
00010000
00000000
,
00001000
00010000
00001000
00000000
,
00010000
00000000
01000000
00000000
,
10000000
00100000
10000000
00000000
,
01000000
00000000
00010000
00000000
,
00001000
00010000
00001000
00000000
,
00000100
00000000
00000001
00000000
,
00000010
00000000
00000001
00000000
,
00000200
00000000
00000000
00000300
;
#NOTES:dance-double::Medium:6::
00000000
00000000
00000000
00000000
,
00000000
00000000
00000000
00000000
,
00010000
01000000
10000000
00100000
,
01000000
00010000
00100000
00001000
,
00010000
00000000
00001000
00000000
00000100
00000000
00000001
00000010
,
00000010
00000001
00000100
00001000
,
00010000
01000000
10000000
00100000
,
01000000
00010000
00100000
00001000
,
00010000
00000000
00001000
00000000
00010000
00000000
01000000
10000000
,
10000000
00100000
00010000
00001000
,
00000010
00000001
00000100
00001000
,
00010000
00001000
00010000
01000000
,
10000000
00000000
00100000
00000000
01000000
00000000
00010000
00010000
,
00100000
00000000
00000000
00000000
00001000
00010000
00001000
00000100
,
00000000
00000000
00000000
00000000
00000001
00000010
00000001
00000100
,
00000000
00000000
00000000
00000000
00010000
00001000
00010000
01000000
,
00000000
10000000
01000000
00100000
,
00020000
00030000
00200000
00300000
,
00002000
00003000
00020000
00030000
,
00000100
00000100
00001000
00001000
,
00001001
00000000
00000000
00000000
,
00000010
00000001
00000100
00000000
00001000
00000000
00001000
00000000
,
00001000
00010000
01000000
00000000
01000000
00000000
01000000
00000000
,
10000000
00100000
01000000
00010000
,
10010000
00000000
00000000
00000000
00100000
10000000
00100000
01000000
,
00000000
00020000
00000000
00000000
00000000
00000000
00030000
00000000
,
00000000
00100000
00010000
01000000
00100000
10000000
01000000
00020000
,
00000000
00001000
00000000
00032000
00000000
00000100
00000000
00003100
,
00000000
00000000
00000001
00000000
00000010
00000001
00000000
00000110
,
00000000
00000001
00000100
00001000
,
00000100
00000000
00000001
00000000
00000100
00001000
00000000
00011000
,
00000000
00000100
00001000
00010000
,
00001000
00000000
00000100
00000000
00001000
00010000
00000000
01001000
,
00000000
00010000
01000000
10000000
,
01000000
00000000
00010000
00000000
01000000
00100000
00000000
01010000
,
00000000
01000000
00001000
00010000
,
00000200
00000000
00000000
00000300
,
00000010
00000001
00000100
00001000
,
00010000
01000000
10000000
00100000
,
01000000
00010000
00100000
00001000
,
00010000
00000000
00001000
00000000
00000100
00000000
00000001
00000001
,
00000010
00000001
00000100
00001000
,
00010000
01000000
10000000
00100000
,
01000000
00010000
00100000
00001000
,
00010000
00000000
00001000
00000000
00010000
00000000
01000000
01000000
,
10000000
00100000
01000000
00010000
,
00100000
00000000
00001000
00000000
00010000
00000000
00001000
00001000
,
00000100
00000001
00000100
00001000
,
00000100
00000000
00000001
00000000
00000010
00000000
00000001
00000001
,
00000100
00001000
00010000
00000000
,
00100000
10000000
01000000
00010000
,
00011000
00000000
00000000
00000000
;
#NOTES:dance-double::Hard:7::
00000000
00000000
00000000
00000000
,
00000000
00000000
00000000
00000000
,
00000010
00000000
00001000
00000000
00000001
00000000
00000100
00000010
,
00001000
00000000
00000100
00000000
00010000
00000000
00000100
00000010
,
00000001
00000000
00000100
00000000
00001000
00000100
00000001
00000100
,
00001000
00000000
00010000
00000000
01000000
00000000
10000000
00100000
,
01000000
00000000
00010000
00000000
00100000
00000000
01000000
10000000
,
00010000
00000000
00100000
00000000
00001000
00000000
00100000
00010000
,
10000000
00000000
01000000
00000000
00010000
00001000
00000100
00001000
,
00010000
00000000
00001000
00000000
00000100
00000000
00000001
00001000
,
00000010
00000000
00001000
00000000
00000010
00000000
00000100
00000001
,
00001000
00000000
00000100
00000000
00010000
00000000
00000100
00000010
,
00000001
00000000
00000100
00000000
00001000
00010000
01000000
00010000
,
00001000
00000000
00000000
01001000
01000000
00010000
01000000
00100000
,
00000000
00000000
00000000
11000000
10000000
00100000
10000000
00010000
,
00000000
00000000
00000000
00101000
00001000
00010000
00001000
00100000
,
00010000
01000000
00010000
00100000
01000000
00000000
01000000
00000000
,
11000000
00100000
01010000
00100000
,
00011000
00000100
00001001
00000100
,
00001010
00000000
00000001
00000000
00000110
00000000
00000001
00000001
,
00000000
00000000
00000000
00000000
00000000
00000100
00000001
00000100
,
00001000
00000000
00011000
00000000
00100000
00010000
01000000
00100000
,
10000000
00000000
11000000
00000000
10000000
01000000
00100000
00010000
,
01000000
00000000
01001000
00000000
00010000
00001000
00010000
00000100
,
00001000
00000000
00001010
00000000
00000010
00000001
00000010
00001000
,
00000000
00000020
00000000
00000000
00000001
00000000
00001030
00000000
,
00001000
00000100
00000010
00000001
00000100
00001000
00010000
00002000
,
00000000
02003000
00000000
03010000
00010000
00020000
00000000
00100000
,
00130000
00000000
01000000
00000000
10000000
01000000
00000000
00100000
,
00000000
00000000
01010000
00000000
11000000
00000000
00100000
00010000
,
01000000
00000000
01001000
00000000
00011000
00000000
00010000
00001000
,
00000100
00000001
00000000
00000010
00000001
00001000
00000000
00000100
,
00001000
00000010
00000000
00000100
00001000
00010000
00000000
00100000
,
00010000
00001000
00000000
00000100
00001000
00010000
00000000
00100000
,
00010000
00001000
00000000
00010000
01000000
10000000
00000000
00100000
,
00010000
00001000
00010000
01000000
00010000
00001000
00000100
00002000
,
00000000
00010000
00000000
00013000
00000000
00000000
00000000
00000100
,
00000100
00000000
00000001
00000000
00001000
00000000
00000010
00000100
,
00001000
00000000
00000100
00000000
00010000
00000000
00001000
00100000
,
00010000
00000000
01000000
00000000
00100000
00000000
10000000
00010000
,
01000000
00000000
00100000
00000000
01000000
10000000
01000000
00010000
,
01000000
00000000
00100000
00000000
00010000
00000000
00001000
00010000
,
00000100
00000000
00000010
00000000
00001000
00000000
00000010
00000001
,
00001000
00000000
00000100
00000000
00010000
00000000
00000100
00001000
,
00000010
00000000
00000100
00000000
00001000
00010000
01000000
00010000
,
00001000
00000000
00000100
00000000
00000001
00000000
00000010
00000001
,
00000100
00000000
00001000
00000000
00010000
00000000
00001000
00100000
,
00010000
00000000
01000000
00000000
00100000
00000000
01000000
00010000
,
10000000
00000000
01000000
00000000
00010000
00001000
00000100
00001000
,
00010000
00000000
00000100
00000000
00010000
00000000
00001000
00000010
,
00000100
00000000
00001000
00000000
00000001
00000000
00000100
00000010
,
00002002
00000000
00000000
00003003
;
