
//----- mcode: robo -----
#TITLE:Robogirl;
#ARTIST:The Crystal Method;
#BANNER:Robogirl.png;
#BACKGROUND:Robogirl-bg.png;
#CDTITLE:./CDTitles/DDR SuperNOVA PS2 US.png;
#MUSIC:Robogirl.ogg;
#SAMPLESTART:14;
#SAMPLELENGTH:15;
#BPMS:0=120;
#NOTES:dance-single::Easy:3::
0000
0000
0000
0000
,
0000
0000
0000
0000
,
0000
0000
0000
0000
,
1001
0000
0000
0100
,
0110
0000
0000
0100
,
0001
1000
0000
0001
,
0010
0010
0000
0100
,
1000
0001
1000
0000
,
0010
0010
0000
0100
,
0001
1000
0001
0000
,
0100
0100
0000
0000
,
1000
0001
0010
0000
,
0100
0100
0000
1000
,
0001
0100
0001
0000
,
0010
0010
0000
0100
,
2000
0000
0000
3001
,
2000
0000
0000
3010
,
0200
0000
0000
0301
,
0020
0000
0000
0130
,
1000
1000
0001
1000
,
0010
0010
0100
0100
,
0001
0001
1000
0001
,
0100
0100
0010
0100
,
0010
0000
1000
0001
,
0010
0100
1000
0100
,
0001
0000
1000
0010
,
0100
0001
1000
0001
,
0100
0000
0100
0010
,
1000
0001
1000
0100
,
1000
0000
0001
0010
,
0100
1000
0001
1000
,
0200
0000
1300
0001
,
0200
0000
0301
1000
,
0200
0000
1300
0001
,
0200
0000
0301
1000
,
0020
0000
1030
0001
,
0020
0000
0031
1000
,
0020
0000
1030
0001
,
0020
0000
0031
1000
,
0001
0001
1000
0001
,
0100
0100
0020
0030
;
#NOTES:dance-single::Medium:5::
0000
0000
0000
0000
,
0000
0000
0000
0000
,
0000
0000
0000
0000
,
1010
0000
0000
0000
0000
0001
0001
0000
,
0011
0000
0000
0000
0000
1000
1000
0000
,
0001
0000
0100
0000
0000
0010
0010
0000
,
1000
0000
0001
0000
0000
0100
0100
0000
,
0001
0000
0000
0000
0000
0100
0000
0000
0000
0000
1000
0000
0010
0000
0000
0000
,
2000
0000
0001
3001
,
1000
0000
0000
0000
0000
0010
0000
0000
0000
0000
0001
0000
0010
0000
0000
0000
,
0002
0000
1000
1003
,
1000
0000
0000
0000
0000
0010
0000
0000
0000
0000
1000
0000
0100
0000
0000
0000
,
0002
0000
0100
0103
,
0001
0000
0000
0000
0000
0100
0000
0000
0000
0000
0010
0000
0100
0000
0000
0000
,
2000
0000
0010
3010
,
1000
0000
0000
0000
0000
0010
0000
0000
0000
0000
1000
0000
0100
0000
0000
0000
,
0001
0000
0000
0000
0000
1000
0000
0000
0000
0000
0000
0000
0000
0000
0000
0000
,
0001
0000
0000
0000
0000
0100
0000
0000
0000
0000
0010
0000
0100
0000
0000
0000
,
1000
0000
0000
0000
0000
0010
0000
0000
0000
0000
0000
0000
0000
0000
0000
0000
,
2000
0000
3001
0100
0002
0000
0013
0100
,
0020
0000
0130
1000
0200
0000
1300
0001
,
2000
0000
3001
0100
0002
0000
1003
0010
,
2000
0000
3010
0010
2000
0000
3100
0100
,
1000
0000
0100
1000
0010
0000
0001
0000
,
0010
0000
0002
0100
0103
0000
0000
0000
,
0001
0000
0100
0010
1000
0000
0001
0000
,
1000
0000
0200
0010
0310
0000
0000
0000
,
0001
0000
1000
0100
0010
0000
1000
0001
,
0100
0000
0020
0100
0130
0000
0000
0000
,
0001
0000
1000
0010
0100
0000
0001
1000
,
0100
0000
2000
0100
3100
0000
0000
0000
,
1000
0000
1010
1000
0010
0000
0110
0100
,
0200
0010
0001
0310
,
1000
0000
1001
1000
0001
0000
0101
0100
,
0002
1000
0100
1003
,
1000
0100
1000
0000
0101
0000
0101
0100
,
0002
1000
0010
0103
,
0001
0100
0001
0000
1100
0000
1100
0100
,
2000
0001
0010
3100
,
0001
0000
0000
0000
0000
0100
0000
0000
0000
0000
0001
0000
0100
0000
0000
0000
,
0010
0000
0000
0000
0000
0220
0000
0000
0000
0000
0000
0000
0330
0000
0000
0000
;
#NOTES:dance-single::Hard:8::
0000
0000
0000
0000
,
0000
0000
0000
0000
,
0000
0000
0000
0000
,
1002
0100
0013
0000
0000
1000
0001
0100
,
0020
1000
0130
0000
0000
0001
0100
0000
,
1000
0100
0010
0000
0001
0100
0010
0000
,
0001
1000
0100
0000
1000
0001
0101
0000
,
1000
0000
0000
0000
0100
0001
0000
0100
0000
0001
0010
0000
0100
0000
1000
0000
,
0001
0000
0000
0000
1000
0100
0000
0000
0010
0000
0010
0000
1000
0100
0000
0001
,
0010
0000
0000
0000
0100
0001
0000
0010
0000
0001
0100
0000
0010
0000
0001
0000
,
1000
0000
0000
0000
0001
0010
0000
0000
0100
0000
0100
0000
0001
0000
0000
0000
,
0100
0000
0000
0000
0001
1000
0000
0001
0000
0100
0010
0000
1000
0000
0001
0000
,
0100
0000
0000
0000
0010
0100
0000
0000
0010
0000
0010
0000
1000
0001
0000
0010
,
0100
0000
0000
0000
0001
0010
0000
0001
0000
1000
0100
0000
0010
0000
0001
0000
,
0100
0000
0000
0000
0010
1000
0000
0000
0100
0000
0100
0000
0110
0000
0000
0000
,
1001
0000
0000
0000
0000
0101
0000
0000
0000
0011
0000
0000
0011
0000
1001
0000
,
1100
0000
0000
0000
0000
0220
0000
0000
0000
0000
0000
0000
0330
0000
0000
0000
,
1001
0000
0000
0000
0000
1100
0000
0000
0000
1010
0000
0000
1010
0000
1001
0000
,
0101
0000
0000
0000
0000
0220
0000
0000
0000
0000
0000
0000
0330
0000
0000
0000
,
1000
0100
0010
0110
0010
0001
0100
0110
,
1000
0001
0010
0011
0010
0100
1000
1100
,
1000
0010
1000
1001
0001
0010
0001
1001
,
1000
0010
0200
0000
0000
0010
0310
0000
,
0001
0000
0010
0000
0001
0100
0000
0010
0000
1000
0001
0000
0010
0000
0100
0000
,
1000
0100
1100
0000
0001
0100
0101
0000
,
0001
0000
0100
0000
0010
0100
0000
0010
0000
1000
0001
0000
0100
0000
0010
0000
,
1000
0001
0011
0000
0100
1000
1001
0000
,
1000
0000
0100
0000
1000
0010
0000
0100
0000
0001
1000
0000
0100
0000
0010
0000
,
0001
0010
0011
0000
1000
0010
1010
1000
,
1000
0000
0010
0000
0100
0010
0000
0100
0000
0001
1000
0000
0010
0000
0100
0000
,
0001
1000
1100
0000
0010
0001
1001
0001
,
1000
0100
1000
1010
0010
0100
0001
1001
,
1000
0010
0100
0101
0100
0010
0100
0110
,
0010
1000
0001
0101
0001
1000
0100
1100
,
0100
0010
0001
0011
0002
1000
1003
0000
,
1000
0100
0110
0000
0001
0100
0110
0000
,
0001
1000
0010
1010
0010
0100
0101
0000
,
1100
1000
1001
0000
0101
0100
1001
0000
,
0001
1000
0010
0110
0100
0001
1001
0000
,
1001
0000
0000
0000
0000
0110
0000
0000
0000
1100
0000
0000
1100
0000
1001
0000
,
0011
0000
0000
0000
0000
2020
0000
0000
0000
0000
0000
0000
3030
0000
0000
0000
;
#NOTES:dance-single::Beginner:1::
0000
0000
0000
0000
,
0000
0000
0000
0000
,
0000
0000
0000
0000
,
1000
0000
0000
0000
,
0001
0000
0000
0000
,
0010
0010
0000
0000
,
0100
0100
0000
0000
,
0001
0000
1000
0000
,
0010
0000
0000
0000
,
0001
0000
1000
0000
,
0100
0000
0000
0000
,
0001
0000
0001
0000
,
0100
0100
0000
0000
,
0010
0000
1000
0000
,
0100
0100
0000
0000
,
0010
0000
0001
0000
,
1000
0000
0000
0000
,
0001
0000
0000
0000
,
1000
0000
0000
0000
,
2002
0000
0000
3003
,
0000
0000
0000
0000
,
0220
0000
0000
0330
,
0000
0000
0000
0000
,
1000
1000
0000
0001
,
0001
0001
0000
0000
,
1000
1000
0000
0100
,
0100
0100
0000
0000
,
0010
0010
0000
0001
,
0001
0001
0000
0000
,
0100
0100
0000
0010
,
0010
0010
0000
0000
,
1000
0000
0001
0000
,
0020
0000
0000
0030
,
0010
0000
0001
0000
,
0200
0000
0000
0300
,
0100
0000
0001
0000
,
2000
0000
0000
3000
,
1000
0000
0010
0000
,
0200
0000
0000
0300
,
0100
0100
0000
0001
,
0001
0001
0002
0003
;
#NOTES:dance-double::Easy:4::
00000000
00000000
00000000
00000000
,
00000000
00000000
00000000
00000000
,
00000000
00000000
00000000
00000000
,
10010000
00000000
01000000
00010000
,
00011000
00000000
00000000
00000100
,
00001001
00000000
00000010
00001000
,
00011000
00100000
00000000
01000000
,
00010000
10000000
00010000
00000000
,
10000000
01000000
00000000
01000000
,
00010000
00001000
00010000
00000000
,
00001000
00000100
00000000
00000000
,
00000100
00000001
00001000
00000000
,
00000100
00000010
00000000
00000010
,
00001000
00010000
00001000
00000000
,
01000000
00100000
00000000
10000000
,
00020000
00000000
00000000
00130000
,
02000000
00000000
00000000
03010000
,
00002000
00000000
00000000
00013000
,
00000200
00000000
00000000
00000310
,
00000001
00000001
00001000
00000010
,
00010000
00010000
00001000
00001000
,
00100000
00100000
00010000
01000000
,
00100000
00100000
10000000
10000000
,
02000000
03010000
00020000
00031000
,
00010000
00001000
00000100
00000001
,
00002000
00003100
00000200
00010300
,
00001000
01000000
00000000
00100000
,
00200000
01300000
02000000
03010000
,
00100000
00001000
00000000
00000010
,
00002000
00003001
00000002
00001003
,
00000100
00000010
00000000
00001000
,
00020000
00000000
01030000
10000000
,
02000000
00000000
03010000
00001000
,
00000200
00000000
00000301
00000100
,
00000002
00000000
00000103
00001000
,
00020000
00000000
00130000
10000000
,
00200000
00000000
00310000
00001000
,
00000020
00000000
00000031
00000010
,
00000002
00000000
00000013
00001000
,
00010000
00010000
00001000
01000000
,
00100000
00100000
20000000
30000000
;
#NOTES:dance-double::Medium:6::
00000000
00000000
00000000
00000000
,
00000000
00000000
00000000
00000000
,
00000000
00000000
00000000
00000000
,
00002002
00000000
00003003
00000000
00000100
00001000
00010000
00000000
,
00022000
00000000
00033000
00000000
00001000
00010000
01000000
00000000
,
11000000
00000000
01010000
00000000
01000000
00100000
01000000
00000000
,
00001000
00010000
00001000
00000000
00000010
00000100
00000010
00000000
,
00002001
00000000
00000100
00000000
00003001
00000000
00000010
00000001
,
00000200
00001300
00010000
00100000
,
20010000
00000000
01000000
00000000
30010000
00000000
00100000
00010000
,
02000000
00000000
03100000
00000000
00010000
00001000
00000100
00000000
,
00000102
00000000
00001000
00000000
00000103
00000000
00000001
00000010
,
00002000
00013000
01000000
00100000
,
21000000
00000000
00010000
00000000
31000000
00000000
10000000
00100000
,
00020000
00000000
00031000
00000000
00000100
00000001
00000010
00000000
,
00002002
00000000
00000000
00000000
00003003
00000000
00000100
00010000
,
00011000
00000000
01001000
00000000
00010000
00001000
00100000
00010000
,
20020000
00000000
00000000
00000000
30030000
00000000
00100000
00001000
,
00011000
00000000
00010010
00000000
00001000
00010000
00000100
00001000
,
00000010
00001100
00000001
00000100
,
00001000
00000000
00011000
00000000
00100000
00100000
01010000
00000000
,
10000000
01010000
00100000
01000000
,
00001000
00000000
00011000
00000000
00000100
00000100
00001010
00000000
,
00000001
00000000
00000100
00000000
00000001
00000000
00000020
00001000
,
00002030
00000000
00010000
00000000
00100000
00000000
00013000
00001000
,
00100000
00000000
01000000
00000000
10000000
00000000
00200000
00010000
,
00320000
00000000
00001000
00000000
00000010
00000000
00031000
00010000
,
00000010
00000000
00000101
00000000
00000011
00000000
00000100
00001000
,
00000010
00000000
00000100
00000010
00001000
00000000
00000100
00010000
,
00001000
00000000
01010000
00000000
00110000
00000000
01000000
10000000
,
00100000
00000000
01000000
00100000
10000000
00000000
00010000
01000000
,
00001000
00000000
00011000
00000000
00000100
00001000
00000001
00000000
,
00000100
00000000
00001001
00000000
00000010
00010000
00001000
00000000
,
00010000
00000000
00011000
00000000
01000000
00010000
10000000
00000000
,
01000000
00000000
10010000
00000000
00100000
00001000
00010000
00000000
,
00001000
00001000
00000100
00000000
00000001
00000001
00000100
00000000
,
00001000
00001000
00010000
00000000
00100000
00100000
10000000
00000000
,
00100000
00100000
00010000
00000000
00001000
00001000
00000010
00000000
,
00000001
00000001
00000010
00000000
00001000
00001000
00010000
00000000
,
00021000
00000000
02030000
00000000
23000000
00000000
30100000
00010000
,
00002000
00003200
00000302
00000000
,
00000003
00000000
00000000
00000000
;
#NOTES:dance-double::Hard:8::
00000000
00000000
00000000
00000000
,
00000000
00000000
00000000
00000000
,
00000000
00000000
00000000
00000000
,
02100000
00000000
03001000
00000000
00010000
00000100
00001000
00000000
,
00000210
00000000
00000000
00000000
00010300
00000000
00000000
00000000
00001000
00000000
01000000
00000000
00010000
00100000
00000000
00010000
,
01000000
00000000
00110000
00000000
01000000
00001000
00010000
00000000
,
00000100
00000000
00001010
00000000
00000100
00010000
00001000
00000000
,
00011000
00000000
00000000
00000000
01000000
00100000
00000000
00000000
01000000
00010000
00000000
00000000
00100000
00000000
00010000
00000000
,
20000000
00000000
30020000
00000000
01030000
00100000
00010000
00001000
,
00000010
00000000
00000000
00000000
00000100
00000010
00000000
00000000
00000100
00001000
00000000
00000000
00000010
00000000
00001000
00000000
,
00000002
00000000
00000000
00000000
00002003
00000000
00000000
00000000
00003010
00000000
00000100
00000000
00001000
00010000
00000000
00010000
,
00001000
00000000
00000000
00000000
00100000
00001000
00000000
00000000
01000000
00010000
00000000
00000000
10000000
00000000
00100000
00000000
,
02000000
00000000
03200000
00000000
00310000
00001000
00000100
00001000
,
00010000
00000000
00000000
00000000
00000100
00010000
00000000
00000000
00000010
00001000
00000000
00000000
00000001
00000000
00000100
00000000
,
00000020
00000000
00000000
00000000
00000230
00000000
00000000
00000000
00001300
00000000
00010000
00000000
00001000
00010000
00000000
00010000
,
00002000
00000000
00000000
00000000
00000000
00203000
00000000
00000000
00000000
01300000
00000000
00000000
10000000
00000000
00100000
00000000
,
20000000
00000000
00000000
00000000
00000000
31000000
00000000
00000000
00100000
00000000
01000000
00000000
00000000
00010000
00000000
00001000
,
00020000
00000000
00000000
00000000
00000000
00030020
00000000
00000000
00000000
00000130
00000000
00000000
00000001
00000000
00000010
00000000
,
00000002
00000000
00000000
00000000
00000000
00000103
00000000
00000000
00000010
00000000
00000100
00000000
00001000
00000000
00010000
00000000
,
00001000
00001000
00100000
00000000
00010000
00010000
10000000
01000000
,
00100000
00100000
00001000
00000000
00000100
00001000
00011000
00000000
,
00010000
00010000
00000100
00000000
00001000
00001000
00000001
00000010
,
00000100
00000100
00010000
00000000
01000000
00010000
00011000
00000000
,
01010000
00000000
00000000
00000000
10000000
00100000
00000000
00000000
00100000
10000000
00000000
00000000
01000000
00000000
00100000
00000000
,
00010000
01000000
00100000
00000000
00010000
00001000
00000100
00000000
,
00001010
00000000
00000000
00000000
00000001
00000100
00000000
00000000
00000100
00000001
00000000
00000000
00000010
00000000
00000100
00000000
,
00001000
00000010
00000100
00000000
00001000
00010000
00100000
00000000
,
10000000
10000000
00000000
00000000
00010000
00010000
00000000
00000000
00100000
00100000
00000000
00000000
01000000
00000000
00010000
00000000
,
00001000
00000100
00001000
00000000
00010000
01000000
00010000
00000000
,
00000010
00000010
00000000
00000000
00000100
00000100
00000000
00000000
00000001
00000001
00000000
00000000
00000010
00000000
00001000
00000000
,
00010000
00100000
00010000
00000000
00001000
00000010
00001000
00000000
,
00101000
00000000
00110000
00000000
00001000
01000000
00010000
01000000
,
00100000
10000000
00010000
00100000
00001000
01000000
00001000
00000000
,
00010100
00000000
00001100
00000000
00010000
00000100
00001000
00000100
,
00000010
00000001
00001000
00000010
00010000
00000100
00010000
00000000
,
00010100
00000000
01001000
00000000
00100000
01000000
00010000
10000000
,
01000000
00010000
01000000
00100000
00001000
00010000
00001000
00000000
,
00101000
00000000
00010010
00000000
00000100
00000010
00001000
00000001
,
00000010
00001000
00000010
00000100
00010000
00002000
00000000
00000000
,
01003000
00000000
00000000
00000000
00010000
00010000
00000000
00000000
10000000
10000000
00000000
00000000
01000000
00000000
10000000
00000000
,
00100000
00100000
00000000
00000000
00010000
00010000
00000000
00000000
00001000
00000000
00000100
00000000
00000001
00001000
00000000
00001000
;
