
//----- mcode: leff -----
#TITLE:L.E.F. (Loud Electronic Ferocious);
#ARTIST:Ferry Corsten;
#BANNER:L.E.F. (Loud Electronic Ferocious).png;
#BACKGROUND:L.E.F. (Loud Electronic Ferocious)-bg.png;
#CDTITLE:./CDTitles/DDR SuperNOVA PS2 US.png;
#MUSIC:L.E.F. (Loud Electronic Ferocious).ogg;
#SAMPLESTART:24.884;
#SAMPLELENGTH:15;
#BPMS:0=135;
#NOTES:dance-single::Easy:3::
0000
0000
0000
0000
,
0000
0000
0000
0000
,
0000
0000
0000
0000
,
0001
0100
0001
0100
,
0010
0100
0010
0100
,
1000
0100
0010
1001
,
0010
1000
0100
0000
,
0010
0001
0100
0000
,
0010
1000
0100
0100
,
0010
0001
0000
1001
,
0100
0000
0001
0000
,
1000
0000
0010
0000
,
0100
0001
1000
0000
,
0001
0100
0010
0110
,
0010
0000
1000
0000
,
0001
0000
0100
0000
,
0010
1000
0001
0000
,
1000
0100
0010
0110
,
2000
3010
2000
3001
,
2000
3100
2000
3001
,
0010
0010
0100
1000
,
0010
0010
0100
0001
,
0010
0010
0100
1000
,
0010
0100
0001
1000
,
0002
0000
2003
0000
,
3002
0000
2003
0000
,
3002
0203
0320
0230
,
0020
0000
0000
0330
,
0100
0010
0100
0010
,
1000
0001
1000
0001
,
0010
1000
0200
0300
,
0010
0001
0200
0300
,
0010
1000
0200
0300
,
0010
0010
0001
1000
,
0002
0000
0203
0000
,
2300
0000
3020
0000
,
0031
1000
0200
0300
,
1000
0001
0200
0300
,
1000
0001
0020
0030
,
0001
1000
0020
0030
,
0001
0010
0001
0010
,
0100
1000
0100
1000
,
0010
0100
0010
0100
,
0001
0010
0100
1001
,
0010
0001
0100
0100
,
0010
1000
0100
0100
,
0010
0001
0100
0100
,
0010
0100
0010
1001
;
#NOTES:dance-single::Medium:5::
0000
0000
0000
0000
,
0000
0000
0000
0000
,
0000
0000
0000
0000
,
0001
0010
0100
0000
0100
0000
0100
0000
,
1000
0001
0100
0000
0100
0000
0100
0000
,
0010
1000
0100
0000
0010
1000
0100
0000
,
0001
0010
0100
0000
0100
0000
0100
0000
,
1000
0001
0100
0000
0100
0000
0100
0000
,
0010
1000
0001
0000
0001
1000
0010
0000
,
0100
0010
0100
0010
0100
0000
0110
0000
,
1000
0001
0010
0000
0010
0000
0001
0010
,
0100
1000
0010
0000
0010
0000
0100
0001
,
0100
0010
1000
0000
1000
0000
0001
1000
,
0100
0010
0100
0000
0200
0000
0310
0000
,
0001
0100
0010
0000
0010
0000
0100
0010
,
0100
0001
0010
0000
0010
0000
0100
1000
,
0100
1000
0010
0000
0010
0000
0100
0000
,
0001
1000
0010
0100
0001
0000
1001
0000
,
1010
1001
1010
1001
,
0011
1001
0011
1001
,
0001
0010
0001
0000
2000
0000
3001
0000
,
1000
0010
1000
0000
0002
0000
1003
0000
,
0010
0100
0010
0000
0200
0000
0301
0000
,
0001
0010
0100
1000
0020
0000
1030
0000
,
2000
3010
0200
0310
,
0020
0130
0200
0301
,
0101
1100
0101
1100
,
1000
0001
1000
0001
1000
0001
1000
0000
,
1010
1100
1001
0110
,
0011
0101
1001
0110
,
1000
0001
0010
0000
0002
0000
0103
0000
,
0001
1000
0010
0000
2000
0000
3100
0000
,
0010
0001
0100
0000
0020
0000
1030
0000
,
0010
1000
0001
0000
0010
0001
1000
0000
,
1010
1010
1100
1100
,
0011
0011
0101
0101
,
1000
0001
0100
0000
0100
0001
0010
0000
,
0100
1000
0010
0000
0010
1000
0001
0000
,
1000
0100
0001
0000
0001
0100
1000
0000
,
0001
0100
0010
1000
0001
1000
0100
0000
,
0001
0100
1000
0000
1000
0000
1000
0000
,
0001
1000
0001
0000
0001
0000
0001
0000
,
0001
0010
0100
0000
0100
0000
0100
0000
,
1000
0001
1000
0000
0010
1000
0100
0000
,
0010
1000
0010
0000
0200
0000
0301
0000
,
1000
0010
0100
0000
0002
0000
1003
0000
,
0010
0100
0001
0000
0020
0000
0031
0000
,
0010
0001
1000
0000
0010
1000
0001
0000
;
#NOTES:dance-single::Hard:8::
0000
0000
0000
0000
,
0000
0000
0000
0000
,
0000
0000
0000
0000
,
0001
0000
0000
0000
1000
0000
0000
0010
0000
0000
1000
0000
0100
0000
0000
0000
,
0010
0000
0000
0000
0001
0000
0000
0100
0000
0000
0001
0000
0010
0000
0000
0000
,
0100
0000
1000
0000
0100
1000
0000
0010
0000
0001
0100
0010
0100
0000
0000
0000
,
1000
0000
0010
0000
1000
0000
0000
0100
0000
0000
0001
0000
0010
0000
0000
0000
,
0001
0000
0100
0000
0001
0000
0000
0010
0000
0000
1000
0000
0100
0000
0000
0000
,
2002
0000
0000
0000
3003
0000
0100
0000
0010
0000
0001
0000
0010
0000
0000
0200
,
0000
0000
1300
0000
0010
0000
0000
0100
0000
0010
1000
0010
0100
0000
0000
0000
,
0002
0000
0100
0000
0103
0000
0000
0010
0000
0000
0001
0000
1000
0000
0000
0000
,
2000
0000
0100
0000
3100
0000
0000
1000
0000
0000
0100
0000
1000
0000
0000
0000
,
0010
0001
0010
0000
0001
0000
0000
0100
0000
0000
0010
0000
0100
0000
0010
0000
,
1000
0000
0100
0000
0010
0000
0000
0001
0000
1000
0010
0100
0010
0000
0000
0000
,
0001
0100
0010
0000
0100
0000
0000
0001
0000
0000
1000
0000
0100
0000
1000
0000
,
0001
0010
0100
0000
1000
0000
0000
0100
0000
0000
0100
0000
1000
0000
0010
0000
,
1000
0100
0010
0000
0100
0000
0000
1000
0000
0000
0100
0000
0010
0000
0001
0000
,
0100
0010
0100
0001
0101
0000
1100
0000
,
1000
0100
0110
0000
0010
0001
1001
0000
,
1000
0010
0110
0000
0100
1000
1001
0000
,
0100
0001
0100
0000
0010
0000
0000
1000
0000
0000
0100
0000
1000
0000
0100
0000
,
0010
0001
0010
0000
0100
0000
0000
1000
0000
0000
0001
0000
0100
0000
0010
0000
,
2002
0000
0000
0000
3003
0000
0100
0000
0001
0000
1000
0000
0100
0000
0000
0020
,
0000
0000
0130
0000
0010
0000
1000
0000
1001
0000
0000
0000
0110
0000
0000
1000
,
0100
0000
0000
0000
1100
0000
0000
0001
0100
0000
0000
0000
0101
0000
0000
1000
,
0010
0000
0000
0000
1010
0000
0000
0001
0010
0000
0000
0000
0011
0000
0000
1000
,
1010
0011
1100
0101
,
1000
0100
1000
0010
0100
0001
0010
0001
,
0210
1300
0120
0031
,
0210
1300
0120
0031
,
1000
0000
0001
0000
0100
0000
0000
0101
0000
0000
0010
0000
0000
0000
0100
0000
,
0001
1000
0001
0000
0010
0000
0000
0011
0000
0000
0010
0000
0000
0000
0100
0000
,
1000
0001
1000
0000
0100
0000
0000
1000
0000
0000
1100
0000
0000
0000
1000
0000
,
0001
0000
0010
0000
0100
1000
0000
0010
0100
0000
0000
0000
0101
0000
0000
0000
,
0012
0010
1003
0000
2010
0010
3001
0000
,
0102
0100
1003
0000
2100
0100
3001
0000
,
0100
0001
0100
0000
0010
0000
0000
1001
0000
0000
0010
0000
0000
0000
1000
0000
,
0100
1000
0100
0000
0010
0000
0000
1001
0000
0000
0010
0000
0000
0000
0001
0000
,
0010
0001
0010
0000
0100
0000
0000
1001
0000
0000
0100
0000
0000
0000
1000
0000
,
0010
0000
0100
0000
0001
0100
0000
0100
0010
0000
0000
0000
0101
0000
0000
0000
,
0110
0000
0001
0000
0010
0000
0000
0100
0000
0000
1100
0000
0000
0000
0000
0000
,
0110
0000
1000
0000
0010
0000
0000
0100
0000
0000
0101
0000
0000
0000
0000
0000
,
0110
0000
0001
0000
0010
0000
0000
0100
0000
0000
1100
0000
0000
0000
0000
0000
,
0001
0010
0100
1000
0001
0100
1001
0000
,
1001
0000
0100
0000
0010
0000
0000
1000
0000
0000
0100
0000
0110
0000
0000
0000
,
1001
0000
0100
0000
0010
0000
0000
0001
0000
0000
0100
0000
0110
0000
0000
0000
,
1001
0000
0100
0000
0010
0000
0000
1000
0000
0000
0100
0000
0110
0000
0000
0000
,
1000
0010
0100
0001
1000
0100
2002
0000
,
3003
0000
0000
0000
;
#NOTES:dance-single::Beginner:1::
0000
0000
0000
0000
,
0000
0000
0000
0000
,
0000
0000
0000
0000
,
1000
0000
0000
0000
,
0001
0000
0000
0000
,
0001
0001
0001
0000
,
0010
0000
0000
0000
,
0010
0000
0000
0000
,
0100
0000
0000
0000
,
0100
0100
0100
0000
,
1000
1000
0000
0000
,
1000
1000
0000
0000
,
0001
0001
0000
0000
,
0200
0000
0000
0300
,
0100
0100
0000
0000
,
0100
0100
0000
0000
,
0010
0010
0000
0000
,
1000
1000
1000
1000
,
1000
0000
1000
0000
,
0100
0000
0100
0000
,
0020
0000
0000
0030
,
0010
0000
0000
0000
,
0200
0000
0000
0300
,
0100
0000
0000
0000
,
1000
0000
1000
0000
,
1000
0000
1000
0000
,
0001
0001
0001
0001
,
0001
0000
0000
0000
,
0100
0000
0100
0000
,
0010
0000
0010
0000
,
0200
0000
0000
0300
,
0100
0000
0000
0000
,
0020
0000
0000
0030
,
0010
0000
0000
0000
,
0001
0000
0001
0000
,
1000
0000
1000
0000
,
0002
0000
0000
0003
,
0001
0000
0000
0000
,
2000
0000
0000
3000
,
1000
0000
0000
0000
,
1001
0000
0000
0000
,
0010
0000
0000
0000
,
1001
0000
0000
0000
,
0100
0100
0100
0000
,
0110
0000
0000
0000
,
1001
0000
0000
0000
,
1001
0000
0000
0000
,
0100
0000
0000
1001
;
#NOTES:dance-double::Easy:3::
00000000
00000000
00000000
00000000
,
00000000
00000000
00000000
00000000
,
00000000
00000000
00000000
00000000
,
01000000
00010000
00001000
00010000
,
00001000
00000100
00000010
00000100
,
00000001
00001000
00000001
00001001
,
00000100
00001000
00010000
00000000
,
00001000
00100000
00010000
00000000
,
10000000
01000000
00010000
00010000
,
00001000
00010000
00000000
00001000
,
00020000
00000000
00000000
00030000
,
00002000
00000000
00000000
00003000
,
00000020
00000000
00000000
00000030
,
00000001
00001000
00000010
00000100
,
00002000
00000000
00000000
00003000
,
00020000
00000000
00000000
00030000
,
02000000
00000000
00000000
03000000
,
10000000
00010000
00100000
01000000
,
20000000
30000000
02000000
03000000
,
00020000
00030000
00002000
00003000
,
00010000
00010000
00001000
00010000
,
00000010
00000010
00001000
00000010
,
00001000
00001000
00000001
00000100
,
00000001
00000100
00001000
00010000
,
00200000
00000000
20300000
00000000
,
32000000
00000000
03020000
00000000
,
00032000
00003200
00000302
00002003
,
00000002
00000000
00003003
00000000
,
00000002
00000000
00000203
00000000
,
00002300
00000000
00023000
00000000
,
00031000
00001000
00010000
00001000
,
00100000
00100000
00010000
00100000
,
00010000
00010000
10000000
01000000
,
10000000
01000000
00010000
00001000
,
00020000
00000000
00030020
00000000
,
00002030
00000000
00003002
00000000
,
00000013
00000010
00001000
00000100
,
00010000
00010000
00001000
00010000
,
00100000
00100000
00010000
00100000
,
01000000
01000000
00100000
01000000
,
00010000
10000000
00010000
10000000
,
01000000
00010000
00001000
00010000
,
00001000
00000100
00000010
00000100
,
00000001
00001000
00000001
00001001
,
00000010
00001000
00010000
00000000
,
00001000
01000000
00010000
00000000
,
10000000
00100000
00010000
00010000
,
00001000
00010000
00001000
00011000
;
#NOTES:dance-double::Medium:5::
00000000
00000000
00000000
00000000
,
00000000
00000000
00000000
00000000
,
00000000
00000000
00000000
00000000
,
10000000
01000000
10000000
00000000
00010000
00000000
00010000
00000000
,
01000000
00010000
01000000
00000000
00001000
00000000
00001000
00000000
,
00010000
00000100
00001000
00000010
00000100
00000000
00000110
00000000
,
00000010
00001000
00000010
00000000
00000100
00000000
00000100
00000000
,
00000001
00000100
00000001
00000000
00001000
00000000
00001000
00000000
,
00000200
00010300
00002000
01003000
,
00100000
00010000
10000000
01000000
10000000
00000000
10010000
00000000
,
21000000
30010000
01000000
00010000
,
01002000
00013000
00000010
00001000
,
00000010
00000100
00000010
00000000
00001000
00000000
00000001
00000000
,
00000100
00000010
00001000
00000001
00001000
00000000
00000100
00000000
,
00010000
00001000
00010000
00000000
00001000
00000000
00001000
00000000
,
00100000
00010000
00100000
00000000
01000000
00000000
10000000
00000000
,
10000000
01000000
10000000
00000000
00010000
00000000
01000000
00000000
,
00001000
00010000
00001000
00000000
00010000
00000000
00000010
00000000
,
00002000
00003001
00000200
00001300
,
00020000
01030000
20000000
30100000
,
10000000
00100000
00010000
00000000
00001000
00000000
00010000
00000000
,
00001000
00000010
00000001
00000000
00001000
00000000
00000001
00000000
,
00000001
00000100
00001000
00000000
00010000
00000000
00001000
00000000
,
00010000
01000000
10000000
01000000
00100000
00000000
10010000
00000000
,
20000000
31000000
00020000
01030000
,
00002000
00013000
00020000
00030100
,
00002000
00003020
00000230
00000302
,
00001003
00000100
00001000
00000100
00000010
00000001
00000010
00000001
,
00002000
00003001
00000020
00001030
,
00020000
00130000
20000000
31000000
,
10000000
01000000
00010000
00000000
00001000
00000000
00010000
00000000
,
00001000
00000100
00000001
00000000
00001000
00000000
00000001
00000000
,
00000001
00000010
00001000
00000000
00010000
00000000
00001000
00000000
,
00010000
00100000
10000000
00100000
01000000
00000000
10010000
00000000
,
00020000
10030000
02000000
03010000
,
00002000
00003100
00000002
00000013
,
00000001
00000010
00001000
00000000
00010000
00000000
00001000
00000000
,
00010000
00100000
10000000
00000000
00010000
00000000
10000000
00000000
,
10000000
01000000
00010000
00000000
00001000
00000000
00010000
00000000
,
00001000
00000100
00000001
00000100
00000010
00000000
00001001
00000000
,
00000010
00001000
00000010
00000000
00000100
00000000
00000100
00000000
,
00000001
00000100
00000001
00000000
00001000
00000000
00001000
00000000
,
00000100
00001000
00000100
00000000
00010000
00000000
00010000
00000000
,
00001000
01000000
00010000
00100000
01000000
00000000
01100000
00000000
,
00100000
00010000
00100000
00000000
01000000
00000000
01000000
00000000
,
00100000
00010000
00100000
00000000
01000000
00000000
01000000
00000000
,
10000000
01000000
10000000
00000000
00010000
00000000
00010000
00000000
,
01000000
00001000
00010000
00022000
,
00033000
00000000
00000000
00000000
;
#NOTES:dance-double::Hard:8::
00000000
00000000
00000000
00000000
,
00000000
00000000
00000000
00000000
,
00000000
00000000
00000000
00000000
,
01000000
00000000
00000000
00000000
00010000
00000000
00000000
00001000
00000000
00000000
00010000
00000000
00001000
00000000
00000000
00000000
,
00010000
00000000
00000000
00000000
00000010
00000000
00000000
00001000
00000000
00000000
00000001
00000000
00000100
00000000
00000000
00000000
,
00000010
00000000
00001000
00000000
00000100
00000010
00000000
00000000
00000001
00000000
00001000
00000000
00001100
00000000
00000000
00000000
,
00000010
00000000
00001000
00000000
00010000
00000000
00000000
00001000
00000000
00000000
00100000
00000000
00010000
00000000
00000000
00000000
,
10000000
00000000
01000000
00000000
00100000
00000000
00000000
00001000
00000000
00000000
00010000
00000000
01000000
00000000
00000000
00000000
,
20000000
00000000
00000000
00000000
30000000
00000000
01000000
00000000
00010000
00000000
00001000
00000000
00000100
00000000
00000000
00000020
,
00000000
00000000
00001030
00000000
00000001
00000000
00000000
00000010
00000000
00000000
00000100
00000000
00000110
00000000
00000000
00000000
,
00001000
00000000
00000100
00000000
00000010
00000000
00000000
00000001
00000000
00000000
00000100
00000000
00001000
00000000
00000000
00000000
,
00010000
00000000
01000000
00000000
00100000
00000000
00000000
00010000
00000000
00000000
10000000
00000000
00010000
00000000
00000000
00000000
,
00100000
00000000
00010000
00000000
01000000
00000000
00000000
00100000
00000000
00000000
10000000
00000000
01000000
00000000
00010000
00000000
,
01000000
00000000
10000000
00000000
00100000
00000000
00000000
00010000
00000000
00000000
00001000
00000000
00011000
00000000
00000000
00000000
,
00010000
00000010
00001000
00000000
00000001
00000000
00000000
00000100
00000000
00000000
00001000
00000000
00010000
00000000
01000000
00000000
,
10000000
01000000
00100000
00000000
00010000
00000000
00000000
00100000
00000000
00000000
01000000
00000000
10000000
00000000
01000000
00000000
,
00100000
01000000
00100000
00000000
00001000
00000000
00000000
00010000
00000000
00000000
00001000
00000000
00010000
00000000
00000010
00000000
,
00001000
00000100
00000010
00000001
00001100
00000000
00000101
00000000
,
00000001
00000100
00001000
00000000
00001000
00000100
00000001
00000000
,
00000001
00000100
00001000
00000000
00010000
01000000
10000000
00000000
,
00100000
10000000
00100000
00000000
01000000
00000000
00000000
00010000
00000000
00000000
01000000
00000000
00100000
00000000
10000000
00000000
,
01000000
10000000
01000000
00000000
00010000
00000000
00000000
00001000
00000000
00000000
00000100
00000000
00000001
00000000
00001000
00000000
,
00000020
00000000
00000000
00000000
00000030
00000000
00000100
00000000
00000001
00000000
00000100
00000000
00001000
00000000
00000000
00010000
,
00000000
00000000
00001000
00000000
00100000
00000000
00010000
00000000
00110000
00000000
00000000
00000000
11000000
00000000
00000000
00100000
,
10000000
00000000
00000000
00000000
10100000
00000000
00000000
01000000
00010000
00000000
00000000
00000000
01010000
00000000
00000000
00001000
,
00010000
00000000
00000000
00000000
00011000
00000000
00000000
00001000
00000010
00000000
00000000
00000000
00001010
00000000
00000000
00000001
,
00000100
00000101
00001100
00010100
,
00011000
00001000
00100000
00010000
01000000
00100000
10000000
00000000
,
10000000
01000000
00010000
00000000
00010000
01000000
10000000
00000000
,
10000000
01000000
00010000
00000000
00001000
00000100
00000001
00000000
,
00000010
00000001
00000010
00000000
00000100
00000000
00000000
00001000
00000000
00000000
00000100
00000000
00000010
00000000
00000001
00000000
,
00000100
00000001
00000100
00000000
00001000
00000000
00000000
00010000
00000000
00000000
01000000
00000000
10000000
00000000
00010000
00000000
,
01000000
00010000
01000000
00000000
00100000
00000000
00000000
10000000
00000000
00000000
01000000
00000000
00100000
00000000
00000000
00000000
,
00010000
00000000
01000000
00000000
00001000
00010000
00000000
00010000
00001000
00000000
00000000
00000000
00010000
00000000
00000000
00000000
,
00000010
00001000
00010000
00000000
01000000
00010000
00001000
00000000
,
00000010
00001000
00010000
00100000
00010000
00001000
00000100
00000000
,
00000110
00000000
00000000
00000000
00000000
00000000
00000010
00000000
00001000
00000000
00000100
00000000
00000001
00000000
00000000
00000110
,
00000000
00000000
00000001
00000000
00000100
00000000
00001000
00010000
00000000
00000000
00001000
00000000
00010000
00000000
01000000
00000000
,
01100000
00000000
00000000
00000000
00000000
00000000
01000000
00000000
00010000
00000000
00100000
00000000
10000000
00000000
00000000
01100000
,
00000000
00000000
10000000
00000000
01000000
00000000
00000000
00010000
00001000
00000000
00000000
00000000
00010100
00000000
00000000
00000000
,
00000010
00000000
00000100
00000000
00001000
00000000
00000000
00000010
00000000
00000000
00000100
00000000
00000001
00000000
00000000
00000000
,
00000010
00000000
00000100
00000000
00001000
00000000
00000000
00000001
00000000
00000000
00000100
00000000
00001000
00000000
00000000
00000000
,
00010000
00000000
00001000
00000000
00000100
00000000
00000000
00000010
00000000
00000000
00010000
00000000
00001000
00000000
00000000
00000000
,
00100000
00000000
00010000
00000000
10000000
01000000
00000000
00100000
00000000
00010000
01000000
00100000
10000000
00000000
00000000
00000000
,
00100000
00000000
01000000
00000000
00010000
00000000
00000000
00100000
00000000
00000000
01000000
00000000
10000000
00000000
00000000
00000000
,
00100000
00000000
01000000
00000000
00010000
00000000
00000000
10000000
00000000
00000000
01000000
00000000
00010000
00000000
00000000
00000000
,
00001000
00000000
00010000
00000000
01000000
00000000
00000000
00100000
00000000
00000000
00001000
00000000
00010000
00000000
00000000
00000000
,
00001000
00000000
00000010
00000000
00000100
00000001
00000000
00001000
00000000
00000010
00000100
00000001
00000100
00000000
00000000
00000000
;
