
//----- song ID: ifut -----//
#TITLE:iFUTURELIST(DDR VERSION);
#ARTIST:AKIRA YAMAOKA;
#BANNER:iFUTURELIST(DDR VERSION).png;
#BACKGROUND:iFUTURELIST(DDR VERSION)-bg.png;
#CDTITLE:./CDTitles/Dancing Stage SuperNOVA.png;
#MUSIC:iFUTURELIST(DDR VERSION).ogg;
#SAMPLESTART:56.038;
#SAMPLELENGTH:15;
#DISPLAYBPM:150;
#BPMS:0=148.52,4=150;

//---------------dance-single - ----------------
#NOTES:
     dance-single:
     :
     Beginner:
     3:
     :
0000
0000
0000
0000
,
0000
0000
0000
0000
,
0000
0000
0000
0000
,
0001
0000
0000
0000
,
1000
0000
0000
0000
,
0001
0001
0000
0000
,
0001
0000
0000
0000
,
1000
1000
0000
0000
,
1000
1000
0000
0000
,
1000
0000
0000
0000
,
0100
0000
0000
0000
,
0010
0000
0000
0000
,
0010
0010
0000
0000
,
0010
0010
0000
0000
,
0010
0000
0000
0000
,
0001
0000
0000
0000
,
0001
0001
0000
0000
,
0001
0001
0000
0000
,
0001
0000
0001
0000
,
1000
0000
0000
0000
,
1000
1000
0000
0000
,
1000
0000
1000
0000
,
1000
1000
0000
0000
,
0100
0000
0000
0000
,
0100
0100
0000
0000
,
0100
0000
0100
0000
,
0010
0000
0000
0000
,
1001
0000
0000
0000
,
0001
0001
0000
0000
,
1001
0000
0000
0000
,
0100
0100
0000
0000
,
1001
0000
0000
0000
,
0010
0010
0000
0000
,
1001
0000
0000
0000
,
1000
1000
0000
0000
,
0001
0001
0000
0000
,
1000
0000
0000
0000
,
0010
0010
0000
0000
,
0100
0000
0000
0000
,
0010
0010
0000
0000
,
0100
0000
0000
0000
,
0001
0000
0000
0000
,
0001
0001
0001
0000
,
1000
1000
0000
0000
,
1000
0000
0000
0000
,
0001
0001
0000
0000
,
0001
0000
0000
0000
,
1000
1000
0000
0000
,
0100
0000
0000
0000
,
0010
0010
0010
0000
,
0010
0010
0010
0000
,
0100
0000
0000
0000
,
0001
0000
0000
0000
,
1000
1000
0000
0000
,
0001
0000
0000
0000
,
1000
1000
0000
0000
,
0100
0100
0000
0000
,
0010
0000
0000
0000
,
1001
0000
0000
0000
,
0000
0000
0000
0000
;

//---------------dance-single - ----------------
#NOTES:
     dance-single:
     :
     Easy:
     5:
     :
0000
0000
0000
0000
,
0000
0000
0000
0000
,
0000
0000
0000
0000
,
2000
0000
0000
3000
,
0001
0000
1000
0000
,
0200
0000
0000
0300
,
0020
0000
0000
0030
,
0001
0000
0001
0000
,
0100
0000
0100
0000
,
0020
0000
0000
0030
,
2000
0000
0000
3000
,
1010
0000
1000
0000
,
0001
0000
1000
0000
,
0001
0010
0100
1000
,
0001
0001
1000
1000
,
1001
0000
1000
0000
,
0010
1000
0100
0010
,
0100
0000
0100
0000
,
0100
0100
1000
0100
,
0110
0000
0010
0000
,
0010
0000
0010
0000
,
0001
0100
0010
1000
,
1000
1000
0010
0010
,
1010
0000
0000
0000
,
1000
1000
0001
0100
,
1000
0100
0001
0010
,
0100
1000
0000
1000
,
1001
0000
0100
0100
,
1001
0000
0010
0010
,
1001
0000
0001
0001
,
1000
0001
0100
0000
,
0101
0000
0100
0100
,
0110
0000
1000
1000
,
1001
0000
0001
0001
,
1000
0000
0100
0000
,
0010
0010
0000
0000
,
0001
0100
0001
0000
,
0100
0100
0000
0000
,
0010
1000
0010
0000
,
1000
1000
0000
0000
,
0001
1000
0001
0000
,
0100
0100
0100
0000
,
0010
0010
0010
0010
,
0100
0100
0000
0000
,
0001
0010
0001
0000
,
0010
0010
0000
0000
,
0001
1000
0001
0000
,
1000
1000
0000
0000
,
0100
0100
0100
0000
,
0010
0001
1000
0000
,
0001
0010
0100
1000
,
2000
0000
0000
3000
,
0010
0000
0100
0000
,
0020
0000
0000
0030
,
0200
0000
0000
0300
,
0001
0001
0001
0000
,
1000
1000
1000
0000
,
0200
0000
0000
0300
,
0020
0000
0000
0030
,
0000
0000
0000
0000
;

//---------------dance-single - ----------------
#NOTES:
     dance-single:
     :
     Medium:
     7:
     :
0000
0000
0000
0000
,
0000
0000
0000
0000
,
0000
0000
0000
0000
,
1000
0010
0100
0010
,
1000
0000
0000
1000
0000
0001
0010
0000
0000
0001
0000
0000
,
0100
0010
0100
0100
,
0001
1000
0100
0010
,
0001
0000
0001
0100
0000
0000
0001
0000
0001
0010
0000
0000
,
0001
0000
0001
1000
0000
0000
0100
0000
0000
1000
0000
0000
,
0002
0000
0000
1003
,
2000
0000
0000
3010
,
0100
0000
0100
0001
0000
0000
0101
0000
0000
0000
0000
0000
,
1000
0010
0001
0010
,
1000
0000
1000
0010
0000
0000
0100
0000
0100
0001
0000
0000
,
0001
0010
0100
1000
,
1000
0000
1000
0100
0000
0000
1100
0000
0000
0000
0000
0000
,
0002
1003
2000
3010
,
0020
0000
0000
1030
,
2000
0000
0001
3001
,
0001
0000
0001
1000
0000
0000
1001
0000
0000
0000
0000
0000
,
0010
1000
0100
0001
,
0010
0000
0000
1000
0000
0000
1000
0000
0001
0100
0000
0001
,
0100
0001
1000
0001
,
0100
0000
0100
0010
0000
0000
0110
0000
0000
0000
0000
0000
,
2000
3010
0200
0301
,
0002
0000
0000
0003
,
2000
0000
0010
3010
,
1000
0000
0001
0200
0000
0000
0000
0000
0000
0301
0000
0000
,
0010
0000
0001
0200
0000
0000
0000
0000
0000
0301
0000
0000
,
0001
0000
1000
0020
0000
0000
0000
0000
0000
0130
0000
0000
,
0001
0000
0001
0010
0000
0010
0100
0000
0100
1000
0000
0000
,
0001
0000
1000
0200
0000
0000
0000
0000
0000
1300
0000
0000
,
0010
0000
1000
0200
0000
0000
0000
0000
0000
0310
0000
0000
,
0001
0000
1000
0020
0000
0000
0000
0000
0000
0130
0000
0000
,
0101
1001
1010
0110
,
2000
0000
0000
3001
0000
0000
0001
0000
1000
0100
0000
0000
,
0010
0100
0010
1000
,
2000
0000
0000
3001
0000
0000
1000
0000
0001
0100
0000
0000
,
0001
1000
0001
0000
,
2000
0000
0000
3001
0000
0000
0000
0000
0000
1000
0000
0001
,
0100
0000
0000
1000
0000
0001
0100
0000
0000
0001
0000
0000
,
2000
0000
3020
0000
,
0031
0010
0100
1000
,
2000
3001
1000
0101
,
0001
1100
0010
0110
,
2000
0000
0000
3001
0000
0000
0001
0000
1000
0100
0000
0000
,
0001
1000
0010
0000
,
2000
3001
0001
0100
,
0200
0301
0002
0103
,
0001
0000
0100
0001
0000
0000
1000
0000
0100
1000
0000
0000
,
0001
0100
0010
0100
,
0001
0000
0000
0001
0000
1000
0100
0000
0000
1000
0000
0000
,
0010
0100
0010
0010
,
1000
0001
0010
0100
,
1000
0000
1000
0010
0000
0000
1000
0000
1000
0100
0000
0000
,
1000
0000
1000
0001
0000
0000
0010
0000
0000
0001
0000
0000
,
0001
0000
1000
0010
0000
0000
1000
0000
0000
0100
0000
0000
,
2000
0100
0000
3100
,
0200
0020
0000
0330
,
0000
0000
0000
0000
;

//---------------dance-single - ----------------
#NOTES:
     dance-single:
     :
     Hard:
     12:
     :
0000
0000
0000
0000
,
0000
0000
0000
0000
,
0000
0000
0000
0000
,
1000
0000
0001
0000
0100
0000
1000
0000
0000
0200
0000
0000
,
0001
0000
0000
0000
0000
0000
0000
0000
0000
0300
0000
0000
0000
0000
0000
0000
0000
0000
0000
0000
0001
0000
0000
0000
0010
0000
0000
0000
0000
0000
0000
0000
0000
0000
0000
0000
1100
0000
0000
0000
0000
0000
0000
0000
0000
0000
0000
0000
,
0020
0000
0030
0100
,
1010
0000
1000
1000
,
0001
0000
0000
0010
0000
0000
1010
0000
0000
0010
0000
1000
,
0100
0010
0001
1001
,
1000
0000
0001
0100
0000
0000
0001
0000
0100
0010
0000
0000
,
0010
0000
0100
0001
0000
1000
0010
0000
0100
0001
0000
0000
,
0011
1000
2020
3030
,
1000
0000
1000
0100
0000
0100
1000
0000
1000
0001
0000
0000
,
0100
0000
0000
0010
0000
0000
1000
0000
0000
0100
0000
1000
,
0001
0000
0000
0000
0000
0000
0010
0000
0100
0000
1000
0000
,
1100
0001
0202
0303
,
0000
0000
0001
0000
0100
0000
1000
0000
0100
0000
0001
0000
,
2000
0001
3000
0001
,
0101
0000
0000
0000
0000
0100
0001
0000
0001
1000
0000
0000
,
1001
0100
0220
0330
,
1000
0000
0001
1000
0001
1000
0001
0000
0000
0101
0000
0000
,
0010
0000
0010
0100
0000
0000
0001
0000
1000
0100
0000
0000
,
0010
0000
0001
1000
0000
0000
1000
0000
0010
0000
0100
0000
,
0101
0001
2002
3003
,
0110
0000
0000
0001
0000
1000
0001
0000
0000
0101
0000
0000
,
1000
0000
0010
0100
0000
0000
0001
0000
0001
1000
0000
0000
,
1000
0000
0010
0100
0000
0000
0001
0000
0000
1100
0000
0000
,
0001
0000
0001
0100
0000
0000
0010
0100
0001
1000
0000
0000
,
1000
0000
1000
0100
0000
0000
0010
0100
1000
0100
0000
0000
,
1000
0000
1000
0001
0000
0000
0100
0010
1000
0010
0000
0000
,
1000
0000
0010
0100
0000
0000
0001
0000
0000
1000
0010
0100
,
0001
0000
0001
1000
0000
0000
1000
0010
0001
0010
0000
0000
,
0110
0000
0010
0100
0000
0000
0001
0100
1000
0100
0000
0000
,
0001
0000
0001
1000
0000
0000
1000
0100
0001
0100
0000
0000
,
1000
0000
0100
0000
0010
0000
0001
0000
0010
0000
0100
0000
,
1000
0000
0000
0101
0000
0000
0001
0000
0100
1000
0000
0000
,
1000
0000
0100
0010
0000
0000
1000
0000
0000
0101
0000
0000
,
1000
0000
0000
1100
0000
0000
0001
0000
0010
0100
0000
0000
,
1000
0000
1000
0010
0000
0000
1000
0000
0000
0101
0000
0000
,
1001
0000
0000
1001
0000
0000
0000
0000
1000
0000
0001
0000
,
0200
0000
0000
0000
0000
0000
0000
0000
0000
0000
0000
0000
0000
0000
0000
0000
0000
0000
0000
0000
0000
0300
0000
0000
0000
0000
0000
0000
0000
0000
0000
0000
0001
0000
0000
0000
0000
0000
0000
0000
1000
0000
0000
0000
0000
0000
0000
0000
,
0110
0100
0101
1000
,
0001
0000
1000
0000
0010
0000
0100
0000
0001
0000
1000
0000
,
0001
0000
0000
1001
0000
0000
1000
0000
0100
1000
0000
0000
,
0010
0000
0100
0010
0000
0000
1000
0000
0000
1010
0000
0000
,
0001
0000
0000
0011
0000
0000
0001
0010
0100
1000
0000
0000
,
1000
0000
1000
0001
0000
0001
0100
0000
0000
0001
0000
0000
,
0110
0000
0000
0110
0000
0000
1000
0000
0001
0100
0000
0000
,
0100
0000
0001
0010
0000
0000
0001
0000
0010
0100
0000
0000
,
1000
0010
0100
0010
0000
0000
1000
0001
0100
0001
0000
0000
,
0001
0000
1000
0100
0000
1000
0010
0000
0100
0001
0100
0010
,
0100
0000
0001
0000
1000
0000
0010
0000
0000
0020
0000
0000
,
1000
0000
0000
0000
0000
0000
0000
0000
0000
0030
0000
0000
0000
0000
0000
0000
0000
0000
0000
0000
1000
0000
0000
0000
0100
0000
0000
0000
0000
0000
0000
0000
0000
0000
0000
0000
0011
0000
0000
0000
0000
0000
0000
0000
0000
0000
0000
0000
,
0200
0010
0300
0010
,
0101
0110
1100
0101
,
1000
0000
0000
0010
0000
0000
0100
0000
0000
0010
0000
0001
,
0010
0100
0001
1001
,
0001
0000
1000
0010
0000
0000
1000
0000
0010
0100
0000
0000
,
0100
0000
0010
1000
0000
0001
0100
0000
0010
1000
0001
0100
;

//---------------dance-single - ----------------
#NOTES:
     dance-single:
     :
     Challenge:
     13:
     :
0000
0000
0000
0000
,
0000
0000
0000
0000
,
0000
0000
0000
0000
,
0001
0000
0010
0000
0100
0000
1000
0000
0000
0001
0000
0000
,
1100
0000
0000
0001
0000
0100
0001
0000
0000
1100
0000
0000
,
0100
0000
1000
0100
0000
0000
0010
0000
0001
0010
0000
0000
,
0011
0000
0000
0000
0000
1000
0100
0000
0100
1000
0000
0000
,
0001
0000
0100
0010
0000
0000
1010
0000
0000
0010
0000
1000
,
0100
0000
0000
0010
0000
0001
1000
0000
0000
1001
0000
0000
,
1000
0100
1000
0010
0000
0000
0100
0001
0100
0010
0000
0000
,
1000
0100
0001
0100
0000
1000
0001
0000
0100
0001
0010
0001
,
0011
0000
2002
3003
,
0001
0000
0001
0100
0000
0100
1000
0000
1000
0100
0000
0100
,
0001
0000
0001
0010
0000
0010
1000
0000
1000
0010
0000
0010
,
0001
0000
0001
0100
0000
0000
0011
0000
1001
0000
0101
0000
,
1100
0000
0202
0303
,
0001
0100
0001
0000
1000
0000
0010
0000
0110
0000
0001
0000
,
1000
0000
1000
0100
0000
0000
0001
0000
0001
0100
0000
0000
,
0110
0000
0000
0101
0000
0000
0001
0100
0001
1000
0010
1000
,
1010
0000
0220
0330
,
0001
0100
1000
0100
0010
0100
0001
0000
0000
0100
0000
0000
,
0010
0000
0010
0100
0000
0001
1000
0000
1000
0100
0000
0000
,
0010
0100
1000
0100
0000
0000
1010
0000
0110
0000
0100
0000
,
0101
0000
2002
3003
,
1001
0000
0001
0100
1000
0100
0001
0000
0110
0000
0000
0000
,
0001
0000
0000
0100
0000
0000
1001
0000
0010
0100
0000
0000
,
1001
0000
0100
0010
0000
0000
1100
0000
0000
0101
0000
0000
,
1001
0000
0001
0100
0000
0000
0010
1000
0001
0100
0000
0000
,
1001
0000
1000
0100
0000
0000
0010
0001
0010
0100
0000
0010
,
0100
0000
1000
0100
0000
0000
1000
0100
0001
0100
0000
0000
,
1000
0000
0010
0100
0000
0001
0100
0000
0100
0001
0010
0100
,
1000
0000
1000
0001
0000
0000
0100
0001
0100
0010
0000
0000
,
1001
0000
0001
0100
0000
0000
0010
1000
0100
1000
0010
0001
,
0010
0000
0010
0100
0000
0000
0100
0010
1000
0001
0000
0000
,
0001
0000
0010
0000
0100
0000
1000
0000
0001
0000
0100
0000
,
1001
0000
0100
1001
0000
0000
0001
0000
0001
1000
0000
1000
,
0100
0000
0100
0010
0000
0010
0001
0000
0000
0011
0000
0000
,
0011
0000
0001
1001
0000
0000
0010
0000
0010
0100
0000
0000
,
0001
1000
0100
0000
0000
1100
0000
0000
1000
0100
0000
0000
,
0110
0000
0010
0011
0000
0000
0000
0000
1100
0000
0101
0000
,
0110
0000
0000
0001
0000
0011
0000
0000
0100
0000
1100
0000
,
0200
0000
0000
0000
0000
0000
0000
0000
0320
0000
0000
0000
0000
0000
0000
0030
,
0001
0000
1000
0000
0010
0000
0100
0000
0001
0000
1000
0000
,
1001
0000
0010
1001
0000
0000
1000
0000
1000
0001
0000
0001
,
0010
0000
0010
0100
0000
0100
1000
0000
0000
1010
0000
0000
,
1010
0000
0010
0110
0000
0000
1000
0010
0100
0001
0010
0100
,
1000
0000
0000
0001
0010
0100
1000
0010
0100
0001
0000
0000
,
0011
0000
0010
0110
0000
0000
1001
0000
0001
0100
0000
0000
,
0101
0000
0100
0010
0000
0000
1010
0000
0100
0010
0000
0000
,
1000
0010
0100
0010
0000
0000
1000
0001
0100
0001
0000
0000
,
0001
1000
0100
0010
0001
1000
0010
0100
0001
1000
0100
0010
,
0001
0000
1000
0000
0010
0000
0100
0000
0000
0001
0000
0000
,
0101
0000
0000
0100
0000
0100
0010
0000
0000
1001
0000
0000
,
0001
0000
0001
1000
0000
0000
0010
0000
0010
0100
0000
0000
,
0110
0000
0000
0000
0000
1000
0010
0000
0010
0100
0000
0000
,
0100
0000
0100
0001
0000
0000
0011
0000
0000
0010
0000
0001
,
0100
0000
0000
0001
0000
1000
0100
0000
0000
1100
0000
0000
,
0001
0100
0001
1001
0000
0000
0010
1000
0100
1100
0000
0000
,
0010
1000
0100
0010
0000
0010
0001
0000
0001
0100
0001
0101
;

//---------------dance-double - ----------------
#NOTES:
     dance-double:
     :
     Easy:
     5:
     :
00000000
00000000
00000000
00000000
,
00000000
00000000
00000000
00000000
,
00000000
00000000
00000000
00000000
,
10000000
01000000
00010000
00000100
,
00000010
00000000
00000001
00000000
,
00000100
00000010
00000100
00000001
,
00001000
00001000
00001000
00000000
,
00000100
00000100
00000100
00000000
,
00010000
00010000
00010000
00000000
,
00001000
00100000
00010000
10000000
,
00020000
00000000
00000000
00030000
,
10000000
00000000
10000000
00000000
,
10000000
01000000
00010000
00001000
,
00000010
00000100
00000001
00000000
,
00000100
00000010
00010000
00010000
,
00001000
00000000
00001000
00000000
,
01000000
00100000
01000000
00010000
,
00200000
00000000
00000000
00300000
,
02000000
00000000
00000000
03000000
,
10000000
00000000
10000000
00000000
,
01000000
00100000
00100000
00000000
,
00001000
00000010
00000010
00000000
,
00000100
00000010
00000100
00000010
,
00000001
00000000
00000001
00000000
,
00000100
00001000
00010000
01000000
,
10000000
00100000
01000000
00010000
,
01000000
00000000
00001000
00000000
,
00011000
00000000
00010000
00010000
,
00001100
00000000
00001000
00001000
,
00001001
00000000
00000010
00000010
,
00000100
00000001
00000010
00000100
,
00011000
00000000
00001000
00001000
,
01010000
00000000
00010000
00010000
,
10010000
00000000
10000000
10000000
,
00020000
00030000
20000000
30000000
,
00010000
00010000
00000000
00000000
,
10000000
00100000
01000000
00000000
,
00001000
00001000
00000000
00000000
,
00010000
00000100
00000010
00000000
,
00000001
00000001
00000000
00000000
,
00000100
00000000
00000100
00000000
,
00000010
00000000
00010000
00000000
,
00001000
00001000
00001000
00000000
,
00100000
00100000
00000000
00000000
,
01000000
10000000
00100000
01000000
,
00010000
00010000
00000000
00000000
,
10000000
00000000
10000000
00000000
,
00100000
00100000
00000000
00000000
,
00100000
10000000
01000000
00100000
,
00001000
00000000
00000010
00000000
,
00000001
00000100
00000001
00000100
,
00000001
00000100
00010000
01000000
,
00100000
00000000
10000000
00000000
,
00010000
10000000
01000000
00100000
,
00100000
00100000
00100000
00000000
,
00010000
10000000
00010000
01000000
,
00010000
10000000
01000000
00010000
,
00001000
00000010
00000001
00000100
,
00000020
00000000
00000000
00000030
,
00000000
00000000
00000000
00000000
;

//---------------dance-double - ----------------
#NOTES:
     dance-double:
     :
     Medium:
     7:
     :
00000000
00000000
00000000
00000000
,
00000000
00000000
00000000
00000000
,
00000000
00000000
00000000
00000000
,
00000001
00000100
00000010
00001000
,
00001000
00000000
00000000
00000100
00000000
00010000
00001000
00000000
00000000
01000000
00000000
00000000
,
00020000
01000000
10000000
00130000
,
00010000
10000000
00010000
01000000
,
00001000
00000000
00001000
00010000
00000000
00000000
00010000
00000000
00010000
00000010
00000000
00000000
,
00000010
00000000
00000010
00001000
00000000
00000000
00000001
00000000
00000000
00001100
00000000
00000000
,
00000002
00000000
00000000
00000103
,
00000200
00000000
00000000
00000310
,
00000001
00000000
00000001
00001000
00000000
00000000
00001001
00000000
00000000
00000000
00000000
00000000
,
00000001
00000100
00001000
00010000
,
00100000
00000000
00100000
10000000
00000000
00000000
10000000
00000000
10000000
01000000
00000000
00000000
,
00100000
01000000
20000000
30010000
,
00010000
00000000
00010000
10000000
00000000
00000000
10010000
00000000
00000000
00000000
00000000
00000000
,
00020000
01030000
00200000
01300000
,
00002000
00000000
00000000
00013000
,
00000200
00000000
00000000
00000310
,
00000001
00000000
00000001
00000100
00000000
00000000
00000101
00000000
00000000
00000000
00000000
00000000
,
00000200
00000001
00000010
00001300
,
00010000
00100000
10000000
00010000
,
10000000
00100000
10000000
01000000
,
01000000
00000000
01000000
10000000
00000000
00000000
11000000
00000000
00000000
00000000
00000000
00000000
,
20000000
30010000
02000000
03001000
,
00020000
00000000
00000000
00030000
,
00000200
00000000
00000010
00000310
,
00000001
00000000
00000100
00000002
00000000
00000000
00000000
00000000
00000000
00001003
00000000
00000000
,
00000010
00000000
00010000
00002000
00000000
00000000
00000000
00000000
00000000
01003000
00000000
00000000
,
00010000
00000000
10000000
00200000
00000000
00000000
00000000
00000000
00000000
10300000
00000000
00000000
,
10010000
10000000
00100000
01000000
,
00010000
00000000
01000000
00002000
00000000
00000000
00000000
00000000
00000000
00013000
00000000
00000000
,
00000100
00000000
00000010
00000002
00000000
00000000
00000000
00000000
00000000
00000103
00000000
00000000
,
00000001
00000000
00001000
00000020
00000000
00000000
00000000
00000000
00000000
00000130
00000000
00000000
,
00000101
00001100
00011000
01010000
,
20000000
30010000
10000000
10000000
,
01000000
00010000
00000100
00000010
,
00000002
00000000
00000000
00001003
00000000
00000000
00000010
00000000
00001000
00000001
00000000
00000000
,
00001000
00000100
00010000
00000000
,
00002000
01003000
00000000
00010000
,
01000000
00100000
01000000
00010000
,
20000000
00000000
32000000
00000000
,
13000000
00100000
01000000
00010000
,
02000000
03001000
00010000
00010100
,
00000100
00001100
00001000
00001001
,
00000002
00000000
00000000
00000013
00000000
00000000
00000100
00000000
00001000
00000001
00000000
00000000
,
00000100
00001000
01000000
00000000
,
00200000
10300000
00010000
10000000
,
02000000
03100000
00020000
01030000
,
00001000
00000000
00010000
00001000
00000000
00000000
00010000
00000000
00000100
00000010
00000000
00000000
,
00000001
00000100
00000010
00001000
,
01000000
00010000
10000000
00010000
,
00010000
00000000
00000000
00100000
00000000
00001000
00010000
00000000
00000000
00000010
00000000
00000000
,
00002000
00000010
00000001
00003100
,
00001000
00000001
00001000
00000010
,
00010000
00000000
00010000
00001000
00000000
00000000
00001000
00000000
00001000
01000000
00000000
00000000
,
01000000
00000000
01000000
00010000
00000000
00000000
10000000
00000000
00000000
00110000
00000000
00000000
,
20000000
00100000
00000000
30100000
,
01000000
00200000
02000000
03300000
,
00000000
00000000
00000000
00000000
;

//---------------dance-double - ----------------
#NOTES:
     dance-double:
     :
     Hard:
     11:
     :
00000000
00000000
00000000
00000000
,
00000000
00000000
00000000
00000000
,
00000000
00000000
00000000
00000000
,
00010000
00000000
00001000
00000000
01000000
00000000
00100000
00000000
00000000
20000000
00000000
00000000
,
01000000
00000000
00000000
00000000
00000000
00000000
00000000
00000000
00000000
30000000
00000000
00000000
00000000
00000000
00000000
00000000
00000000
00000000
00000000
00000000
01000000
00000000
00000000
00000000
00100000
00000000
00000000
00000000
00000000
00000000
00000000
00000000
00000000
00000000
00000000
00000000
00110000
00000000
00000000
00000000
00000000
00000000
00000000
00000000
00000000
00000000
00000000
00000000
,
00002000
00000000
00003000
00010000
,
00001100
00000000
00001000
00000001
,
00000001
00000000
00000000
00000100
00000000
00000000
00000110
00000000
00000000
00001000
00000000
00000100
,
00010000
00001000
01000000
01010000
,
10000000
00000000
01000000
00100000
00000000
00000000
00100000
00000000
01000000
10000000
00000000
00000000
,
00100000
00000000
01000000
00001000
00000000
00010000
00000100
00000000
00001000
00000001
00000000
00000000
,
00000101
00000100
00000220
00000330
,
00000010
00000000
00000010
00001000
00000000
00001000
00010000
00000000
00010000
01000000
00000000
00000000
,
01000000
00000000
00000000
00100000
00000000
00000000
10000000
00000000
00000000
00010000
00000000
00010000
,
10000000
00000000
00000000
00000000
00000000
00000000
10000000
00000000
01000000
00100000
00000000
00000000
,
01100000
01000000
22000000
33000000
,
00000000
10000000
01000000
00010000
00001000
00000010
,
00000002
00000100
00000003
00000100
,
00000101
00000000
00000000
00000000
00000000
00000100
00000010
00000000
00000000
00010000
00000000
00000000
,
00011000
00001000
02020000
03030000
,
00100000
00000000
10000000
01000000
10000000
01000000
10000000
00000000
00000000
11000000
00000000
00000000
,
00100000
00000000
00100000
01000000
00000000
00000000
10000000
00000000
01000000
00100000
00000000
00000000
,
00001000
00000000
00010000
00000010
00000000
00000000
00000100
00000000
00000001
00000000
00000100
00000000
,
00000101
00000001
00002002
00003003
,
00001100
00000000
00000000
00010000
00000000
00001000
00100000
00000000
00000000
00110000
00000000
00000000
,
10000000
00000000
00100000
01000000
00000000
00000000
00010000
00000000
10000000
01000000
00000000
00000000
,
00100000
00000000
00100000
01000000
00000000
00000000
00001000
00000000
00000000
00011000
00000000
00000000
,
00000100
00000000
00000100
00000010
00000000
00000000
00000001
00000100
00000010
00001000
00000000
00000000
,
00000010
00000000
00000010
00010000
00000000
00000000
00001000
01000000
00100000
01000000
00000000
00000000
,
00010000
00000000
00010000
10000000
00000000
00000000
00100000
10000000
01000000
10000000
00000000
00000000
,
00010000
00000000
00010000
10000000
00000000
10000000
01000000
00000000
01000000
10000000
01000000
00100000
,
00010000
00000000
00010000
01000000
00000000
00000000
00001000
00010000
00000100
00001000
00000000
00000000
,
00001100
00000000
00001000
00000001
00000000
00000000
00000001
00000010
00000100
00001000
00000000
00000000
,
00000100
00000000
00000100
00010000
00000000
00000000
00001000
01000000
00010000
10000000
00000000
00000000
,
10000000
01000000
00010000
00001000
00000010
00000001
,
00000100
00000000
00000000
00001100
00000000
00000000
00000001
00000000
00000100
00000010
00000000
00000000
,
00000010
00000000
00010000
00001000
00000000
00000000
01000000
00000000
00000000
01010000
00000000
00000000
,
01000000
00000000
00000000
01100000
00000000
00000000
00010000
00000000
00010000
01000000
00000000
00000000
,
00100000
00000000
00100000
10000000
00000000
00000000
01000000
00000000
00000000
11000000
00000000
00000000
,
10100000
00000000
00000000
01010000
00000000
00000000
00000000
00000000
10000000
00000000
01000000
00000000
,
00200000
00000000
00000000
00000000
00000000
00000000
00000000
00000000
00000000
00000000
00000000
00000000
00000000
00000000
00000000
00000000
00000000
00000000
00000000
00000000
00000000
00300000
00000000
00000000
00000000
00000000
00000000
00000000
00000000
00000000
00000000
00000000
00001000
00000000
00000000
00000000
00000000
00000000
00000000
00000000
00010000
00000000
00000000
00000000
00000000
00000000
00000000
00000000
,
00011000
00000100
00000110
00000001
,
00000100
00000010
00000100
00000001
00000010
00000100
,
00010000
00000000
00000000
00011000
00000000
00000000
00001000
00000000
01000000
00010000
00000000
00000000
,
10000000
00000000
01000000
00100000
00000000
00000000
10000000
00000000
00000000
10100000
00000000
00000000
,
10000000
00000000
00000000
00110000
00000000
00000000
10000000
00000000
00010000
01000000
00000000
00000000
,
00001000
00000000
00010000
00000100
00000000
00001000
00000010
00000000
00000000
00000100
00000000
00000000
,
00000110
00000000
00000000
00000110
00000000
00000000
00000001
00000000
00001000
00000010
00000000
00000000
,
00000100
00000000
00000001
00000010
00000000
00000000
00000100
00000000
00010000
00001000
00000000
00000000
,
01000000
00010000
01000000
00100000
00000000
00000000
10000000
00100000
10000000
01000000
00000000
00000000
,
10000000
00000000
10000000
00010000
00000000
00010000
01000000
00000000
01000000
00001000
00010000
00000100
,
00000010
00000000
00000001
00000000
00000100
00000000
00000010
00000000
00000000
00002000
00000000
00000000
,
00000100
00000000
00000000
00000000
00000000
00000000
00000000
00000000
00000000
00003000
00000000
00000000
00000000
00000000
00000000
00000000
00000000
00000000
00000000
00000000
00000100
00000000
00000000
00000000
00000010
00000000
00000000
00000000
00000000
00000000
00000000
00000000
00000000
00000000
00000000
00000000
00001100
00000000
00000000
00000000
00000000
00000000
00000000
00000000
00000000
00000000
00000000
00000000
,
00020000
00000000
00030000
00001000
,
00110000
00000000
00010000
10000000
,
10000000
00000000
00000000
00100000
00000000
00000000
01100000
00000000
00000000
00010000
00000000
00100000
,
00001000
00010000
00000100
00001100
,
00000001
00000000
00000100
00000010
00000000
00000000
00000010
00000000
00000100
00000001
00000000
00000000
,
00000010
00000000
00000100
00010000
00000000
00001000
00100000
00000000
00010000
10000000
00010000
01000000
,
00000000
00000000
00000000
00000000
;

//---------------dance-double - ----------------
#NOTES:
     dance-double:
     :
     Challenge:
     13:
     :
00000000
00000000
00000000
00000000
,
00000000
00000000
00000000
00000000
,
00000000
00000000
00000000
00000000
,
00000001
00000000
00000100
00000000
00000010
00000000
00001000
00000000
00000000
00000100
00000000
00000000
,
00011000
00000000
00000000
01000000
00000000
00010000
01000000
00000000
00000000
01010000
00000000
00000000
,
00100000
00000000
10000000
00100000
00000000
00000000
10000000
00000000
01000000
00100000
00000000
00000000
,
01100000
00000000
00000000
00000000
00000000
00100000
01000000
00000000
01000000
00100000
00000000
00000000
,
00001000
00000000
00010000
00001000
00000000
00000000
00011000
00000000
00000000
00000100
00000000
00001000
,
00000100
00000000
00000000
00001000
00000000
00000001
00001000
00000000
00000000
00001001
00000000
00000000
,
00000010
00001000
00000100
00001000
00000000
00000000
00000100
00010000
00001000
01000000
00000000
00000000
,
00010000
01000000
10000000
01000000
00000000
00010000
10000000
00000000
01000000
00100000
00010000
00100000
,
00110000
00000000
20020000
30030000
,
10000000
00000000
10000000
01000000
00000000
01000000
00010000
00000000
00010000
00001000
00000000
00001000
,
00000010
00000000
00000010
00000001
00000000
00000001
00000100
00000000
00000100
00001000
00000000
00001000
,
00000100
00000000
00000100
00000001
00000000
00000000
00000101
00000000
00001001
00000000
00001100
00000000
,
00000101
00000000
00002002
00003003
,
00000100
00000001
00000100
00000000
00000010
00000000
00010000
00000000
00011000
00000000
01000000
00000000
,
00010000
00000000
00010000
01000000
00000000
00000000
00100000
00000000
00100000
01000000
00000000
00000000
,
10100000
00000000
00000000
01010000
00000000
00000000
00001000
00010000
00000100
00010000
00001000
01000000
,
00011000
00000000
00022000
00033000
,
00001000
01000000
00100000
10000000
00100000
01000000
00010000
00000000
00000000
10000000
00000000
00000000
,
01000000
00000000
01000000
00100000
00000000
00100000
00001000
00000000
00001000
00000010
00000000
00000000
,
00000010
00000001
00000100
00000001
00000000
00000000
00001010
00000000
00000110
00000000
00000010
00000000
,
00000101
00000000
00000202
00000303
,
00001001
00000000
00000001
00000100
00000010
00000100
00000001
00000000
00000110
00000000
00000000
00000000
,
00000001
00000000
00000000
00000100
00000000
00000000
00000110
00000000
00001000
00000100
00000000
00000000
,
00011000
00000000
01000000
00010000
00000000
00000000
01100000
00000000
00000000
01010000
00000000
00000000
,
10010000
00000000
10000000
01000000
00000000
00000000
00010000
00001000
00000010
00000001
00000000
00000000
,
00000011
00000000
00000001
00000100
00000000
00000000
00000010
00001000
00000010
00000100
00000000
00000010
,
00010000
00000000
00001000
01000000
00000000
00000000
00010000
01000000
10000000
01000000
00000000
00000000
,
00010000
00000000
00100000
01000000
00000000
10000000
01000000
00000000
01000000
10000000
00010000
01000000
,
00100000
00000000
10000000
00010000
00000000
00000000
01000000
00001000
00010000
00000100
00000000
00000000
,
00001100
00000000
00001000
00000100
00000000
00000000
00000010
00000001
00000100
00000001
00000010
00001000
,
00000010
00000000
00000001
00000100
00000000
00000000
00000001
00000100
00000010
00001000
00000000
00000000
,
00000100
00010000
00001000
00100000
00010000
01000000
,
10010000
00000000
01000000
10010000
00000000
00000000
00010000
00000000
00010000
01000000
00000000
01000000
,
00001000
00000000
00001000
00010000
00000000
00010000
00000100
00000000
00000000
00001100
00000000
00000000
,
00000110
00000000
00000010
00000011
00000000
00000000
00000001
00000000
00000001
00000100
00000000
00000000
,
00000010
00001000
00000100
00000000
00000000
00001100
00000000
00000000
00010000
00001000
00000000
00000000
,
00011000
00000000
01000000
01010000
00000000
00000000
00000000
00000000
10010000
00000000
11000000
00000000
,
01100000
00000000
00000000
00010000
00000000
00110000
00000000
00000000
01000000
00000000
11000000
00000000
,
20000000
00000000
00000000
00000000
00000000
00000000
00000000
00000000
30200000
00000000
00000000
00000000
00000000
00000000
00000000
00300000
,
01000000
00010000
10000000
00100000
01000000
00010000
,
10010000
00000000
00100000
10010000
00000000
00000000
10000000
00000000
10000000
00100000
00000000
00100000
,
01000000
00000000
01000000
00010000
00000000
00010000
01000000
00000000
00000000
01010000
00000000
00000000
,
01010000
00000000
01000000
01100000
00000000
00000000
10000000
01000000
00100000
00010000
00100000
01000000
,
10000000
00000000
00000000
10000000
00100000
01000000
00010000
01000000
00100000
10000000
00000000
00000000
,
10100000
00000000
10000000
10010000
00000000
00000000
01001000
00000000
00001000
00010000
00000000
00000000
,
00011000
00000000
00010000
00000010
00000000
00000000
00001010
00000000
00000100
00000010
00000000
00000000
,
00000100
00000010
00000100
00000001
00000000
00000000
00000001
00000100
00000001
00000010
00000000
00000000
,
00000001
00000010
00000100
00001000
00000001
00000100
00000010
00001000
00000001
00000010
00000100
00001000
,
00000001
00000000
00001000
00000000
00000100
00000000
00010000
00000000
00000000
00001000
00000000
00000000
,
01001000
00000000
00000000
01000000
00000000
01000000
00010000
00000000
00000000
01010000
00000000
00000000
,
00010000
00000000
00010000
01000000
00000000
00000000
00100000
00000000
00100000
10000000
00000000
00000000
,
10100000
00000000
00000000
00000000
00000000
10000000
01000000
00000000
01000000
00100000
00000000
00000000
,
00100000
00000000
00100000
00010000
00000000
00000000
00110000
00000000
00000000
00100000
00000000
00001000
,
00010000
00000000
00000000
00010000
00000000
00000100
00001000
00000000
00000000
00001100
00000000
00000000
,
00001000
00000001
00000100
00000101
00000000
00000000
00000001
00000010
00000100
00000110
00000000
00000000
,
00001000
00000001
00000100
00000010
00000000
00000010
00000100
00000000
00000100
00000010
00000100
00000110
,
00000000
00000000
00000000
00000000
;
