
//----- song ID: youg -----//
#TITLE:You gotta move it (feat. Julie Rugaard);
#ARTIST:Yuzo Koshiro;
#BANNER:You gotta move it (feat. Julie Rugaard).png;
#BACKGROUND:You gotta move it (feat. Julie Rugaard)-bg.png;
#CDTITLE:./CDTITLES/DANCE DANCE REVOLUTION EXTREME 2.png;
#MUSIC:You gotta move it (feat. Julie Rugaard).ogg;
#SAMPLESTART:35.78;
#SAMPLELENGTH:15;
#DISPLAYBPM:134;
#BPMS:0=133.6,4=134;
#BGCHANGES:8=You gotta move it (feat. Julie Rugaard).avi=1=0=0=0;

//---------------dance-single - ----------------
#NOTES:
     dance-single:
     :
     Beginner:
     4:
     :
0000
0000
0000
0000
,
0000
0000
0000
0000
,
0000
0000
0000
0000
,
0000
0000
0000
0000
,
0000
0000
0000
0000
,
0000
0000
0000
0000
,
0001
0000
0000
0000
,
1000
0000
0000
0000
,
0010
0000
0000
0000
,
0100
0000
0000
0000
,
1000
0000
0100
0000
,
0001
0000
0100
0000
,
1000
0000
0100
0000
,
0001
0000
1000
0000
,
0001
0000
0010
0000
,
1000
0000
0010
0000
,
0001
0000
0010
0000
,
1000
0000
0001
0000
,
2002
0000
0000
3003
,
0000
0000
0000
0000
,
0001
0000
1000
0000
,
0001
0000
0000
0000
,
0100
0000
1000
0000
,
0100
0000
0000
0010
,
0010
0000
0100
0000
,
0010
0000
0000
0000
,
0010
0000
0001
0000
,
0010
0000
0000
1000
,
1000
0000
0001
0000
,
1000
0000
0000
0000
,
0010
0000
0100
0000
,
0010
0000
0000
0100
,
0100
0000
0001
0000
,
0100
0000
0000
0000
,
1000
0000
0100
0000
,
1000
0000
0000
0000
,
0100
0000
0001
0000
,
0010
0000
0001
0000
,
0100
0000
0001
0000
,
0010
0000
1000
0000
,
0100
0000
1000
0000
,
0010
0000
1000
0000
,
0100
0000
1000
0000
,
0010
0000
0001
0000
,
0000
0000
1000
0000
,
1000
0000
0100
0000
,
1000
0000
0000
0000
,
0001
0001
0001
0000
,
1001
0000
0000
0000
,
0001
0000
0000
1000
,
1000
0000
0000
0100
,
0100
0000
0000
0010
,
0010
0000
0000
0001
,
0001
0000
0000
0000
,
0010
0000
0000
0000
,
0010
0000
0000
0000
;

//---------------dance-single - ----------------
#NOTES:
     dance-single:
     :
     Easy:
     5:
     :
0000
0000
0000
0000
,
0000
0000
0000
0000
,
0000
0000
0000
0000
,
0000
0000
0000
0000
,
0000
0000
0000
0000
,
0000
0000
0000
0000
,
1000
0000
0001
0000
,
0010
0000
0000
0000
,
0100
0000
0001
0000
,
1001
0000
0000
0000
,
1000
0100
0001
0100
,
1000
0100
0001
0100
,
1000
0100
0001
0100
,
1000
0100
0010
0000
,
0001
0010
1000
0010
,
0001
0010
1000
0010
,
0001
0010
1000
0010
,
0001
0010
0100
0000
,
2002
0000
0000
0000
,
0000
0000
0000
3003
,
0001
0001
1000
0100
,
0001
0000
0100
0000
,
1000
0100
1000
0100
,
1000
0000
0000
0010
,
1000
1000
0001
0010
,
1000
0000
0010
0000
,
0001
0010
0001
0010
,
0001
0000
0000
0000
,
1000
0100
0001
0000
,
0100
0001
0010
0000
,
0001
0010
1000
0000
,
0010
1000
0100
0000
,
0010
0001
0100
0000
,
0001
0100
1000
0000
,
0100
1000
0010
0000
,
1000
0010
0001
0000
,
2000
3100
0002
0103
,
0020
0030
0010
0000
,
2000
3100
0002
0103
,
0020
0030
0110
0000
,
0002
0013
2000
3010
,
0100
0000
0010
0001
,
0020
0030
0200
0300
,
1000
0000
1001
0000
,
0001
0000
1000
0100
,
1000
0000
0001
0100
,
0001
0000
0100
0010
,
0100
0100
0001
0001
,
1001
0000
0100
0000
,
0002
0000
0103
0000
,
2000
0000
3100
0000
,
0020
0000
0130
0000
,
0002
0000
0000
0003
,
2000
0000
0000
3000
,
0020
0030
0200
0300
,
0002
0003
2000
3000
;

//---------------dance-single - ----------------
#NOTES:
     dance-single:
     :
     Medium:
     8:
     :
0000
0000
0000
0000
,
0000
0000
0000
0000
,
0000
0000
0000
0000
,
0000
0000
0000
0000
,
0000
0000
0000
0000
,
0000
0000
0000
0000
,
0100
0001
0100
0010
,
1000
0001
0010
0100
,
1000
0010
0100
0001
,
0200
0010
0010
0310
,
0010
1000
0100
1000
,
0010
0000
0100
0000
0001
0010
0001
1000
,
0010
0100
0001
0100
,
0010
0000
1000
0000
0100
0010
0100
1000
,
0001
0100
1000
0100
,
0001
0000
0010
0000
0001
1000
0100
1000
,
0001
1000
0100
0001
,
0100
0000
1000
0000
0010
0100
0002
0000
,
0000
0000
0000
0000
,
0000
0000
0000
0003
,
1001
0110
0000
0000
,
0001
0100
0010
0000
0000
0000
1001
0000
,
0010
0001
1000
0000
0000
0000
0101
0000
,
1000
0100
0010
0000
0000
0000
1100
0000
,
0001
0010
0001
0000
1000
0100
1000
0000
,
0010
0100
0001
0000
0010
0100
1000
0000
,
0100
1000
0100
0000
0010
0001
0010
0000
,
0100
1000
0010
0000
0000
0000
0110
0000
,
0001
1000
0010
0100
,
0001
0100
0010
1000
,
0100
0001
0100
0000
1000
0100
1000
0000
,
0010
0001
0100
0000
0010
1000
0100
0000
,
0001
0100
1000
0100
,
0010
0001
1000
0001
,
1000
2000
0000
3200
0000
0320
0000
0032
,
0000
0023
0000
0230
0000
2300
0000
3001
,
1000
0000
0000
0100
1000
0000
0000
0010
,
0100
0000
0000
0001
1000
0000
0000
0100
,
0010
0000
0000
0001
0100
0000
0000
0010
,
1000
0000
0000
0002
0010
0000
0003
1000
,
0001
0000
0000
0100
0001
0000
0000
0010
,
0100
0000
0000
1000
0001
0000
0000
0100
,
0010
0000
0000
1000
0100
0000
0000
0010
,
0001
0000
0000
2000
0010
0000
3000
0000
,
1000
0100
0010
0001
,
2000
0002
0000
3003
,
0000
0010
0000
0100
0000
0001
0000
1000
,
0000
0010
0000
1000
0001
0001
0100
0000
,
2002
0000
0000
3003
,
0200
0300
0020
0030
,
0002
0003
2000
3000
,
0020
0000
0030
0000
0100
0000
0000
0001
,
0200
0000
0000
0000
0310
0000
0000
1000
,
0200
0000
0000
0000
0310
0000
0000
0001
,
0200
0000
0320
0030
,
2000
3000
0200
0000
,
0000
0000
0000
0300
;

//---------------dance-single - ----------------
#NOTES:
     dance-single:
     :
     Hard:
     10:
     :
0000
0000
0000
0000
,
0000
0000
0000
0000
,
0000
0000
0000
0000
,
0000
0000
0000
0000
,
0000
0000
0000
0000
,
0000
0000
0000
0000
0000
0001
0100
0010
,
0200
0000
0302
0000
0000
1003
0200
0000
,
0320
0000
0000
0000
0000
0130
1000
0000
,
0002
0000
2003
0000
0000
3010
0100
0010
,
2002
0000
0000
3003
,
0010
0000
1000
0000
0100
0000
0000
0000
0001
0000
0000
0001
0000
0000
0001
0000
,
0010
0000
0100
0000
1000
0000
0000
0000
0010
0000
0000
0010
0000
0000
0010
0000
,
0100
0000
0001
0000
0100
0000
0000
0000
1000
0000
0000
1000
0000
0000
1000
0000
,
0100
0000
0010
0000
0001
0000
0000
0000
0100
0000
0000
0100
0000
0000
0100
0000
,
0001
0000
0100
0000
1000
0000
0000
0000
0001
0000
0000
0001
0000
0000
0001
0000
,
0010
0000
0001
0000
1000
0000
0000
0000
0010
0000
0000
0010
0000
0000
0010
0000
,
0100
0000
0001
0000
0010
0000
0000
0000
0100
0000
0000
0100
0000
0000
0100
0000
,
1000
0100
0010
0100
1000
0001
0200
0000
,
0002
0000
0000
0000
,
0303
0000
0000
0010
1000
0100
0001
0100
,
1000
0000
0000
0010
0000
0000
0100
0000
0000
0000
0100
0000
0001
0000
1000
0000
,
0100
0000
0000
1000
0000
0000
0001
0000
0000
0000
0001
0000
0010
0000
0100
0000
,
0010
0000
0000
0001
0000
0000
0100
0000
0000
0000
0100
0000
0010
0000
1000
0000
,
0100
0000
0000
0010
0000
0000
0001
0000
0000
0000
0001
0000
0100
0000
0010
0000
,
1000
0000
0000
0010
0000
0000
1001
0000
0000
0000
1000
0000
0001
0000
0100
0000
,
0010
0000
0000
0100
0000
0000
1001
0000
0000
0000
0001
0000
0010
0000
0100
0000
,
1000
0000
0000
0001
0000
0000
1100
0000
0000
0000
0010
0000
0100
0000
0010
0000
,
1000
0000
0000
0100
0000
0000
0101
0000
0000
0000
1000
0000
0001
0000
0100
0000
,
0010
1000
0010
1000
0000
0001
0100
0001
,
0000
0001
0100
0001
0000
1000
0001
1000
,
0000
1000
0001
1000
0000
0001
1000
0001
,
0000
0001
1000
0001
0000
1000
0000
0010
,
1000
0000
0000
0001
0000
0000
0010
0000
0100
0000
0000
1000
0000
0000
0100
0000
,
0010
0000
0000
0001
0000
0000
0010
0000
0100
0000
0000
1000
0000
0000
0100
0000
,
0010
0000
0000
0001
0000
0000
1000
0000
0001
0000
0000
0100
0000
0000
0001
0000
,
1000
0000
0000
0010
0000
0000
1000
0000
0001
0000
0000
0100
0000
0000
0001
0000
,
1000
0000
0000
0010
0000
0000
0110
0000
0000
0000
0000
0000
0000
0000
1000
0000
,
0100
0000
0000
1000
0000
0000
1001
0000
0000
0000
0000
0000
0000
0000
0010
0000
,
0001
0000
0000
0100
0000
0000
1001
0000
0000
0000
0000
0000
0000
0000
0001
0000
,
1000
0000
0000
0100
0000
0000
0110
0000
0000
0000
0000
0000
0000
0000
0000
0000
,
0000
0100
0010
0001
0000
0001
0100
0010
,
0000
1000
0100
0010
0000
0100
1000
0100
,
0000
0010
0001
0010
0000
0001
0100
0001
,
0000
1000
0010
1000
0200
0000
0000
0300
,
0000
0000
0000
1000
0010
0100
0001
0100
,
1001
0000
0220
0000
0000
0000
0000
0300
,
0000
0100
0000
0100
0000
0100
0000
0130
,
0000
0000
0001
0000
0010
0000
0100
0000
0010
0000
0001
0000
1000
0001
1000
0000
,
2002
0000
0000
0000
,
0000
0000
0000
3003
,
0001
0000
0000
1000
0000
0000
0010
0000
0000
0000
0000
0000
0000
0000
0010
0000
,
1000
0000
0000
0001
0000
0000
0010
0000
0000
0000
0000
0000
0000
0000
0001
0000
,
0100
0000
0000
0001
0000
0000
1000
0000
0100
0000
0000
0010
0000
0000
0100
0000
,
1000
0000
0000
0010
0000
0000
0100
0000
0001
0000
0000
1000
0000
0000
0001
0000
,
0010
0000
0000
0001
0000
0000
1000
0000
0000
0000
0000
0000
0000
0000
0000
0000
,
0010
0000
0000
0100
0000
0000
0010
0000
0000
0000
0000
0000
0000
0000
0000
0000
,
1000
0000
0000
0001
0000
0000
1001
0000
0000
0000
0000
0000
0000
0000
0000
0000
;

//---------------dance-double - ----------------
#NOTES:
     dance-double:
     :
     Easy:
     5:
     :
00000000
00000000
00000000
00000000
,
00000000
00000000
00000000
00000000
,
00000000
00000000
00000000
00000000
,
00000000
00000000
00000000
00000000
,
00000000
00000000
00000000
00000000
,
00000000
00000000
00000000
00000000
,
00000001
00000000
00001000
00000000
,
00010000
00000000
00000000
00000000
,
00001000
00000000
00010000
00000000
,
10000000
00000000
00000000
00000000
,
00100000
00100000
10000000
10000000
,
01000000
01000000
00010000
00010000
,
00001000
00001000
00000100
00000100
,
00000001
00000001
00000010
00000000
,
00001000
00001000
00010000
00010000
,
01000000
01000000
10000000
10000000
,
00100000
00100000
00010000
00010000
,
00001000
00001000
00000100
00000000
,
00022000
00000000
00000000
00000000
,
00000000
00000000
00000000
00033000
,
00010000
01000000
10000000
01000000
,
10000000
00000000
00010000
00000000
,
00001000
00010000
00001000
00000100
,
00001000
00000000
00000000
00000001
,
00000010
00000001
00000100
00001000
,
00000100
00000000
00001000
00000000
,
01000000
00010000
01000000
10000000
,
01000000
00000000
00000000
00000000
,
10000000
00100000
00010000
00000000
,
00010000
00001000
00000010
00000000
,
00000010
00000001
00000100
00000000
,
00000100
00000001
00000010
00000000
,
00000001
00000100
00001000
00000000
,
00001000
00010000
01000000
00000000
,
01000000
10000000
00100000
00000000
,
00100000
10000000
01000000
00000000
,
00200000
00300000
20000000
30000000
,
02000000
03000000
00010000
00001000
,
00000200
00000300
00000002
00000003
,
00000020
00000030
00001000
00000000
,
00020000
00030000
02000000
03000000
,
20000000
30000000
00100000
00010000
,
00002000
00003000
00000200
00000300
,
00000002
00000003
00000010
00000000
,
00001000
00000000
00001000
00010000
,
00001000
00000000
00010000
01000000
,
00010000
00000000
01000000
10000000
,
01000000
01000000
10000000
10000000
,
10010000
00000000
00000000
00000000
,
02000000
03000000
00010000
00000000
,
00002000
00003000
00000100
00000000
,
00000002
00000003
00000010
00000000
,
00000200
00000000
00000000
00000300
,
00002000
00000000
00000000
00003000
,
00000002
00000003
00000200
00000300
,
00002000
00003000
00020000
00030000
;

//---------------dance-double - ----------------
#NOTES:
     dance-double:
     :
     Medium:
     7:
     :
00000000
00000000
00000000
00000000
,
00000000
00000000
00000000
00000000
,
00000000
00000000
00000000
00000000
,
00000000
00000000
00000000
00000000
,
00000000
00000000
00000000
00000000
,
00000000
00000000
00000000
00000000
,
00100000
10000000
01000000
00010000
,
00001000
00000000
00000010
00000000
,
00010000
00001000
00000010
00000001
,
00000200
00000000
00000000
00000300
,
00000001
00000100
00001000
00010000
,
01000000
10000000
00100000
10000000
,
00010000
00010000
10000000
10000000
,
00100000
00000000
00010000
00001000
00010000
00000000
00100000
00000000
,
10000000
01000000
00010000
00001000
,
00000010
00000001
00001000
00000100
,
00010000
00010000
00001000
00001000
,
00000100
00000000
00000010
00000100
00000010
00000000
00002000
00000000
,
00000002
00000000
00000000
00000000
,
00000000
00000000
00000000
00003003
,
00000001
00000000
00001000
00000000
00000001
00000100
00000001
00000000
,
00000100
00001000
00010000
01000000
,
10000000
00000000
00010000
00000000
10000000
01000000
10000000
00000000
,
01000000
00010000
00001000
00001000
,
00010000
00000000
00001000
00000000
00000100
00000001
00000010
00000000
,
00000001
00000100
00001000
00010000
,
01000000
00000000
10000000
00000000
00100000
01000000
00010000
00000000
,
10000000
01000000
00010000
00010000
,
00001000
00000000
00000010
00000000
00000000
00000001
00000100
00000000
,
00001000
00000000
00010000
00000000
00000000
00100000
10000000
00000000
,
01000000
00000000
00010000
00000000
00000000
00001000
00010000
00000000
,
00001000
00000000
00000100
00000000
00000001
00000010
00000100
00000000
,
00001000
00001000
00000001
00000001
,
00000100
00000000
00000100
00000000
00001000
00010000
00001000
00000000
,
00010000
00010000
01000000
01000000
,
10000000
00000000
00010000
00000000
00200000
00000000
00300000
00010000
,
01000000
00000000
00000000
10000000
01000000
00000000
00000000
00010000
,
00100000
00000000
00000000
01000000
00010000
00000000
00000000
00001000
,
00000100
00000000
00000000
00000001
00000010
00000000
00000000
00001000
,
00010000
00000000
00000000
00000200
00000010
00000000
00000300
00001000
,
00000100
00000000
00000000
00000001
00000100
00000000
00000000
00001000
,
00000010
00000000
00000000
00000100
00001000
00000000
00000000
00010000
,
01000000
00000000
00000000
10000000
00100000
00000000
00000000
00010000
,
00001000
00000000
00000000
00000200
00000010
00000000
00000300
00000000
,
00001000
00000100
00000001
00000010
,
00000002
00002000
00000000
00003003
,
00000000
00000100
00000000
00001000
00000000
00010000
00000000
00001000
,
00000000
00100000
00010000
10000000
01000000
01000000
00010000
00000000
,
00002000
00003000
00000200
00000300
,
00000002
00000003
00000200
00000300
,
00002000
00003000
00020000
00030000
,
02000000
00000000
03000000
00000000
10000000
00000000
00000000
00010000
,
20000000
00000000
00000000
00000000
31000000
00000000
00000000
00010000
,
00002000
00000000
00000000
00000000
00003010
00000000
00000000
00000001
,
00000200
00000000
00002300
00003000
,
00020000
00030000
00200000
00000000
,
00000000
00000000
00000000
00300000
;

//---------------dance-double - ----------------
#NOTES:
     dance-double:
     :
     Hard:
     10:
     :
00000000
00000000
00000000
00000000
,
00000000
00000000
00000000
00000000
,
00000000
00000000
00000000
00000000
,
00000000
00000000
00000000
00000000
,
00000000
00000000
00000000
00000000
,
00000000
00000000
00000000
00000000
00000000
00000001
00000010
00000001
,
00000200
00000000
00002300
00000000
00003000
00010000
00002000
00000000
,
00203000
00000000
00000000
00000000
00000000
00310000
10000000
00000000
,
00200000
00000000
02300000
00000000
00000000
03010000
00100000
01000000
,
20020000
00000000
00000000
30030000
,
10000000
00000000
00010000
00000000
10000000
00000000
00000000
00000000
00100000
00000000
00000000
00010000
00000000
00000000
00001000
00000000
,
00000010
00000000
00000001
00000000
00000010
00000000
00000000
00000000
00000001
00000000
00000000
00001000
00000000
00000000
00000100
00000000
,
00001000
00000000
00000010
00000000
00000100
00000000
00000000
00000000
00000010
00000000
00000000
00010000
00000000
00000000
00001000
00000000
,
00010000
00000000
01000000
00000000
10000000
00000000
00000000
00000000
00100000
00000000
00000000
10000000
00000000
00000000
00010000
00000000
,
00100000
00000000
01000000
00000000
10000000
00000000
00000000
00000000
01000000
00000000
00000000
00100000
00000000
00000000
00001000
00000000
,
00010000
00000000
00001000
00000000
00000100
00000000
00000000
00000000
00001000
00000000
00000000
00000100
00000000
00000000
00000001
00000000
,
00000010
00000000
00000001
00000000
00001000
00000000
00000000
00000000
00000010
00000000
00000000
00000100
00000000
00000000
00001000
00000000
,
00010000
00001000
00010000
01000000
10000000
00100000
00020000
00000000
,
00002000
00000000
00000000
00000000
,
00033000
00000000
00000000
00001000
00000100
00000001
00000100
00001000
,
00010000
00000000
00000000
00001000
00000000
00000000
00010000
00000000
00000000
00000000
01000000
00000000
10000000
00000000
00010000
00000000
,
01000000
00000000
00000000
00010000
00000000
00000000
10000000
00000000
00000000
00000000
00100000
00000000
01000000
00000000
00001000
00000000
,
00010000
00000000
00000000
00001000
00000000
00000000
00010000
00000000
00000000
00000000
00001000
00000000
00000100
00000000
00000001
00000000
,
00000010
00000000
00000000
00000001
00000000
00000000
00001000
00000000
00000000
00000000
00000010
00000000
00000100
00000000
00000010
00000000
,
00010000
00000000
00000000
00001000
00000000
00000000
00011000
00000000
00000000
00000000
00010000
00000000
00100000
00000000
01000000
00000000
,
00100000
00000000
00000000
10000000
00000000
00000000
10010000
00000000
00000000
00000000
00100000
00000000
01000000
00000000
00010000
00000000
,
00001000
00000000
00000000
00010000
00000000
00000000
00010010
00000000
00000000
00000000
00001000
00000000
00000100
00000000
00000001
00000000
,
00000010
00000000
00000000
00000001
00000000
00000000
00001001
00000000
00000000
00000000
00001000
00000000
00000100
00000000
00000001
00000000
,
00000100
00001000
00000100
00001000
00000000
00000001
00000100
00001000
,
00000000
00001000
00010000
01000000
00000000
01000000
10000000
00100000
,
00000000
00100000
10000000
01000000
00000000
01000000
00010000
00001000
,
00000000
00001000
00000100
00000001
00000000
00000001
00000010
00000000
,
00000001
00000000
00000000
00000100
00000000
00000000
00000010
00000000
00010000
00000000
00000000
00001000
00000000
00000000
01000000
00000000
,
00010000
00000000
00000000
00100000
00000000
00000000
01000000
00000000
10000000
00000000
00000000
00010000
00000000
00000000
00100000
00000000
,
00001000
00000000
00000000
00010000
00000000
00000000
00000010
00000000
00001000
00000000
00000000
00000100
00000000
00000000
00000010
00000000
,
00000001
00000000
00000000
00001000
00000000
00000000
00000010
00000000
00000100
00000000
00000000
00000001
00000000
00000000
00001000
00000000
,
00000001
00000000
00000000
00000100
00000000
00000000
00002000
00000000
00000000
00000000
00000000
00000000
00000000
00000000
00013000
00000000
,
00001000
00000000
00000000
00100000
00000000
00000000
02000000
00000000
00000000
00000000
00000000
00000000
00000000
00000000
03100000
00000000
,
00010000
00000000
00000000
10000000
00000000
00000000
00200000
00000000
00000000
00000000
00000000
00000000
00000000
00000000
01300000
00000000
,
00010000
00000000
00000000
00100000
00000000
00000000
00002000
00000000
00000000
00000000
00000000
00000000
00000000
00000000
00003000
00000000
,
00000000
01000000
00010000
00001000
00010000
00001000
00000100
00000001
,
00000000
00000010
00000001
00000010
00000100
00010000
00001000
00010000
,
00000000
00001000
00000100
00000001
00000010
00001000
00010000
00100000
,
00000000
10000000
01000000
10000000
02000000
00000000
03000000
00000000
,
00010000
00000000
00000000
00001000
00000100
00001000
00000100
00000001
,
00000010
00000000
00002002
00000000
00000000
00000000
00000000
00003000
,
00000000
00001000
00000000
00001000
00000000
00000103
00000000
00000200
,
00000000
00000000
00001300
00000000
00010000
00000000
00001000
00000000
00010000
00000000
01000000
00000000
10000000
01000000
10000000
00000000
,
02000000
00000000
00000000
00000000
,
00000000
00000000
00000000
03000000
,
10000000
00000000
00000000
00010000
00000000
00000000
01000000
00000000
00000000
00000000
00000000
00000000
00000000
00000000
00001000
00000000
,
00010000
00000000
00000000
00001000
00000000
00000000
00000100
00000000
00000000
00000000
00000000
00000000
00000000
00000000
00000001
00000000
,
00000010
00000000
00000000
00000001
00000000
00000000
00001000
00000000
00000100
00000000
00000000
00000010
00000000
00000000
00001000
00000000
,
00010000
00000000
00000000
00001000
00000000
00000000
00010000
00000000
00100000
00000000
00000000
00010000
00000000
00000000
00100000
00000000
,
10000000
00000000
00000000
01000000
00000000
00000000
10000000
00000000
00000000
00000000
00000000
00000000
00000000
00000000
00000000
00000000
,
00010000
00000000
00000000
01000000
00000000
00000000
00100000
00000000
00000000
00000000
00000000
00000000
00000000
00000000
00000000
00000000
,
00010000
00000000
00000000
00001000
00000000
00000000
00011000
00000000
00000000
00000000
00000000
00000000
00000000
00000000
00000000
00000000
;
