
//----- song ID: tlov -----//
#TITLE:TRUE♥LOVE;
#ARTIST:jun feat. Schanita;
#BANNER:TRUE LOVE.png;
#BACKGROUND:TRUE LOVE-bg.png;
#CDTITLE:./CDTITLES/Dancing Stage SuperNOVA.png;
#MUSIC:TRUE LOVE.ogg;
#SAMPLESTART:48.52;
#SAMPLELENGTH:15;
#BPMS:0=188;
#STOPS:232=0.638;
#BGSTAGE:5;
#NOTES:
     dance-single:
     :
     Beginner:
     4:
     :
0000
0000
0000
0000
,
0000
0000
0000
0000
,
0000
0000
0000
0000
,
0000
0000
0000
0000
,
0000
0000
0000
0000
,
0001
0000
0010
0000
,
1000
0000
0100
0000
,
1000
0000
0010
0000
,
1000
0000
1000
0000
,
0000
1000
0000
0001
,
0000
0100
0000
0010
,
0000
0100
0000
0001
,
0000
1000
0000
0001
,
0000
0100
0000
1000
,
0000
0010
0000
0001
,
0000
0010
0000
1000
,
0000
0100
0000
0001
,
0000
0000
0000
0000
,
0000
0001
0000
0100
,
0000
0010
0000
0100
,
0000
0001
0000
0010
,
0000
1000
0000
0001
,
0000
1000
0000
0100
,
0000
0010
0000
0100
,
0000
0001
0000
0010
,
0000
1000
0000
0001
,
0000
1000
0000
0000
,
0001
0001
0000
0000
,
0001
0001
0000
0000
,
1000
1000
0000
0000
,
0100
0000
0100
0000
,
0010
0000
0010
0000
,
0001
0000
1000
0000
,
0001
0000
0001
0000
,
0001
0000
0001
0000
,
0100
0000
1000
0000
,
0001
0000
0100
0000
,
0010
0000
1000
0000
,
0100
0000
0010
0000
,
0010
0000
0100
0000
,
1000
0000
0001
0000
,
1000
0000
0100
0000
,
1000
0000
0000
0000
,
0001
0000
0000
0000
,
0100
0000
0000
0000
,
0010
0010
0010
0000
,
0001
0000
0100
0000
,
1000
0000
0100
0000
,
0010
0000
0001
0000
,
1000
0000
1000
0000
,
0010
0000
0100
0000
,
0001
0000
0100
0000
,
1000
0000
0001
0000
,
0001
0000
1000
0000
,
1000
0000
0001
0000
,
0010
0000
0001
0000
,
0010
0000
0100
0000
,
1000
0000
0100
0000
,
0010
0000
0000
0000
,
1000
0000
0000
0000
,
0001
0000
0000
0000
,
0100
0000
0010
0000
,
0001
0000
1000
0000
,
0100
0000
0001
0000
,
0010
0000
0001
0000
,
1000
0000
1000
0000
,
0100
0100
0000
0000
,
0100
0000
0100
0000
,
0010
0000
0001
0000
,
0100
0000
0010
0000
,
0010
0010
0000
0000
,
1000
0000
1000
0000
,
0100
0000
0010
0000
,
0100
0000
0001
0000
,
1001
0000
0000
0000
,
0000
0000
0000
0000
;
#NOTES:
     dance-single:
     :
     Easy:
     4:
     :
0000
0000
0000
0000
,
0000
0000
0000
0000
,
0000
0000
0000
0000
,
0000
0000
0000
0000
,
0000
0000
0000
0000
,
0001
0000
0010
0000
,
1000
0000
0100
0000
,
1000
0000
0010
0000
,
1000
0001
1000
0000
,
0000
1000
0000
0001
,
0000
0100
0000
0010
,
0000
0100
0000
0001
,
0000
1000
0000
0001
,
0000
0100
0000
1000
,
0000
0010
0000
0001
,
0000
0010
0000
1000
,
0000
0100
0000
0001
,
0020
0000
0000
0030
,
0000
0001
0000
0100
,
0000
0010
0000
0100
,
0000
0001
0000
0010
,
0000
1000
0000
0001
,
0000
1000
0000
0100
,
0000
0010
0000
0100
,
0000
0001
0000
0010
,
0000
1000
0000
0001
,
1000
1000
0100
0000
,
0001
0001
0100
0000
,
0001
0001
0010
0000
,
1000
1000
0010
0000
,
0100
0001
0100
0000
,
0010
0001
0010
0000
,
0001
0000
1000
0000
,
0001
1000
0001
1000
,
0001
0100
0001
0000
,
0100
0010
1000
0000
,
0001
0010
0100
0000
,
0010
0100
1000
0000
,
0100
0001
0010
0000
,
0010
1000
0100
0000
,
1000
0000
0001
0000
,
1000
0001
0100
0000
,
2000
0000
0000
3000
,
0002
0000
0000
0003
,
0200
0000
0000
0300
,
0010
0010
0010
0000
,
0001
0000
0100
0000
,
1000
0000
0100
0000
,
0010
0000
0001
0000
,
1000
0001
1000
0000
,
0010
0001
0100
0000
,
0001
0010
0100
0000
,
1000
0010
0001
0000
,
0001
0100
1000
0000
,
1000
0100
0001
0000
,
0010
1000
0001
0000
,
0010
0000
0100
0000
,
1000
0010
0100
0000
,
0010
0000
0000
0000
,
1000
0000
0000
0000
,
0001
0000
0000
0000
,
0100
0000
0010
0000
,
0001
0000
1000
0000
,
0100
0000
0001
0000
,
0010
0000
0001
0000
,
1000
0001
1000
0000
,
0100
0100
0010
0000
,
0100
0001
0100
0000
,
0010
0100
0001
0000
,
0100
0001
0010
0000
,
0010
0010
0001
0000
,
1000
0010
1000
0000
,
0100
1000
0010
0000
,
0100
1000
0001
0000
,
1001
0000
0000
0000
,
0000
0000
0000
0000
;
#NOTES:
     dance-single:
     :
     Medium:
     8:
     :
0000
0000
0000
0000
,
0000
0000
0000
0000
,
0000
0000
0000
0000
,
0000
0000
0000
0000
,
0000
0000
0000
0000
,
1000
0010
1000
0000
,
0001
0010
0100
0000
,
2002
3003
0220
0330
,
0001
1000
0010
1001
,
0010
0100
1000
1010
,
0001
0100
0001
0110
,
1000
0101
0010
1100
,
0010
1001
0110
1001
,
0001
1000
0010
0101
,
1000
0010
0001
1010
,
0001
0010
0100
1001
,
0010
0001
0100
1000
,
0020
0000
0030
1001
,
0010
1000
0001
0110
,
0100
0010
0001
1100
,
0010
1000
0100
0010
,
0001
0010
0100
1001
,
0001
1000
0010
1100
,
0010
0001
1000
0101
,
0010
0100
0001
0010
,
1000
0010
0100
1001
,
0001
1100
0001
1100
,
0010
0001
1000
0100
,
1000
0011
1000
0011
,
0100
0010
0001
1000
,
0100
1001
0100
1001
,
0010
1000
0010
0101
,
1000
0010
0001
0100
,
1000
0001
1000
0100
,
1001
0110
1000
0001
,
0100
0010
0001
0010
,
1100
0011
0100
0001
,
0010
0100
0001
1001
,
0101
1100
0010
1000
,
0010
0001
0100
0010
,
0101
1010
0001
0010
,
1000
0001
0100
0011
,
2001
0100
0010
0100
,
0001
0010
0100
3010
,
0001
1000
0010
0100
,
0001
0010
0100
0010
,
1002
0010
1000
0100
,
0010
1000
0100
0013
,
0100
0001
1000
0100
,
1000
0010
0001
1001
,
0110
1000
0100
0010
,
1000
0010
0100
0010
,
0001
0010
1000
0100
,
1000
0110
1001
0110
,
0001
0100
1000
0001
,
0010
0001
1000
0100
,
0010
0101
0010
1100
,
0001
0010
0100
1001
,
0010
1000
0100
0000
,
0010
0001
0100
0000
,
0010
1000
0001
0000
,
1000
0100
0010
0000
,
1000
0001
0100
0010
,
0100
1000
0010
0001
,
0220
0330
2002
3003
,
0010
1000
0010
1001
,
0100
1100
0010
0011
,
0100
1010
0100
1001
,
0010
0101
1000
0011
,
0100
1000
0010
1001
,
0010
0101
1000
0110
,
0001
1010
0001
1100
,
0100
1001
0010
1010
,
0100
0001
0100
0010
,
1001
0000
0000
0000
,
0000
0000
0000
0000
;
#NOTES:
     dance-single:
     :
     Hard:
     10:
     :
0000
0000
0000
0000
,
0000
0000
0000
0000
,
0000
0000
0000
0000
,
0000
0000
0000
0000
,
0000
0000
0000
0000
,
1000
0010
0100
0000
1000
0000
0000
0000
,
0001
1000
0100
0000
0010
0000
0000
0000
,
0001
0100
1000
0010
,
0100
0000
0000
0001
0000
0000
0010
0000
0100
0000
0000
0000
1001
0000
0000
0000
,
0100
0000
0010
0000
1000
0100
1000
0000
,
0001
0000
0010
0000
0001
0100
0001
0000
,
1000
0000
0001
0000
0010
0100
1000
0000
,
0100
0101
1001
1010
,
0001
0000
1000
0000
0010
0100
0010
0000
,
1000
0000
0100
0000
0010
0100
1000
0000
,
0001
0000
0100
0000
0010
1000
0001
0000
,
0100
0000
0001
0000
0010
0001
1000
0010
,
0200
0000
0300
1001
,
0100
0000
1000
0001
0000
0001
0100
0000
,
0010
0000
0100
0001
0000
0001
0010
0000
,
0100
0000
1000
0000
0010
1000
0100
0000
,
0001
0000
0100
0000
1000
0000
0010
1000
,
0001
0000
1000
0010
0000
0010
1000
0000
,
0100
0000
0010
0001
0000
0001
0010
0000
,
0100
0000
0010
0000
0001
0100
0001
0000
,
1000
0001
0000
0110
0000
1000
0010
0000
,
0001
0000
0100
0000
1010
0000
0100
0010
,
0000
0001
0000
0100
0000
1000
0100
0000
,
0001
0000
1000
0000
0110
0000
0010
0001
,
0000
1000
0000
0100
0010
0000
0100
1000
,
0001
0000
0100
0000
1100
0000
0010
0001
,
0000
1000
0000
0010
0000
0100
0001
0000
,
0010
0001
0100
0000
0010
1000
0100
0000
,
1000
0000
0001
0010
0000
1000
0010
0000
,
1001
0000
0110
0000
1000
0000
0001
0100
,
0000
0010
0100
0001
0000
1000
0100
0000
,
1010
0000
0101
0000
0010
0000
0001
0100
,
0000
1000
0010
0100
0000
0001
1000
0000
,
0011
0000
1010
0000
0100
0000
1000
0001
,
0000
0100
0001
0010
0000
1000
0100
0000
,
0011
0000
1100
0000
0001
1000
0100
0000
,
0010
0000
0000
0100
0000
0000
1000
0000
0010
0000
0000
0000
0101
0000
0000
0000
,
0010
0000
1000
0100
0000
1000
0010
1000
,
0000
0010
0001
0010
0000
0001
0100
0001
,
0000
0100
1000
0100
0000
1000
0010
1000
,
0001
0000
0100
0010
0000
0100
0001
0000
,
0010
0000
0001
0100
0000
0001
0010
0001
,
0000
0010
1000
0010
0000
1000
0100
1000
,
0000
0100
0001
0100
0000
0001
0010
0001
,
1000
0001
0000
0110
0000
0001
1000
0000
,
0011
0000
1100
0000
0010
1000
0100
0000
,
1010
0000
0101
0000
0010
0001
0100
0000
,
1001
0110
1001
0110
,
1001
0000
0010
1000
0001
1000
0100
0000
,
0101
0000
0011
0000
1000
0010
0001
0000
,
1100
0000
0101
0000
1000
0100
0010
0000
,
0101
0011
1010
1100
,
0001
1000
0100
0010
0100
1000
0001
0100
,
0010
0000
1000
0000
0001
0000
0010
0100
,
0000
1000
0000
0010
0000
1000
0100
0000
,
1000
0000
0001
0000
0010
0000
0001
1000
,
0000
0010
0000
0100
0000
0001
0010
0000
,
0001
1000
0000
0010
0000
0100
0000
0010
,
0001
1000
0000
0100
1000
0001
0100
0000
,
1000
0100
0000
1000
0001
1000
0000
0100
,
0010
0000
0000
0001
0000
0000
0010
0000
0100
0000
0000
0000
1001
0000
0000
0000
,
0010
0000
1000
0100
0000
0010
0001
0100
,
0000
0010
1000
0100
0000
0010
0001
0100
,
0000
0001
0010
0100
0000
1000
0010
0100
,
0010
0000
1000
0100
0000
1000
0010
0000
,
0100
0000
0001
0100
0000
0010
0100
0001
,
0000
0010
0100
1000
0000
0001
1000
0010
,
0000
1000
0001
0010
0000
0100
1000
0100
,
0010
0001
0000
1010
0000
0001
0100
0000
,
1001
0000
0000
0000
,
0000
0000
0000
0000
;
#NOTES:
     dance-single:
     :
     Challenge:
     15:
     :
0000
0000
0000
0000
,
0000
0000
0000
0000
,
0000
0000
0000
0000
,
0000
0000
0000
0000
,
0000
0000
0000
0000
,
0101
0000
1100
0000
0001
0100
0001
0010
,
0000
0100
1000
0010
0100
0001
0100
0001
,
0000
1000
0100
1000
0001
0000
1000
0001
,
0100
0000
0000
0010
0000
0000
1000
0000
0001
0000
0000
0000
0011
0000
0000
0000
,
1000
0000
0100
0000
0010
0000
0100
0000
1000
0000
0001
0100
0001
0000
0100
0010
,
0100
0000
0001
0000
0010
0000
0100
0000
0010
0000
0001
1000
0001
0000
1000
0100
,
1000
0000
0010
0000
0100
0000
0010
0000
1000
0000
0001
0010
0001
0000
0010
0100
,
0010
0000
0001
0000
1000
0000
0001
0000
0100
0000
0010
1000
0010
0000
1000
0001
,
1000
0000
0010
0000
0100
0000
0010
0000
1000
0000
0001
0010
0001
0000
0010
0100
,
1000
0000
0001
0000
0100
0000
0010
0000
0100
0000
0001
1000
0001
0000
1000
0100
,
0010
0000
0001
0000
1000
0000
0010
0000
1000
0000
0001
0100
0001
0000
0100
0010
,
1000
0100
0010
0100
1000
0010
0100
0001
,
0020
0000
0030
1001
,
0001
0010
0100
0110
0000
0011
0001
1000
,
0010
0100
0001
1001
0000
1010
1000
0001
,
0010
0100
1000
0010
0000
0100
0010
1000
,
0001
0010
0100
0010
0001
0100
0010
1000
,
0001
0100
0010
1010
0000
0011
0001
1000
,
0100
0010
0001
0101
0000
1100
1000
0001
,
0100
0010
1000
0100
0000
0010
0100
1000
,
0001
1000
0000
1100
0000
0011
0001
0100
,
0010
0000
0000
1000
0100
0000
0000
0001
0100
0000
0010
0000
0001
0000
0010
0000
,
0100
1000
0010
0100
0001
1000
0100
1000
,
0001
0000
0000
0100
1000
0000
0000
0100
0001
0000
0010
0000
0001
0000
1000
0000
,
0010
0100
0001
0010
0100
1000
0001
0100
,
1000
0000
0000
0001
0010
0000
0000
1000
0100
0000
0010
0000
0001
0000
1000
0000
,
0100
1000
0010
0100
0001
0010
0100
1000
,
0010
0100
0001
0001
1000
1000
0100
0100
,
0110
0000
0001
0011
0000
1000
1010
0000
,
1000
0001
0100
0000
0001
0010
0001
0010
,
0100
1000
0001
0100
0010
1000
0010
1000
,
0100
0010
0100
2000
0000
3001
0010
0100
,
1000
0010
1000
0001
0100
0010
0100
0010
,
0100
0001
1000
0000
0100
0010
0100
0010
,
0001
1000
0010
0100
0001
1000
0001
1000
,
0100
0010
0100
2000
0000
3010
0100
0001
,
1000
0000
0000
0100
0000
0000
0001
0000
0100
0000
0000
0000
1001
0000
0000
0000
,
0001
0010
0100
1000
0001
1000
0100
0010
,
0001
0100
0010
1000
0001
1000
0010
0100
,
0001
0100
1000
0100
0001
1000
0100
0001
,
0100
0010
0001
1000
0000
0010
0100
0010
,
1000
0100
0010
0001
1000
0001
0010
0100
,
1000
0010
0100
0001
1000
0001
0100
0010
,
1000
0010
0001
0010
1000
0001
0010
1000
,
0010
0100
0000
0110
0000
0001
1000
0000
,
0001
0000
0010
0000
0100
0000
0010
0000
0001
0000
1000
0010
1000
0000
0010
0100
,
0010
0000
1000
0000
0100
0000
0010
0000
0100
0000
1000
0001
1000
0000
0001
0010
,
0001
0000
0100
0000
0010
0000
0100
0000
0001
0000
1000
0100
1000
0000
0100
0010
,
0100
0000
1000
0000
0001
0000
1000
0000
0010
0000
0100
0001
0100
0000
0001
1000
,
0001
0000
0100
0000
0010
0000
0100
0000
0001
0000
1000
0100
1000
0000
0100
0010
,
0001
0000
1000
0000
0010
0000
0100
0000
0010
0000
1000
0001
1000
0000
0001
0010
,
0100
1000
0100
1000
0001
0100
0001
0100
,
0010
1000
0010
0000
1000
0001
1000
0000
0001
0010
0001
0000
0010
0100
0010
0000
,
0001
0000
1000
0000
0001
0100
0010
0100
,
0000
0001
0010
0200
0000
2300
0000
0000
,
3001
1000
0001
0010
0000
0001
0100
0010
,
1000
0100
0010
0001
0000
1000
0001
0000
,
0100
0001
1000
0000
0001
0010
0100
1000
,
0000
0010
0100
0010
0100
0001
0100
0001
,
1000
0100
0010
0001
1000
0010
0100
0001
,
1000
0000
0000
0010
0000
0000
0001
0000
0010
0000
0000
0000
1001
0000
0000
0000
,
0001
1000
0100
0001
1000
0001
0100
1000
,
0001
1000
0010
0001
1000
0001
0010
1000
,
0001
1000
0100
0001
1000
0001
0100
1000
,
0001
0100
0010
1000
0000
0100
0010
0100
,
1000
0001
0010
1000
0001
1000
0010
0001
,
1000
0001
0100
1000
0001
1000
0100
0001
,
1000
0001
0010
1000
0001
1000
0010
0001
,
1000
0000
0001
0000
0000
0000
0110
0000
0000
0000
0001
0000
1000
0100
1000
0100
,
1000
0000
0000
0000
,
0000
0000
0000
0000
;
#NOTES:
     dance-double:
     :
     Easy:
     4:
     :
00000000
00000000
00000000
00000000
,
00000000
00000000
00000000
00000000
,
00000000
00000000
00000000
00000000
,
00000000
00000000
00000000
00000000
,
00000000
00000000
00000000
00000000
,
00001000
00000000
00000010
00000000
,
00000001
00000000
00000100
00000000
,
00000001
00000000
00000010
00000000
,
00000001
00001000
00000001
00000000
,
00000001
00000000
00000100
00000000
,
00001000
00000000
00010000
00000000
,
01000000
00000000
10000000
00000000
,
00010000
00000000
10000000
00000000
,
00100000
00000000
00010000
00000000
,
01000000
00000000
10000000
00000000
,
00100000
00000000
00010000
00000000
,
00001000
00000000
00010000
00000000
,
00002000
00000000
00000000
00003000
,
00000010
00000000
00000001
00000000
,
00000010
00000000
00000100
00000000
,
00001000
00000000
00000010
00000000
,
00000001
00000000
00001000
00000000
,
00000001
00000000
00000100
00000000
,
00001000
00000000
00010000
00000000
,
01000000
00000000
00100000
00000000
,
00010000
00000000
10000000
00000000
,
00010000
00000000
01000000
00000000
,
10000000
00000000
01000000
00000000
,
10000000
00000000
00100000
00000000
,
00010000
00000000
00001000
00000000
,
00000100
00000000
00000001
00000000
,
00000010
00000000
00001000
00000000
,
00000001
00000000
00001000
00000000
,
00000001
00001000
00000001
00000000
,
00000100
00000100
00000010
00000000
,
00000100
00000000
00000001
00000000
,
00000010
00000010
00001000
00000000
,
00010000
00000000
00001000
00000000
,
00010000
00010000
00100000
00000000
,
10000000
00000000
01000000
00000000
,
10000000
00000000
00010000
00000000
,
10000000
00010000
10000000
00010000
,
00100000
00000000
00100000
00000000
,
10000000
00000000
10000000
00000000
,
01000000
00000000
01000000
00000000
,
00010000
00010000
00010000
00000000
,
00001000
00000000
00001000
00000000
,
00000100
00000000
00000100
00000000
,
00000010
00000000
00000010
00000000
,
00000001
00001000
00000001
00000000
,
00000010
00000000
00000100
00000000
,
00001000
00000000
00000100
00000000
,
00000001
00000000
00001000
00000000
,
00000010
00000000
00001000
00000000
,
00010000
00000000
01000000
00000000
,
00100000
00000000
10000000
00000000
,
00100000
00000000
01000000
00000000
,
00010000
00000000
10000000
00000000
,
01000000
00000000
00000000
00000000
,
00010000
00000000
00000000
00000000
,
00001000
00000000
00000000
00000000
,
00000100
00000000
00000000
00000000
,
00001000
00000000
00000001
00000000
,
00000100
00000000
00000010
00000000
,
00000001
00000000
00001000
00000000
,
00000001
00001000
00000001
00000000
,
00000100
00000100
00000010
00000000
,
00000001
00000001
00000100
00000000
,
00000010
00000010
00001000
00000000
,
00010000
00010000
00001000
00001000
,
00010000
00010000
01000000
00000000
,
10000000
10000000
01000000
00000000
,
00100000
00100000
01000000
00000000
,
00010000
10000000
00010000
00000000
,
10010000
00000000
00000000
00000000
,
00000000
00000000
00000000
00000000
;
#NOTES:
     dance-double:
     :
     Medium:
     8:
     :
00000000
00000000
00000000
00000000
,
00000000
00000000
00000000
00000000
,
00000000
00000000
00000000
00000000
,
00000000
00000000
00000000
00000000
,
00000000
00000000
00000000
00000000
,
10000000
00000000
00100000
00000000
,
00010000
00000000
01000000
00000000
,
00010000
00000000
00100000
00000000
,
00010000
10000000
00100000
10010000
,
00100000
01000000
10000000
00100000
,
00010000
00001000
00010000
01000000
,
00010000
00001000
00000010
00000001
,
00000100
00001000
00000100
00000001
,
00000010
00001000
00000010
00000001
,
00000100
00001000
00010000
00100000
,
10000000
00100000
01000000
10000000
,
00100000
00010000
01000000
00001000
,
00020000
00000000
00030000
00011000
,
00001000
00000100
00000001
00000101
,
00001000
00000010
00000001
00001100
,
00010000
00000010
00001000
00010000
,
01000000
00100000
10000000
01010000
,
00100000
00010000
01000000
11000000
,
00100000
00010000
00001000
00000110
,
00000100
00000001
00000010
00001000
,
00000001
00000100
00001000
00000110
,
00001002
00000100
00001000
00000013
,
00000100
00001000
00010000
01000000
,
20010000
00100000
00010000
31000000
,
00100000
01000000
00010000
00100000
,
00021000
00000010
00001000
00030010
,
00001000
00000100
00000001
00000110
,
00001000
00000010
00000001
00000100
,
00001000
00010000
00001000
00011000
,
00110000
11000000
00100000
01000000
,
10000000
00100000
00010000
00100000
,
11000000
01010000
00100000
00001000
,
00010000
00000100
00001000
00000010
,
00000101
00000011
00000100
00001000
,
00000010
00000001
00000010
00001000
,
00010000
01000000
10000000
00100000
,
01000000
00010000
00100000
10010000
,
01000000
00010000
00001000
00000010
,
00001000
00010000
00100000
00010000
,
00001000
00000100
00001000
00010000
,
01000000
10000000
00100000
00010000
,
00001000
00000100
00001000
00010000
,
00001000
00000010
00001000
00010000
,
01000000
00010000
00001000
00000010
,
00000001
00001000
00000010
00000101
,
00002001
00000010
00000001
00003100
,
00000001
00000100
00001000
00010000
,
00100000
01000000
10000000
01000000
,
10000000
01100000
10010000
01100000
,
10020000
01000000
00100000
10030000
,
00100000
00010000
10000000
01000000
,
00010000
00001000
00010000
00100000
,
00010000
00001000
00000100
00001001
,
00000010
00000001
00000100
00000000
,
00000010
00001000
00000100
00000000
,
00000010
00000000
00000001
00000000
,
00001000
00000100
00000010
00000000
,
00000001
00000100
00001000
00010000
,
01000000
10000000
00100000
00010000
,
02200000
03300000
20020000
30030000
,
00100000
00010000
01000000
10010000
,
00100000
11000000
00100000
01010000
,
10000000
00100000
00010000
00001000
,
00000100
00001001
00000010
00001001
,
00000010
00001000
00000100
00001000
,
00000010
00000101
00000010
00001100
,
00000001
00000110
00001000
00000110
,
00000001
00000010
00001000
00010000
,
00001000
00010000
01000000
00100000
,
10010000
00000000
00000000
00000000
,
00000000
00000000
00000000
00000000
;
#NOTES:
     dance-double:
     :
     Hard:
     10:
     :
00000000
00000000
00000000
00000000
,
00000000
00000000
00000000
00000000
,
00000000
00000000
00000000
00000000
,
00000000
00000000
00000000
00000000
,
00000000
00000000
00000000
00000000
,
00000001
00000100
00000010
00000000
00001000
00000000
00000000
00000000
,
00001000
00000001
00000010
00000000
00000100
00000000
00000000
00000000
,
00001000
00000001
00000100
00001000
,
00010000
00000000
00000000
00100000
00000000
00000000
01000000
00000000
00100000
00000000
00000000
00000000
10010000
00000000
00000000
00000000
,
00100000
01000000
00000000
00001000
00010000
00001000
00000000
00100000
,
00010000
10000000
00000000
01000000
00010000
00001000
00000000
00000010
,
00000001
00001000
00000000
00000001
00000010
00000100
00000000
00001000
,
00000010
00000100
00001000
00010000
,
00000010
00001000
00000000
00000100
00010000
00000100
00000000
00001000
,
00000010
00000100
00000000
00001000
00010000
00100000
00000000
10000000
,
00010000
00100000
00000000
01000000
10000000
00010000
00000000
01000000
,
00001000
00010000
00000000
00010000
00001000
00000100
00000001
00000000
,
00000020
00000000
00000030
00001001
,
00000010
00000000
00000100
00000001
00000000
00000010
00000100
00000000
,
00001000
00000000
00000001
00000100
00000000
00001000
00010000
00000000
,
00100000
00000000
10000000
00000000
01000000
00100000
00010000
00000000
,
01000000
00000000
00001000
00010000
00000000
00000010
00001000
00000000
,
00000100
00000000
00010000
00001000
00000000
00100000
00010000
00000000
,
10000000
00000000
01000000
00010000
00000000
00001000
00000100
00000000
,
00000001
00000000
00001000
00000000
00000010
00000100
00000001
00000000
,
00001000
00000100
00000000
00000010
00000000
00000001
00000100
00000000
,
00001010
00011000
01010000
11000000
,
00100000
00000000
00001000
00000000
00010000
00000100
00000010
00000000
,
00000101
00001100
00011000
00110000
,
10000000
00000000
00100000
00000000
01000000
00010000
10000000
00000000
,
01100000
10010000
01001000
00010010
,
00000100
00000000
00001000
00000000
00000010
00000100
00000001
00000000
,
00001000
00000100
00000010
00000000
00000001
00000100
00001000
00000000
,
00010000
00000000
01000000
10000000
00000000
00010000
01000000
00000000
,
10010000
00000000
01100000
00000000
00010000
10000000
00100000
00000000
,
00010000
00000000
00001000
00010000
00000000
00000010
00001000
00000000
,
00000101
00000000
00001010
00000000
00000100
00010000
00001000
00000000
,
00100000
00000000
00010000
10000000
00000000
00100000
01000000
00000000
,
10010000
00000000
01001000
00000000
00010000
00000010
00001000
00000000
,
00000100
00000000
00010000
00001000
00000000
00100000
00010000
00000000
,
01000000
00000000
00001000
00000000
00010000
00000100
00000010
00000000
,
00000001
00000000
00000000
00001000
00000000
00000000
00000010
00000000
00000100
00000000
00000000
00000000
00001001
00000000
00000000
00000000
,
00000100
00010000
00000100
00000000
00001000
00000010
00000100
00000000
,
00001000
00010000
00001000
00000000
00100000
00010000
01000000
00000000
,
00100000
10000000
00100000
00000000
01000000
00001000
00010000
00000000
,
00110000
00011000
00001100
00000101
,
00000010
00001000
00000010
00000000
00010000
00001000
00000100
00000000
,
00000010
00001000
00000010
00000000
00010000
00001000
00000010
00000000
,
00000001
00000100
00000001
00000000
00001000
00000100
00000010
00000000
,
00000001
00001000
00000000
00000110
00000000
00001000
00000001
00000000
,
00000101
00001010
00011000
01010000
,
00011000
00001010
00011000
01010000
,
11000000
10100000
00110000
00011000
,
00001100
00000000
00000011
00000000
00000100
00001000
00010000
00000000
,
00110000
11000000
10100000
01010000
,
00011000
00001010
00000101
00000011
,
00001100
00011000
00110000
10100000
,
01010000
00000000
10100000
00000000
01000000
00010000
10000000
01000000
,
00010000
00000000
00001000
00000000
00000100
00000000
00000001
00000010
,
00000000
00000100
00000000
00001000
00000000
00000001
00000100
00000000
,
00001000
00000000
00010000
00000000
00100000
00000000
00010000
00001000
,
00000000
00000010
00000000
00000001
00000000
00000100
00001000
00000000
,
00010000
00000000
01000000
00000000
10000000
00000000
00010000
01000000
,
00000000
00100000
00000000
10000000
01000000
00100000
00010000
00000000
,
10000000
01000000
10000000
00000000
00010000
01000000
00010000
00000000
,
00100000
00000000
00000000
00001000
00000000
00000000
00010000
00000000
00000010
00000000
00000000
00000000
00001001
00000000
00000000
00000000
,
00000010
00000100
00000010
00000000
00000001
00000100
00001000
00000000
,
00010000
00001000
00010000
00000000
00000010
00001000
00000100
00000000
,
00000010
00000001
00000010
00000000
00000100
00010000
00001000
00000000
,
00100000
00000000
00010000
01000000
00000000
00100000
10000000
00000000
,
01000000
00010000
00001000
00000000
00000100
00001000
00010000
00000000
,
01000000
10000000
00100000
00000000
01000000
00001000
00010000
00000000
,
01000000
00010000
00001000
00000000
00000100
00000001
00000010
00000000
,
00000100
00001000
00000000
00000001
00000000
00000100
00001000
00000000
,
00011000
00000000
00000000
00000000
,
00000000
00000000
00000000
00000000
;
#NOTES:
     dance-double:
     :
     Challenge:
     15:
     :
00000000
00000000
00000000
00000000
,
00000000
00000000
00000000
00000000
,
00000000
00000000
00000000
00000000
,
00000000
00000000
00000000
00000000
,
00000000
00000000
00000000
00000000
,
00011000
00000000
00010100
00000000
00000100
00001000
00000001
00000010
,
00000000
00000100
00001000
00000010
00010000
00001000
00010000
00001000
,
00000000
01000000
00010000
10000000
00010000
00000000
00100000
01000000
,
10000000
00000000
00000000
00100000
00000000
00000000
00010000
00000000
00001000
00000000
00000000
00000000
00011000
00000000
00000000
00000000
,
00010000
00000000
00001000
00000000
00000100
00000000
00000010
00000000
00000100
00000000
00000001
00000000
00001000
00000000
00000100
00000010
,
00000100
00000000
00000010
00000000
00000001
00000000
00000100
00000000
00001000
00000000
00010000
00000000
00100000
00000000
01000000
00100000
,
01000000
00000000
00010000
00000000
10000000
00000000
01000000
00000000
00010000
00000000
00001000
00000000
00010000
00000000
00000100
00001000
,
00000100
00000010
00000001
00000100
00000010
00001000
00000100
00010000
,
00001000
00000000
00010000
00000000
00100000
00000000
01000000
00000000
00100000
00000000
10000000
00000000
00010000
00000000
00100000
01000000
,
00100000
00000000
01000000
00000000
10000000
00000000
00100000
00000000
00010000
00000000
00001000
00000000
00000100
00000000
00000010
00000100
,
00000010
00000000
00001000
00000000
00000001
00000000
00000010
00000000
00001000
00000000
00010000
00000000
00001000
00000000
00100000
00010000
,
00100000
01000000
10000000
00100000
00010000
00001000
00000100
00000001
,
00002000
00000000
00003000
00001100
,
00000100
00010000
00001000
00010000
00000000
00011000
00001000
00100000
,
00010000
01000000
00100000
10000000
00000000
10010000
10000000
01000000
,
00100000
00010000
01000000
00001000
00000000
00010000
00001000
00010000
,
00000010
00001000
00000001
00001000
00000100
00010000
00001000
00010000
,
00001000
00100000
00010000
10000000
00000000
10100000
00100000
10000000
,
01000000
00010000
00001000
00010000
00000000
00010010
00010000
00000010
,
00001000
00000001
00000010
00000100
00000000
00001000
00000010
00010000
,
00001000
00100000
00000000
00110000
00000000
10010000
10000000
00100000
,
10000000
00000000
00000000
01000000
00010000
00000000
00000000
00010000
00001000
00000000
00010000
00000000
00000010
00000000
00001000
00000000
,
00000100
00000010
00000001
00000100
00000010
00001000
00000010
00000100
,
00000001
00000000
00000000
00000010
00001000
00000000
00000000
00001000
00010000
00000000
00001000
00000000
01000000
00000000
00010000
00000000
,
00100000
01000000
10000000
00100000
01000000
00010000
01000000
00100000
,
10000000
00000000
00000000
00100000
00010000
00000000
00000000
00010000
00001000
00000000
00010000
00000000
00000100
00000000
00001000
00000000
,
00000010
00000100
00001000
00010000
00001000
00100000
00010000
01000000
,
00001000
00010000
00000100
00000100
00001000
00001000
00000001
00000001
,
00000011
00000000
00001000
00001100
00000000
00000010
00000110
00000000
,
00000001
00001000
00000100
00000000
00010000
00001000
00010000
00001000
,
01000000
00010000
00100000
01000000
10000000
00010000
10000000
00010000
,
00100000
00001000
00010000
00002000
00000000
00013000
00001000
00000100
,
00000010
00000100
00000010
00000100
00000001
00000010
00000100
00001000
,
00000001
00001000
00000010
00000000
00010000
00001000
00010000
00001000
,
00100000
00010000
01000000
00100000
10000000
01000000
10000000
01000000
,
00010000
00001000
00000010
00000002
00000000
00000013
00000100
00001000
,
00000001
00000000
00000000
00000100
00000000
00000000
00001000
00000000
00010000
00000000
00000000
00000000
00011000
00000000
00000000
00000000
,
00010000
00000100
00001000
00000010
00010000
00001000
00100000
00010000
,
01000000
00001000
00010000
00000010
00001000
00000100
00010000
00001000
,
01000000
00010000
00100000
00001000
00010000
00000010
00001000
00000100
,
00010000
00001000
00000010
00000001
00000000
00001000
00000100
00010000
,
00001000
00100000
00010000
01000000
00001000
00010000
00000100
00001000
,
00000010
00010000
00001000
01000000
00010000
00100000
00001000
00010000
,
00000010
00001000
00000100
00010000
00001000
01000000
00010000
00100000
,
00001000
00010000
00000000
01000000
00000000
10000000
00010000
00000000
,
10000000
00000000
01000000
00000000
00010000
00000000
00001000
00000000
00010000
00000000
00000100
00000000
00001000
00000000
00000100
00000010
,
00000100
00000000
00000010
00000000
00000001
00000000
00000100
00000000
00001000
00000000
00010000
00000000
00001000
00000000
00100000
00010000
,
00100000
00000000
00010000
00000000
10000000
00000000
01000000
00000000
00010000
00000000
00001000
00000000
00010000
00000000
00000100
00001000
,
00000100
00001000
00000001
00000010
00001000
00010000
01000000
10000000
,
00100000
00000000
00010000
00000000
00001000
00000000
00010000
00000000
00001000
00000000
00000100
00000000
00000010
00000000
00000100
00000001
,
00000100
00000000
00000001
00000000
00000010
00000000
00001000
00000000
00000010
00000000
00001000
00000000
00010000
00000000
00001000
00010000
,
00001000
00010000
01000000
10000000
01000000
10000000
00010000
01000000
,
00001000
00010000
00001000
00000000
00010000
00000100
00010000
00000000
00000100
00001000
00000100
00000000
00001000
00000001
00001000
00000000
,
00000001
00000000
00001000
00000000
00000100
00010000
00001000
00010000
,
00000000
00001000
00010000
00200000
00000000
02300000
00000000
00000000
,
03010000
10000000
00010000
00100000
00000000
00001000
00010000
00001000
,
00010000
00001000
00000100
00000010
00000000
00001000
00000001
00000000
,
00001000
00000010
00010000
00000000
00001000
00010000
01000000
10000000
,
00000000
00010000
01000000
00010000
01000000
00001000
00010000
00001000
,
00010000
00000010
00001000
00000100
00000010
00000001
00001000
00000001
,
00000100
00000000
00000000
00001000
00000000
00000000
00010000
00000000
00100000
00000000
00000000
00000000
01100000
00000000
00000000
00000000
,
00100000
00010000
10000000
01000000
00010000
00100000
01000000
00010000
,
00001000
00000010
00000100
00000001
00001000
00000010
00000100
00001000
,
00000001
00000100
00000010
00001000
00010000
01000000
00100000
10000000
,
01000000
00010000
00001000
00000010
00000000
00000001
00001000
00000001
,
00000100
00001000
00000001
00000010
00001000
00000100
00000010
00001000
,
00010000
01000000
00100000
10000000
00010000
01000000
00100000
00010000
,
10000000
00100000
01000000
00010000
00001000
00000010
00000100
00000001
,
00001000
00000000
00000010
00000000
00000000
00000000
00010000
00000000
00000000
00000000
00001000
00000000
01000000
00000000
00010000
10000000
,
00010000
00000000
00000000
00000000
,
00000000
00000000
00000000
00000000
;
