
//----- song ID: stas -----//
#TITLE:STARS☆☆☆(2nd NAOKI's style);
#ARTIST:TЁЯRA;
#BANNER:STARS (2nd NAOKI's style).png;
#BACKGROUND:STARS (2nd NAOKI's style)-bg.png;
#CDTITLE:./CDTITLES/DANCE DANCE REVOLUTION HOME VERSION.PNG;
#MUSIC:STARS (2nd NAOKI's style).ogg;
#SAMPLESTART:69.45;
#SAMPLELENGTH:15;
#BPMS:0=140;

//---------------dance-single - ----------------
#NOTES:
     dance-single:
     :
     Beginner:
     3:
     :
0000
0000
0000
0000
,
0000
0000
0000
0000
,
0000
0000
0000
0000
,
1000
0000
1000
0000
,
0100
0000
0100
0000
,
0010
0010
0000
0000
,
0100
0100
0000
0000
,
0010
0000
1000
0000
,
0001
0001
0000
0000
,
0100
0000
0000
0000
,
0100
0000
0000
0000
,
1000
0000
1000
0000
,
0001
0000
0001
0000
,
0001
0000
0000
0000
,
0000
0000
0000
0000
,
1000
0000
0000
0000
,
0000
0000
0000
0000
,
1001
1001
0000
0000
,
0010
0010
0000
0000
,
0010
0000
1000
0000
,
0100
0000
0001
0000
,
0010
0010
0000
0000
,
0001
0001
0000
0000
,
1000
1000
0000
0000
,
0010
0000
1000
0000
,
1001
1001
0000
0000
,
1001
1001
0000
0000
,
0010
0010
0000
0000
,
0001
0000
0001
0000
,
1000
0000
1000
0000
,
0100
0000
0100
0000
,
0010
0000
0010
0000
,
0001
0000
1000
0000
,
0000
1000
0000
1000
,
0000
0001
0000
0001
,
0001
0001
0000
1000
,
0000
1000
1000
0000
,
0001
0000
0001
0000
,
1000
0000
1000
0000
,
1001
0000
0000
0000
,
0000
0000
0000
0000
,
0010
0010
0000
0000
,
0100
0100
0000
0000
,
1000
0000
1000
0000
,
1001
0000
0001
0000
,
0100
0000
0001
0000
,
0010
0000
1000
0000
,
0001
0000
0001
0000
,
1000
0000
1000
0000
,
0010
0010
0000
0000
,
0100
0000
0100
0000
,
0001
0000
1000
0000
,
1001
0000
0001
0000
,
1000
1000
1000
0000
,
0010
0010
0010
0000
,
1000
0000
1000
0000
,
0001
0000
0001
0000
,
1000
0000
1000
0000
,
0001
0000
0100
0100
,
0000
0000
0000
0000
;

//---------------dance-single - ----------------
#NOTES:
     dance-single:
     :
     Easy:
     6:
     :
0000
0000
0000
0000
,
0000
0000
0000
0000
,
0000
0000
0000
0000
,
1000
0000
1000
0000
,
0100
0010
0001
1000
,
0010
1000
0100
0010
,
0001
1000
0100
0001
,
0100
0010
1000
0001
,
1000
0001
1000
0200
0000
0000
0000
0000
,
0000
0000
0000
0000
,
0000
0000
0000
0300
,
0020
0000
0032
0000
,
0203
0000
0320
0000
,
2030
0000
0000
0000
,
0000
0000
0000
3000
,
0002
0000
0000
0003
,
0100
0000
0010
0000
,
1001
1001
0100
0100
,
0010
0010
1000
1000
,
0010
1000
0100
0001
,
0010
0001
0100
1000
,
0010
0010
1000
0100
,
0010
0001
0100
0110
,
1000
0100
0010
0001
,
0100
0010
1000
0100
,
0110
0110
0001
1000
,
0010
0100
0001
1000
,
0110
0110
1000
0001
,
0100
0010
1000
0100
,
0010
1000
0100
0001
,
0010
0001
0100
1000
,
0010
0010
1000
0100
,
0010
0001
0100
0010
,
2000
0000
0000
3000
,
0002
0000
0000
0003
,
0001
0010
1000
0010
,
0001
0100
0010
1000
,
2000
0000
0000
3000
,
0002
0000
0000
0003
,
2002
0000
0000
3003
,
0001
0001
0000
0000
0100
0100
0000
0000
,
0010
0010
1001
1001
,
0010
1000
0100
0001
,
0010
0001
0100
1000
,
0100
1001
0010
1000
,
0100
0001
0100
1000
,
0100
0010
1000
0100
,
0010
0001
0100
0010
,
1000
0100
0001
0100
,
0010
0010
1001
1001
,
0100
0001
0100
1000
,
0100
0001
0010
1000
,
0100
0001
0100
1000
,
0100
1000
0001
0100
,
0010
1000
0100
0001
,
0010
0001
0100
1000
,
0100
0010
1000
0001
,
1000
0001
0100
0000
0020
0000
0030
0000
,
0100
0000
0100
0000
0001
1000
0200
0000
,
0000
0000
0000
0300
,
0000
0000
0000
0000
;

//---------------dance-single - ----------------
#NOTES:
     dance-single:
     :
     Medium:
     8:
     :
0000
0000
0000
0000
,
0000
0000
0000
0000
,
0010
0010
1000
0001
,
1000
1000
1000
1000
,
0100
0010
0001
1000
,
0010
1100
0010
0101
,
0010
0100
0001
1000
,
0100
0010
1000
0001
,
1000
0001
1000
0010
0200
0000
0000
0000
,
0001
0000
0001
0000
,
0001
0000
0001
0300
,
0020
0000
2030
0000
,
3200
0000
0320
0000
,
0032
0000
0000
0000
,
0000
0000
0000
0003
,
2000
0000
0000
3000
,
0010
0000
0100
0000
,
1001
1001
0100
0100
,
0010
0010
1000
1000
,
0001
1100
0001
1100
,
0010
0101
0010
0101
,
0010
0000
0010
0000
1000
0100
0010
0000
,
0001
0100
0010
1100
,
0010
0000
0001
0000
1000
0100
0010
0000
,
1000
0001
0010
0100
,
0110
0000
0110
0000
0001
0100
0010
0000
,
1000
0101
0010
0101
,
1001
0000
1001
0000
0010
0100
0001
0000
,
1000
1100
0001
1100
,
0010
0000
0001
0000
0100
0010
1000
0000
,
0100
0000
0010
0000
0001
0100
0010
0000
,
1000
0010
0001
0100
,
1000
0100
0001
0010
,
0002
0100
0000
0103
,
0200
0010
0000
0310
,
0001
0100
0010
0000
1000
0100
0010
0000
,
0001
1000
0100
0000
0010
0001
1000
0000
,
2001
0001
0001
3001
,
0102
0100
0100
0103
,
0220
0000
0000
0330
,
1001
1001
0000
0000
0110
0110
0000
0000
,
0010
0010
1100
0101
,
0010
1000
0100
0001
,
0010
0001
0100
1000
,
0010
0101
0010
1100
,
0010
1000
0100
0001
,
0100
0010
1000
0101
,
1000
0001
1100
0101
,
1000
0110
1001
0100
,
0010
0000
0010
0000
1000
0100
0010
0000
,
0001
0100
0010
1000
,
0100
0010
0001
0100
,
0001
0101
1000
1100
,
0010
0001
0100
0010
,
1000
0000
0100
0000
0001
1000
0100
0000
,
0010
0100
1000
0000
0001
1000
0100
0000
,
0001
0100
0010
0000
0110
0000
0101
0000
,
0010
0000
1000
0000
0100
0000
0010
0000
0002
0000
0000
0100
0003
0000
0000
0000
,
1000
0000
1000
0000
0010
0100
0010
0200
,
0000
0000
0000
0300
,
0000
0000
0000
0000
;

//---------------dance-single - ----------------
#NOTES:
     dance-single:
     :
     Hard:
     9:
     :
0000
0000
0000
0000
,
0000
0000
0000
0000
,
1000
0001
0010
0000
0100
0010
0100
0000
,
0010
0001
0100
0010
2000
0000
3100
0000
,
0110
1001
0101
0110
,
0010
1000
0100
0010
0002
0000
0103
0000
,
0010
0100
0001
1000
0200
0000
0310
0000
,
0001
1000
0100
0000
0010
0001
0100
0000
,
1010
0110
1001
0110
,
2000
0010
3001
0100
,
0002
1000
0013
1000
,
0200
0001
0302
0100
,
0203
0010
0320
0100
,
0230
0010
0001
0010
,
1000
0010
0001
0310
,
0110
0110
1100
1100
,
1001
1001
0110
0101
,
0010
0100
0010
0100
0001
0000
1000
0000
,
1100
0010
0010
0010
,
0010
0100
0010
0100
0001
0000
1000
0000
,
0101
1000
1000
1000
,
1001
0000
1001
0000
0010
1000
0100
0000
,
0110
0000
0110
0000
0001
0100
0010
0000
,
1000
0001
0010
0000
0100
0010
0001
0000
,
0100
0010
1000
0000
0100
0010
0001
0000
,
1001
0000
1001
0000
0010
1000
0100
0000
,
0010
1100
0001
1100
,
0110
0000
0110
0000
1000
0001
0100
0000
,
0010
0101
1000
0101
,
0010
1000
0100
0000
0010
0001
0100
0000
,
0010
1000
0100
0010
0001
0100
0010
0000
,
1000
0001
0100
0000
0110
0000
1001
0000
,
0100
0000
0010
0001
0100
0010
1000
0000
,
0002
1000
0100
1003
,
0200
0010
0001
0310
,
0100
0010
1000
0000
0100
0010
0001
0000
,
1000
0001
0100
0000
0010
1000
0001
0000
,
2001
0000
0001
0100
0001
0000
3001
0000
,
0102
0000
0100
1000
0100
0000
0103
0000
,
0220
0000
0000
0330
,
1001
1001
0000
0000
0110
0110
0000
0000
,
0010
0000
0010
1000
0100
0000
0110
0000
,
0001
1000
0010
0000
0100
0010
0100
0000
,
0010
1000
0100
0010
0002
0000
0103
0000
,
0110
1001
1100
0110
,
0010
0001
0100
0010
2000
0000
3100
0000
,
0010
0100
1000
0001
0200
0000
0310
0000
,
1000
0001
0100
0000
0010
1000
0100
0000
,
0011
0110
1001
0110
,
0001
0000
0001
0100
0010
0000
1100
0000
,
0010
0001
0100
0000
0010
0100
0001
0000
,
1000
0100
0010
0001
0100
0010
1000
0000
,
0010
0001
0100
0000
1100
0000
0101
0000
,
0010
1000
0100
0010
0002
0000
0103
0000
,
0010
0100
0001
1000
0020
0000
0130
0000
,
1000
0001
0100
0010
1000
0100
0010
0000
,
0001
1000
0100
0010
0001
0000
1100
0000
,
0010
0000
0001
0000
0100
0000
0010
0000
2000
0000
0000
0100
3000
0000
0100
0000
,
0010
0000
0000
0010
0000
0000
0010
0000
0001
0000
0100
0000
0010
0000
0200
0000
,
0000
0000
0000
0300
,
0000
0000
0000
0000
;

//---------------dance-double - ----------------
#NOTES:
     dance-double:
     :
     Easy:
     6:
     :
00000000
00000000
00000000
00000000
,
00000000
00000000
00000000
00000000
,
00000000
00000000
00000000
00000000
,
00001000
00000000
00001000
00000000
,
00000001
00000100
00000010
00010000
,
01000000
10000000
00010000
01000000
,
00001000
00000010
00000001
00000100
,
00000010
00000010
00001000
00000001
,
00000100
00000010
00000100
00000000
00002000
00000000
00000000
00000000
,
00023000
00000000
00230000
00000000
,
20300000
00000000
32000000
00000000
,
03200000
00000000
00302000
00000000
,
00003200
00000000
00000302
00000000
,
00002003
00000000
00000000
00000000
,
00000000
00000000
00000000
00000000
,
00000000
00000000
00000000
00003000
,
00000001
00000000
00001000
00000000
,
00000110
00000110
00010000
00010000
,
00100000
00100000
01000000
01000000
,
10000000
00100000
01000000
00001000
,
00000010
00000001
00000100
00000010
,
00010000
01000000
10000000
10010000
,
01000000
01000000
00100000
10010000
,
00100000
00001000
00000100
00000001
,
00001000
00000010
00001000
00000001
,
00001001
00001001
00000010
00010000
,
01000000
10000000
00010000
10000000
,
10010000
10010000
01000000
00001000
,
00000010
00000001
00000100
00000010
,
00001000
00001001
00000010
00010000
,
00100000
10000000
01000000
00100000
,
00010000
00010000
01000000
00001000
,
00000100
00000001
00000010
00000100
,
00002000
00000000
00000000
00003000
,
00000002
00000000
00000000
00000003
,
00001000
00000100
00000001
00001000
,
00100000
10000000
01000000
00100000
,
00020000
00000000
00000000
00030000
,
02000000
00000000
00000000
03000000
,
02200000
00000000
00000000
03300000
,
00001000
00001000
00000000
00000000
00000100
00000100
00000000
00000000
,
00000010
00000010
00001001
00001001
,
00000010
00010000
01000000
10000000
,
00010000
10000000
01000000
00100000
,
00001000
00011000
00000100
00000110
,
00000001
00000100
00001000
00100000
,
01000000
00100000
00010000
10000000
,
01000000
00010000
00100000
00001000
,
00000100
00000001
00001000
00000100
,
00000010
00000010
00001001
00001001
,
00000010
00001000
00000100
00010000
,
00100000
10000000
01000000
00100000
,
00010000
01100000
00001000
00011000
,
00000010
00000100
00000001
00001000
,
00000100
00010000
00100000
10000000
,
00010000
01000000
00100000
01000000
,
00001000
00001000
00000100
00000001
,
00000010
00001000
00000100
00020000
00000000
00000000
00030000
00000000
,
00001000
00000000
00001000
00000000
00010000
00001000
00010000
02000000
,
00000000
00000000
00000000
03000000
,
00000000
00000000
00000000
00000000
;

//---------------dance-double - ----------------
#NOTES:
     dance-double:
     :
     Medium:
     8:
     :
00000000
00000000
00000000
00000000
,
00000000
00000000
00000000
00000000
,
10000000
10000000
00100000
01000000
,
00010000
00010000
00010000
00010000
,
00001000
00000100
00000001
00001000
,
00000010
00001100
00000010
00000101
,
00000010
00010000
01000000
10000000
,
00100000
01000000
00001000
00000010
,
00000001
00001000
00000001
00000010
00000200
00000000
00000000
00000000
,
00000010
00000000
00000010
00000000
,
00000010
00000000
00000010
00000300
,
00000002
00000000
00000203
00000000
,
00000320
00000000
00020030
00000000
,
02030000
00000000
00000000
00000000
,
00000000
00000000
00000000
03000000
,
20000000
00000000
00000000
30000000
,
00100000
00000000
01000000
00000000
,
00011000
00011000
00000100
00000100
,
00000010
00000010
00000001
00000001
,
00001000
00000101
00001000
00000101
,
00000010
00011000
00000010
00011000
,
01000000
00000000
01000000
00000000
10000000
00010000
01000000
00000000
,
00001000
00000010
00000001
00000110
,
00010000
00000000
00100000
00000000
10000000
00010000
01000000
00000000
,
00100000
01000000
00001000
00000010
,
00000110
00000000
00000110
00000000
00000001
00001000
00000100
00000000
,
00000001
00001100
00000001
00001100
,
00011000
00000000
00011000
00000000
00100000
01000000
00010000
00000000
,
10000000
01010000
10000000
01010000
,
01000000
00000000
00001000
00000000
00000010
00000100
00001000
00000000
,
00000001
00000100
00000010
00000000
00010000
01000000
00100000
00000000
,
00010000
10000000
00100000
01000000
,
00001000
00000010
00000001
00001000
,
00000002
00001000
00000000
00001003
,
00000200
00000010
00000000
00000310
,
00000001
00001000
00000100
00000000
00010000
00100000
01000000
00000000
,
00010000
10000000
01000000
00000000
00100000
00001000
00000100
00000000
,
00000210
00000010
00000010
00000310
,
00012000
00010000
00010000
00013000
,
02200000
00000000
00000000
03300000
,
10010000
10010000
00000000
00000000
01100000
01100000
00000000
00000000
,
00100000
00100000
01010000
01010000
,
00001000
00000010
00000001
00000100
,
00000010
00010000
00100000
10000000
,
01000000
00110000
10000000
11000000
,
00010000
00000010
00000001
00000100
,
00000010
00010000
01000000
10000000
,
00010000
01000000
10100000
01010000
,
00001000
00000110
00001010
00001001
,
00000100
00000000
00000100
00000000
00000010
00010000
00100000
00000000
,
10000000
00010000
01000000
00001000
,
00000010
00000001
00000100
00000010
,
00010000
00011000
01000000
11000000
,
00100000
01000000
00001000
00000010
,
00000001
00000000
00000100
00000000
00000010
00010000
00100000
00000000
,
10000000
00010000
01000000
00000000
00100000
01000000
00001000
00000000
,
00000010
00000001
00000100
00000000
00001010
00000000
00000101
00000000
,
00000010
00000000
00010000
00000000
01000000
00000000
00100000
00000000
00020000
00000000
00000000
10000000
00030000
00000000
00000000
00000000
,
01000000
00000000
01000000
00000000
00100000
01000000
00001000
00020000
,
00000000
00000000
00000000
00030000
,
00000000
00000000
00000000
00000000
;

//---------------dance-double - ----------------
#NOTES:
     dance-double:
     :
     Hard:
     11:
     :
00000000
00000000
00000000
00000000
,
00000000
00000000
00000000
00000000
,
00001000
00000010
00000100
00000000
00000001
00001000
00000010
00000000
,
00010000
01000000
00100000
00010000
02000000
00000000
03100000
00000000
,
10100000
01010000
00011000
00000110
,
00000001
00001000
00000100
00000010
00000002
00000000
00000103
00000000
,
00000010
00010000
00100000
01000000
00020000
00000000
10030000
00000000
,
00100000
01000000
00001000
00000000
00000010
00000001
00000100
00000000
,
00000101
00001100
00011000
01100000
,
00200000
10000000
01300000
10000000
,
02000000
00010000
00100000
03001000
,
00000020
00000001
00000032
00001000
,
00002003
00000010
00003020
00000100
,
00000230
00001000
00000010
00001000
,
00000010
00000001
00000010
00000301
,
00011000
00011000
10100000
10100000
,
01100000
01100000
10010000
11000000
,
00100000
00001000
00000100
00000010
00001000
00000000
00000001
00000000
,
00000101
00001000
00001000
00001000
,
00000010
00010000
01000000
00100000
00010000
00000000
10000000
00000000
,
01010000
00001000
00001000
00001000
,
00011000
00000000
00011000
00000000
00000010
00000100
00000001
00000000
,
00001001
00000000
00001001
00000000
00000010
00010000
00100000
00000000
,
10000000
00010000
01000000
00000000
00100000
01000000
00001000
00000000
,
00000010
00000001
00000100
00000000
00000010
00000100
00000010
00000000
,
00011000
00000000
00011000
00000000
00100000
10000000
01000000
00000000
,
00100000
01010000
00100000
00011000
,
00000110
00000000
00000110
00000000
00000001
00001000
00000100
00000000
,
00000010
00011000
00000010
00011000
,
00100000
10000000
00010000
00000000
01000000
00100000
01000000
00000000
,
00001000
00000010
00000001
00000100
00000010
00001000
00000100
00000000
,
00010000
00100000
01000000
00000000
01100000
00000000
10010000
00000000
,
00100000
00000000
01000000
00010000
10000000
01000000
00100000
00000000
,
00002000
00000000
00010000
00000000
01000000
00003000
00010000
00000000
,
00000200
00000001
00000010
00000301
,
00000010
00000001
00000100
00000000
00000010
00010000
01000000
00000000
,
00100000
00010000
10000000
00000000
00100000
01000000
00010000
00000000
,
10020000
00000000
10000000
01000000
10000000
00000000
10030000
00000000
,
00021000
00000000
00001000
00000100
00001000
00000000
00031000
00000000
,
00000220
00000000
00000000
00000330
,
00011000
00011000
00000000
00000000
01100000
01100000
00000000
00000000
,
00001000
00000000
00001000
00000010
00000001
00000000
00000100
00000000
,
00000010
00001000
00000001
00000000
00001000
00100000
01000000
00000000
,
00100000
10000000
01000000
00100000
00020000
00000000
10030000
00000000
,
10100000
01010000
00011000
00000110
,
00000001
00001000
00000100
00000010
00000002
00000000
00000103
00000000
,
00000010
00010000
00100000
01000000
00020000
00000000
10030000
00000000
,
00100000
01000000
00001000
00000000
00000010
00000001
00000100
00000000
,
00000101
00001100
00011000
01100000
,
00010000
00000000
00010000
10000000
01000000
00000000
01100000
00000000
,
00001000
00000100
00000001
00001000
00000100
00000010
00000001
00000000
,
00000100
00000010
00010000
00100000
10000000
01000000
00100000
00000000
,
00010000
10000000
01000000
00000000
00110000
00000000
00011000
00000000
,
00000010
00000100
00000001
00001000
00000200
00000000
00000310
00000000
,
00000001
00000100
00000010
00001000
00000002
00000000
00000103
00000000
,
00000010
00010000
01000000
00100000
00010000
10000000
00100000
00000000
,
01000000
00010000
10000000
01000000
00100000
00000000
00011000
00000000
,
00000010
00000000
00000100
00000000
00000001
00000000
00001000
00000000
00000100
00000000
00000000
00000100
00000000
00000000
00000100
00000000
,
00010000
00000000
00000000
00010000
00000000
00000000
00010000
00000000
00100000
00000000
10000000
00000000
01000000
00000000
00200000
00000000
,
00000000
00000000
00000000
00300000
,
00000000
00000000
00000000
00000000
;
