
//----- song ID: oran -----//
#TITLE:LOVE IS ORANGE;
#ARTIST:Orange Lounge;
#BANNER:LOVE IS ORANGE.png;
#BACKGROUND:LOVE IS ORANGE-bg.png;
#CDTITLE:./CDTITLES/BEATMANIA IIDX.PNG;
#MUSIC:LOVE IS ORANGE.ogg;
#SAMPLESTART:34.67;
#SAMPLELENGTH:15;
#BPMS:0=180;
#BGCHANGES:7=LOVE IS ORANGE.avi=1=0=0=0;

//---------------dance-single - ----------------
#NOTES:
     dance-single:
     :
     Beginner:
     3:
     :
0000
0000
0000
0000
,
0000
0000
0000
0000
,
0000
0000
0000
0000
,
0000
0000
0000
0000
,
0000
0000
0000
0000
,
0000
0000
0000
0000
,
0001
0000
0001
0000
,
1000
0000
1000
0000
,
0100
0000
0100
0000
,
0010
0000
0010
0000
,
0001
0000
0001
0000
,
1000
0000
1000
0000
,
0010
0000
0010
0000
,
0100
0000
0100
0000
,
0001
0000
0000
1000
,
1000
0000
0000
0010
,
0010
0000
0000
0100
,
0200
0000
0000
0300
,
0100
0000
0100
0000
,
0010
0000
0010
0000
,
1000
0000
1000
0000
,
0001
0000
0001
0000
,
0100
0000
0100
0000
,
0001
0000
0001
0000
,
1000
0000
1000
0000
,
0010
0000
0010
0000
,
1000
0000
0000
0001
,
0001
0000
0000
0100
,
0100
0000
0000
0010
,
0010
0000
0000
0000
,
1000
0000
0000
0001
,
0001
0000
0000
0100
,
0100
0000
0000
0010
,
0020
0000
0000
0030
,
0010
0000
0010
0000
,
1000
0000
1000
0000
,
0001
0000
0001
0000
,
0100
0000
0100
0000
,
0001
0000
0001
0000
,
1000
0000
1000
0000
,
0100
0000
0100
0000
,
0010
0000
0010
0000
,
0010
0000
0000
0000
,
0100
0000
0000
0000
,
1000
0000
0001
0000
,
1000
0000
0000
0000
,
0010
0000
0000
0000
,
0100
0000
0000
0000
,
0001
0000
1000
0000
,
0001
0000
0000
0000
,
1000
0000
1000
0000
,
0001
0000
0001
0000
,
0010
0000
0010
0000
,
0100
0000
0100
0000
,
1000
0000
1000
0000
,
0001
0000
0001
0000
,
0010
0000
0010
0000
,
0100
0000
0100
0000
,
1000
0000
0000
1000
,
1000
0000
0000
0001
,
0001
0000
0000
0100
,
0100
0000
0000
0000
,
0010
0000
0000
0100
,
0100
0000
0000
0001
,
0001
0000
0000
1000
,
1000
0000
1000
0000
,
0000
0000
0000
0000
;

//---------------dance-single - ----------------
#NOTES:
     dance-single:
     :
     Easy:
     5:
     :
0000
0000
0000
0000
,
0000
0000
0000
0000
,
0000
0000
0000
0000
,
0000
0000
0000
0000
,
0000
0000
0000
0000
,
0000
0000
0000
0000
,
0010
0001
0010
0000
,
0100
0000
0001
0000
,
1000
0100
1000
0000
,
0001
0000
0100
0000
,
0010
0001
0010
0000
,
1000
0000
0010
0000
,
1000
0100
1000
0000
,
0001
0000
0010
0000
,
0100
0000
1000
0000
,
1000
0000
0100
0000
,
0001
0000
1000
0000
,
1001
0000
0000
0000
,
0001
0010
0001
0000
,
1000
0000
0100
0000
,
0010
1000
0010
0000
,
0001
0000
1000
0000
,
0100
0001
0100
0000
,
1000
0000
0010
0000
,
0100
1000
0100
0000
,
0001
0000
0100
0000
,
0110
0000
1000
0001
,
1001
0000
0100
0010
,
0110
0000
0001
1000
,
1001
0000
0000
0000
,
1001
0000
0010
0100
,
0110
0000
1000
0001
,
1001
0000
0010
0001
,
1000
2002
0000
3003
,
0001
1000
0001
0000
,
0100
0000
0010
0000
,
0001
0100
1000
0000
,
0001
0000
0010
0000
,
1000
0001
1000
0000
,
0100
0000
0010
0000
,
1000
0100
0001
0000
,
1000
0000
0010
0000
,
2200
0000
3300
0000
,
0202
0000
0303
0000
,
0100
0000
0001
0000
,
1000
0000
0110
0000
,
2020
0000
3030
0000
,
0022
0000
0033
0000
,
0001
0000
0010
0000
,
0100
0000
1001
0000
,
0001
1000
0001
0000
,
0100
0010
0100
0000
,
1000
0100
1000
0100
,
1000
0000
0001
0000
,
1000
0001
1000
0000
,
0100
0010
0100
0000
,
0010
0001
0010
0001
,
0010
0000
1000
0000
,
1000
0100
1000
0000
,
1000
0100
0010
0000
,
0001
0010
0100
0100
,
0010
0000
1000
0000
,
0001
0100
0001
0000
,
0001
0010
0100
0000
,
1000
0100
0010
0010
,
0100
0000
1001
0000
,
0000
0000
0000
0000
;

//---------------dance-single - ----------------
#NOTES:
     dance-single:
     :
     Medium:
     7:
     :
0000
0000
0000
0000
,
0000
0000
0000
0000
,
0000
0000
0000
0000
,
0000
0000
0000
0000
,
0000
0000
0000
0000
,
0100
0100
0000
0000
,
1000
0010
0001
0010
,
1000
0001
0100
0000
,
1000
0100
0010
0001
,
0010
0001
0100
0000
,
0001
0010
1000
0010
,
0001
1000
0100
0000
,
0001
0010
0100
1000
,
0100
1000
0010
0000
,
1000
0001
0000
0101
,
0001
1000
0000
1100
,
0100
0010
0000
0011
,
1000
1000
0000
0000
,
0001
1000
0010
0100
,
0010
0001
0010
0000
,
1000
0001
0010
0100
,
0010
1000
0010
0000
,
0100
1000
0100
0010
,
0001
1000
0010
0000
,
0100
0001
0100
0010
,
1000
0001
0010
0000
,
2000
3002
0203
2300
,
3200
0320
2030
3000
,
0200
0320
0032
2003
,
3020
0230
0302
0003
,
0020
0032
0203
2300
,
3200
0320
2030
3000
,
0002
0203
0320
2030
,
3001
2002
0000
3003
,
1000
0010
0001
0010
,
1000
0001
0100
0000
,
1000
0100
0010
0001
,
0010
0100
1000
0000
,
0001
0010
1000
0010
,
0001
1000
0100
0000
,
0001
0100
0010
1000
,
0010
0100
0001
0000
,
0010
0100
0010
0100
0010
0000
0000
0000
,
1000
0001
1000
0001
1000
0000
0000
0000
,
0001
0100
0001
0100
0001
0000
1000
0000
,
1001
0000
0110
0000
,
0001
1000
0001
1000
0001
0000
0000
0000
,
0100
0010
0100
0010
0100
0000
0000
0000
,
0010
1000
0010
1000
0010
0000
0100
0000
,
0110
0000
1001
0000
,
0010
0001
0100
1000
,
0010
0001
0100
0000
,
0010
1000
0100
0010
,
1000
0000
1001
0000
,
0010
1000
0100
0001
,
0010
1000
0100
0000
,
0010
0001
0100
0010
,
0001
0000
1001
0000
,
0001
1000
0001
0000
0100
0000
0000
0000
,
1000
0001
1000
0000
0100
0000
0000
0000
,
0001
0010
0001
0000
1000
0000
1000
0000
,
0100
0000
1001
0000
,
1000
0001
1000
0000
0100
0000
0000
0000
,
0001
1000
0001
0000
0100
0000
0000
0000
,
1000
0010
1000
0000
0001
0000
0001
0000
,
0100
0000
1001
0000
,
0000
0000
0000
0000
;

//---------------dance-single - ----------------
#NOTES:
     dance-single:
     :
     Hard:
     9:
     :
0000
0000
0000
0000
,
0000
0000
0000
0000
,
0000
0000
0000
0000
,
0000
0000
0000
0000
,
0001
0000
1000
0001
0000
0000
0000
0000
,
0100
0010
0100
0000
0000
0000
0000
0000
,
1000
0010
0001
0010
,
1000
0100
0001
0000
0100
0000
0000
0000
,
0010
0100
1000
0001
,
0010
0001
1000
0000
0010
0000
0000
0000
,
0001
0010
1000
0010
,
0001
0100
1000
0000
0100
0000
0000
0000
,
0010
0100
0001
1000
,
0100
1000
0001
0000
0010
0000
0000
0000
,
1000
0000
0001
0100
0000
0000
0101
0000
,
0001
0000
1000
0100
0000
0000
1100
0000
,
0010
0000
0100
0001
0000
0000
0011
0000
,
0010
0100
1000
0000
0000
0000
0000
0000
,
0001
1000
0010
0100
,
0010
0100
0001
0000
0010
0000
0000
0000
,
1000
0001
0010
0100
,
1000
0100
0010
0000
0001
0000
0000
0000
,
0100
0010
1000
0001
,
1000
0001
0010
0000
0100
0000
0000
0000
,
0001
1000
0010
0100
,
0001
0100
0010
0000
1000
0000
0000
0000
,
1000
0000
0001
0000
0100
0001
0000
1000
,
0001
0100
0010
0010
,
1000
0000
0010
0000
0100
0001
0000
0010
,
0001
0010
0100
0000
,
0001
0000
1000
0000
0100
1000
0000
0001
,
1000
0100
0010
0010
,
0001
0000
0010
0000
0100
1000
0000
0001
,
1000
0110
0000
0000
,
1000
0010
0001
0010
,
1000
0100
0001
0000
0100
0000
0000
0000
,
1000
0100
0010
0001
,
0010
0001
1000
0000
0010
0000
0000
0000
,
0001
0010
1000
0010
,
0001
0100
1000
0000
0100
0000
0000
0000
,
0001
0100
0010
1000
,
0010
1000
0001
0000
0010
0000
0000
0000
,
0010
1000
0010
1000
0001
0000
0000
0000
,
0010
0001
0010
0001
1000
0000
0000
0000
,
0001
0100
0001
0100
1000
0000
0100
0000
,
1001
0000
0110
0000
,
0001
1000
0001
1000
0010
0000
0000
0000
,
1000
0001
1000
0001
0010
0000
0000
0000
,
0100
0010
0100
0010
0001
0000
1000
0000
,
0110
0000
1001
0000
,
0010
0001
0100
0000
0001
0000
0000
0000
,
0010
1000
0100
0000
1000
0000
0000
0000
,
0010
0100
0001
0000
0100
0000
0010
0000
,
1000
0000
0101
0000
,
0100
0001
0010
0000
0001
0000
0000
0000
,
0100
1000
0010
0000
1000
0000
0000
0000
,
0100
0010
1000
0000
0010
0000
0100
0000
,
0001
0000
1100
0000
,
0001
1000
0100
0000
1000
0000
0010
0000
,
1000
0001
0100
0000
0001
0000
0010
0000
,
0001
0100
0001
0000
1000
0010
1000
0000
,
0100
0000
1001
0000
,
1000
0001
0100
0000
0001
0000
0010
0000
,
0001
1000
0100
0000
1000
0000
0010
0000
,
1000
0100
1000
0000
0001
0010
0001
0000
,
0100
0000
1001
0000
,
0000
0000
0000
0000
;

//---------------dance-single - ----------------
#NOTES:
     dance-single:
     :
     Challenge:
     11:
     :
0000
0000
0000
0000
,
0000
0000
0000
0000
,
0000
0000
0000
0000
,
0000
0000
0000
0000
,
0200
0000
1300
0100
0000
0010
0001
0010
,
0100
0100
0100
0000
0000
0000
0000
0000
,
0010
0000
0100
0001
0100
0000
1000
0100
,
0001
0010
0100
0010
0001
0000
0000
0000
,
0010
0100
0010
0001
1000
0000
0100
0000
,
0100
1000
0010
0001
0010
0000
0000
0000
,
1000
0000
0100
0010
0001
0000
0100
1000
,
0100
0001
0010
0100
0010
0000
0000
0000
,
0010
0100
1000
0001
1000
0000
0100
0000
,
0100
1000
0010
0001
0010
0000
0000
0000
,
0200
0000
0301
2000
0000
3010
0100
0001
,
0020
0000
0031
2000
0000
3001
0100
1000
,
0200
0000
0301
0100
0000
0010
1000
0010
,
0100
0100
0100
0000
0000
0000
0000
0000
,
0001
0000
1000
0100
0001
0000
1000
0010
,
0001
0010
0100
1000
0001
0000
0000
0000
,
0100
0010
0001
0100
1000
0000
0100
0000
,
0010
1000
0010
0001
0010
0000
0000
0000
,
1000
0000
0001
0100
1000
0000
0001
0010
,
0100
0001
0100
1000
0100
0000
0000
0000
,
0010
1000
0001
1000
0010
0000
0100
0000
,
0001
0010
1000
0010
0100
0000
0000
0000
,
0010
0000
1000
0001
0000
0000
0001
0000
,
0100
0000
0010
1000
0000
0000
1000
0000
,
0010
0000
0100
0001
0000
0000
0100
0000
,
0001
0000
0001
1000
0100
1000
0001
0000
,
0010
0000
0001
1000
0000
0000
1000
0000
,
0100
0000
0010
0001
0000
0000
0001
0000
,
0010
0000
0100
1000
0000
0010
0000
0100
,
0002
2000
0000
3003
,
0100
0000
0010
1000
0010
0000
0001
0010
,
1000
0100
0010
0100
1000
0000
0000
0000
,
0100
0010
0100
1000
0001
0000
0010
0000
,
0010
0001
0100
1000
0100
0000
0000
0000
,
0001
0000
1000
0010
0100
0000
0001
0010
,
1000
0010
0001
0010
0100
0000
0000
0000
,
0100
0010
0001
1000
0001
0000
1000
0000
,
0010
0001
0010
1000
0100
0000
0000
0000
,
0001
1000
0001
0100
1000
0000
0000
0000
,
0010
0100
0010
1000
0100
0000
0000
0000
,
0010
1000
0100
0001
0100
1000
0010
1000
,
1100
0000
0101
0000
,
1000
0001
1000
0100
0001
0000
0000
0000
,
0010
0100
0010
0001
0100
0000
0000
0000
,
0010
0001
0100
1000
0100
0001
0010
0001
,
0101
0000
1100
0000
,
0010
0001
0100
0000
0010
1000
0100
0000
,
0100
1000
0010
0000
0100
0001
0010
0000
,
0010
0001
0100
0010
1000
0100
1000
0010
,
0110
0000
1001
0000
,
0010
1000
0100
0000
0010
0001
0100
0000
,
0100
0001
0010
0000
0100
1000
0010
0000
,
0010
1000
0100
0010
0001
0100
0001
0010
,
0110
0000
1001
0000
,
1000
0001
1000
0001
0010
0100
1000
0000
,
0100
0010
0100
0010
0001
0100
1000
0000
,
0100
0001
0010
0100
1000
0010
0100
0010
,
1010
0000
0101
0000
,
0001
1000
0001
1000
0100
0010
0001
0000
,
0010
0100
0010
0100
1000
0010
0001
0000
,
0010
1000
0100
0010
0001
0100
0010
0100
,
0110
0000
1001
0000
,
0000
0000
0000
0000
;

//---------------dance-double - ----------------
#NOTES:
     dance-double:
     :
     Easy:
     5:
     :
00000000
00000000
00000000
00000000
,
00000000
00000000
00000000
00000000
,
00000000
00000000
00000000
00000000
,
00000000
00000000
00000000
00000000
,
00000010
00000100
00000010
00000000
,
00001001
00000000
00000000
00000000
,
00010000
01000000
10000000
00000000
,
10000000
00100000
10000000
00000000
,
10000000
01000000
00010000
00000000
,
00010000
00001000
00010000
00000000
,
00001000
00000100
00000001
00000000
,
00000100
00001000
00010000
00000000
,
00010000
00001000
00000100
00000000
,
00000001
00000001
00000010
00000000
,
00000001
00000000
00000100
00001000
,
00010000
00000000
01000000
10000000
,
01000000
00000000
00010000
00001000
,
00011000
00000000
00000000
00000000
,
00001000
00000100
00000001
00000000
,
00000001
00000010
00000001
00000000
,
00000001
00000100
00001000
00000000
,
00001000
00010000
00001000
00000000
,
00010000
01000000
10000000
00000000
,
01000000
00010000
00001000
00000000
,
00001000
00010000
01000000
00000000
,
10000000
10000000
00100000
00000000
,
10010000
00000000
01000000
00010000
,
00001000
00000000
00000100
00000000
,
00000001
00000000
00001000
00000100
,
00001100
00000000
00000000
00000000
,
01010000
00000000
00100000
10000000
,
01000000
00000000
00010000
00000000
,
00001000
00000000
00000100
00000010
,
00000100
00002002
00000000
00003003
,
00001000
00000001
00000100
00000000
,
00001000
00010000
00001000
00000000
,
00010000
00100000
01000000
00000000
,
00010000
00100000
01000000
00000000
,
00010000
10000000
01000000
00000000
,
00010000
00001000
00010000
00000000
,
00001000
00000100
00000010
00000000
,
00001000
00000100
00000010
00000000
,
00002002
00000000
00003003
00000000
,
00000220
00000000
00000330
00000000
,
00001000
00000000
00001000
00000000
,
00010000
00000000
01000000
00000000
,
20020000
00000000
30030000
00000000
,
02200000
00000000
03300000
00000000
,
00010000
00000000
00010000
00000000
,
00001000
00000000
00000100
00000000
,
00000010
00001000
00000100
00000000
,
00010000
00001000
01000000
00000000
,
00100000
10000000
00100000
10000000
,
01000000
00000000
01000000
00000000
,
00100000
00010000
01000000
00000000
,
00001000
00010000
00000100
00000000
,
00000010
00000001
00000010
00000001
,
00000100
00000000
00001000
00000000
,
00010000
01000000
10000000
00000000
,
00010000
01000000
10000000
00000000
,
10000000
01000000
00010000
00001000
,
00010000
00000000
00010000
00000000
,
00001000
00000100
00000001
00000000
,
00001000
00000100
00000001
00000000
,
00000001
00000100
00001000
00010000
,
00001000
00000000
00010000
00000000
,
00000000
00000000
00000000
00000000
;

//---------------dance-double - ----------------
#NOTES:
     dance-double:
     :
     Medium:
     8:
     :
00000000
00000000
00000000
00000000
,
00000000
00000000
00000000
00000000
,
00000000
00000000
00000000
00000000
,
00000000
00000000
00000000
00000000
,
00000000
00000000
00000000
00000000
,
00000010
00000010
00000000
00000000
,
00000100
00000001
00000100
00001000
,
00010000
01000000
10000000
00000000
,
01000000
10000000
00100000
00010000
,
00001000
00000010
00000001
00000000
,
00000100
00001000
00010000
01000000
,
00010000
00001000
00000100
00000000
,
00010000
01000000
00100000
10000000
,
00100000
00010000
01000000
00000000
,
00001000
00010000
00000000
00011000
,
00000100
00000010
00000000
00000110
,
00001000
00010000
00000000
00011000
,
00001000
00010000
00001000
00000000
00000000
00000000
00000000
00000000
,
01000000
10000000
01000000
00010000
,
00001000
00000100
00000001
00000000
,
00000100
00000001
00000010
00001000
,
00010000
00100000
10000000
00000000
,
01000000
00010000
00001000
00000100
,
00001000
00010000
01000000
00000000
,
00001000
00000100
00000010
00000001
,
00000010
00001000
00000100
00000000
,
00020000
00032000
00023000
02030000
,
23000000
30200000
20300000
30000000
,
02000000
03020000
00032000
00003200
,
00000302
00000023
00000032
00000003
,
00002000
00003200
00000320
00000032
,
00000203
00002300
00023000
00030000
,
02000000
23000000
30200000
00320000
,
00032000
00020000
00000000
00033000
,
00010000
00001000
00000100
00000001
,
00000010
00001000
00010000
00000000
,
00001000
00010000
01000000
10000000
,
00100000
10000000
01000000
00000000
,
00010000
01000000
10000000
00100000
,
00010000
00001000
00000100
00000000
,
00001000
00000100
00000001
00000010
,
00000001
00000100
00001000
00000000
,
00000001
00000100
00000001
00000100
00000001
00000000
00000000
00000000
,
00000100
00001000
00000100
00001000
00000100
00000000
00000000
00000000
,
00001000
00010000
00001000
00010000
00001000
00000000
00100000
00000000
,
01000000
00000000
10010000
00000000
,
10000000
01000000
10000000
01000000
10000000
00000000
00000000
00000000
,
01000000
00010000
01000000
00010000
01000000
00000000
00000000
00000000
,
00010000
00001000
00010000
00001000
00010000
00000000
00000010
00000000
,
00000100
00000000
00001001
00000000
,
00000010
00001000
00000010
00000000
00000100
00000000
00000000
00000000
,
00000010
00000001
00000010
00000000
00000100
00000000
00000000
00000000
,
00001000
00010000
00001000
00000000
00010000
00000000
00010000
00000000
,
01000000
00000000
10000000
00000000
,
00100000
00010000
00100000
00000000
01000000
00000000
00000000
00000000
,
00100000
10000000
00100000
00000000
01000000
00000000
00000000
00000000
,
00010000
00001000
00010000
00000000
00001000
00000000
00001000
00000000
,
00000100
00000000
00000001
00000000
,
00000001
00000100
00000010
00001000
,
00000001
00000100
00000001
00000000
00000010
00000000
00000000
00000000
,
00001000
00010000
01000000
10000000
,
01010000
00000000
11000000
00000000
,
10000000
01000000
00100000
00010000
,
10000000
01000000
10000000
00000000
00100000
00000000
00000000
00000000
,
00010000
00001000
00000100
00000001
,
00001100
00000000
00000101
00000000
,
00000000
00000000
00000000
00000000
;

//---------------dance-double - ----------------
#NOTES:
     dance-double:
     :
     Hard:
     8:
     :
00000000
00000000
00000000
00000000
,
00000000
00000000
00000000
00000000
,
00000000
00000000
00000000
00000000
,
00000000
00000000
00000000
00000000
,
00001000
00000000
00000000
00010000
00000000
00000000
00000000
00000000
,
00001000
00010000
00001000
00000000
00000000
00000000
00000000
00000000
,
00000100
00000001
00000100
00001000
,
00010000
00001000
00010000
00000000
01000000
00000000
00000000
00000000
,
01000000
10000000
00100000
00010000
,
00001000
00010000
00001000
00000000
00000010
00000000
00000000
00000000
,
00000001
00000100
00001000
00010000
,
01000000
00010000
00001000
00000000
00010000
00000000
00000000
00000000
,
01000000
10000000
00100000
00010000
,
00001000
00010000
01000000
00000000
00100000
00000000
00000000
00000000
,
10000000
00000000
00010000
01000000
00000000
00000000
00100000
00000000
,
00010000
00000000
00001000
00000100
00000000
00000000
00000001
00000000
,
00001000
00000000
00000001
00000010
00000000
00000000
00000001
00000000
,
00000100
00001000
00010000
00000000
00000000
00000000
00000000
00000000
,
01000000
10000000
01000000
00010000
,
00001000
00010000
00001000
00000000
00000100
00000000
00000000
00000000
,
00000100
00000001
00000010
00001000
,
00010000
00001000
00010000
00000000
00100000
00000000
00000000
00000000
,
10000000
01000000
00010000
00001000
,
00000100
00001000
00010000
00000000
00001000
00000000
00000000
00000000
,
00000100
00000001
00000010
00001000
,
00010000
00001000
00000100
00000000
00000010
00000000
00000000
00000000
,
00010000
00000000
00001000
00010000
00000000
00000000
01000000
00000000
,
10000000
00000000
00100000
10000000
00000000
00000000
01000000
00000000
,
00010000
00000000
00001000
00010000
00000000
00000000
00001000
00000000
,
00000100
00000001
00000010
00000000
,
00001000
00000000
00010000
00001000
00000000
00000000
00000100
00000000
,
00000001
00000000
00000010
00000001
00000000
00000000
00000100
00000000
,
00001000
00000000
00010000
00001000
00000000
01000000
00000000
00001000
,
00020000
00002000
00000000
00033000
,
00010000
00001000
00000100
00000001
,
00000010
00001000
00000010
00000000
00001000
00000000
00000000
00000000
,
00001000
00010000
01000000
10000000
,
01000000
10000000
00100000
00000000
00010000
00000000
00000000
00000000
,
00010000
00100000
10000000
00100000
,
00010000
00001000
00010000
00000000
00000100
00000000
00000000
00000000
,
00001000
00000100
00000001
00000100
,
00001000
00000001
00000100
00000000
00000001
00000000
00000000
00000000
,
00000001
00000100
00000001
00000100
00001000
00000000
00000000
00000000
,
00000100
00001000
00000100
00001000
00010000
00000000
00000000
00000000
,
00001000
00010000
00001000
00010000
01000000
00000000
00100000
00000000
,
10010000
00000000
01010000
00000000
,
10000000
01000000
10000000
01000000
00010000
00000000
00000000
00000000
,
01000000
00010000
01000000
00010000
00001000
00000000
00000000
00000000
,
00010000
00001000
00010000
00001000
00000100
00000000
00000010
00000000
,
00001001
00000000
00001100
00000000
,
00010000
00001000
00000100
00000000
00000001
00000000
00000000
00000000
,
00000001
00000100
00001000
00000000
00010000
00000000
00000000
00000000
,
01000000
00010000
00001000
00000000
00010000
00000000
01000000
00000000
,
01100000
00000000
00110000
00000000
,
10000000
00010000
01000000
00000000
00100000
00000000
00000000
00000000
,
00001000
00010000
00000010
00000000
00000100
00000000
00000000
00000000
,
00000010
00001000
00010000
00000000
00001000
00000000
00100000
00000000
,
00110000
00000000
01010000
00000000
,
00100000
10000000
00100000
00000000
01000000
00000000
00010000
00000000
,
10000000
01000000
10000000
01000000
00010000
00000000
00001000
00000000
,
00010000
00001000
00000100
00000001
,
00000011
00000000
00001100
00000000
,
00000010
00000001
00000010
00000000
00000100
00000000
00001000
00000000
,
00000001
00000100
00000001
00000100
00001000
00000000
00010000
00000000
,
00001000
00010000
01000000
10000000
,
10100000
00000000
01010000
00000000
,
00000000
00000000
00000000
00000000
;

//---------------dance-double - ----------------
#NOTES:
     dance-double:
     :
     Challenge:
     12:
     :
00000000
00000000
00000000
00000000
,
00000000
00000000
00000000
00000000
,
00000000
00000000
00000000
00000000
,
00000000
00000000
00000000
00000000
,
00010000
00000000
00001000
00000010
00000000
00000000
00000001
00000000
,
00000001
00000100
00001000
00000000
00000000
00000000
00000000
00000000
,
00000010
00000000
00000100
00001000
00010000
00000000
01000000
10000000
,
01000000
00010000
01000000
10000000
02000000
00000000
03000000
00000000
,
00010000
00001000
00010000
01000000
00010000
00000000
00001000
00000000
,
00010000
00001000
00000100
00000010
00000200
00000000
00000300
00000000
,
00000100
00000000
00001000
00010000
00001000
00000000
00010000
01000000
,
10000000
01000000
00100000
00010000
20000000
00000000
30000000
00000000
,
00010000
01000000
00100000
10000000
01000000
00000000
00010000
00000000
,
00001000
00000100
00000001
00000010
00000200
00000000
00000300
00000000
,
00000001
00000000
00001000
00000100
00000000
00000000
00010000
00000000
,
00001000
00000000
01000000
00010000
00000000
00000000
10000000
00000000
,
01000000
00000000
00010000
00001000
00000000
00000000
00000001
00000000
,
00000001
00000100
00001000
00000000
00000000
00000000
00000000
00000000
,
00000001
00000000
00000010
00001000
00010000
00000000
00010000
01000000
,
10000000
01000000
00100000
00010000
20000000
00000000
30000000
00000000
,
00010000
00100000
01000000
10000000
01000000
00000000
00010000
00000000
,
00001000
00000100
00000010
00000100
00000002
00000000
00000003
00000000
,
00000100
00000000
00001000
00010000
00001000
00000000
00010000
00001000
,
00010000
01000000
10000000
01000000
00020000
00000000
00030000
00000000
,
00001000
00000100
00001000
00010000
00001000
00000000
00010000
00000000
,
00010000
00001000
00000100
00000001
00000100
00000000
00000000
00000000
,
00000001
00000000
00000001
00000010
00001000
00000000
00000000
00000000
,
00001000
00000000
00010000
01000000
00100000
00000000
00000000
00000000
,
10000000
00000000
00100000
10000000
01000000
00000000
00000000
00000000
,
00020000
00000000
02000000
03030000
,
10000000
00000000
10000000
01000000
00010000
00000000
00000000
00000000
,
00010000
00000000
00001000
00000100
00000010
00000000
00000000
00000000
,
00000001
00000000
00000010
00000001
00000100
00001000
00000000
00010000
,
00002000
00020000
00000000
00033000
,
01000000
00000000
10000000
01000000
00010000
00000000
00001000
00010000
,
01000000
00010000
00001000
00010000
00001000
00000000
00000000
00000000
,
00001000
00010000
00001000
00000100
00000001
00000000
00000100
00000000
,
00000001
00000100
00001000
00010000
00001000
00000000
00000000
00000000
,
00000100
00000000
00000001
00000100
00001000
00000000
00010000
00001000
,
00000100
00001000
00010000
00001000
00010000
00000000
00000000
00000000
,
00010000
00001000
00010000
01000000
10000000
00000000
01000000
00000000
,
10000000
01000000
00010000
00001000
00010000
00000000
00000000
00000000
,
01000000
10000000
00100000
10000000
01000000
00000000
00000000
00000000
,
00010000
01000000
00010000
00001000
00010000
00000000
00000000
00000000
,
00001000
00000100
00001000
00000100
00000001
00000100
00000010
00001000
,
00001100
00000000
00000101
00000000
,
00000100
00000001
00000010
00000001
00000100
00000000
00000000
00000000
,
00001000
00000100
00001000
00010000
00001000
00000000
00000000
00000000
,
00010000
01000000
00010000
01000000
10000000
00100000
01000000
00010000
,
01010000
00000000
11000000
00000000
,
00100000
10000000
01000000
00000000
00100000
00010000
01000000
00000000
,
00001000
00010000
00001000
00000000
00010000
00001000
00010000
00000000
,
00010000
00001000
00000100
00001000
00000100
00000001
00000010
00000001
,
00000101
00000000
00001100
00000000
,
00000010
00000001
00000100
00000000
00000010
00001000
00000100
00000000
,
00010000
00001000
00010000
00000000
00001000
00010000
00001000
00000000
,
00001000
00010000
01000000
00010000
01000000
10000000
00100000
10000000
,
11000000
00000000
01010000
00000000
,
10000000
00010000
10000000
01000000
00010000
01000000
00010000
00000000
,
00001000
00010000
00001000
00000100
00000001
00000100
00000001
00000000
,
00000010
00000001
00000010
00000001
00000100
00001000
00010000
00001000
,
00011000
00000000
01001000
00000000
,
00010000
01000000
00010000
01000000
10000000
00100000
10000000
00000000
,
01000000
00010000
01000000
00010000
00001000
00010000
00001000
00000000
,
00000010
00000001
00000010
00000001
00000100
00001000
00000100
00001000
,
00011000
00000000
00010100
00000000
,
00000000
00000000
00000000
00000000
;
