
//----- song ID: flow2 -----//
#TITLE:Flow (True Style);
#ARTIST:Scotty D. revisits U1;
#BANNER:Flow (True Style).png;
#BACKGROUND:Flow (True Style)-bg.png;
#CDTITLE:./CDTITLES/DanceDanceRevolution SuperNOVA.png;
#MUSIC:Flow (True Style).ogg;
#SAMPLESTART:68.542;
#SAMPLELENGTH:15;
#BPMS:0=140,80=280,144=140,192=280,256=140;

//---------------dance-single - ----------------
#NOTES:
     dance-single:
     :
     Beginner:
     4:
     :
0000
0000
0000
0000
,
0000
0000
0000
0000
,
0000
0000
0000
0000
,
0000
0000
0000
0000
,
0100
0000
0100
0000
,
0010
0010
0000
1000
,
0000
0110
0000
1000
,
0000
0110
0000
0001
,
0000
0000
0010
0000
,
0100
0100
0000
1000
,
0000
0110
0000
0010
,
0000
0110
0000
0100
,
0100
0000
0001
0001
,
0000
0010
0000
1000
,
0000
0110
0000
1000
,
0000
0110
0000
0001
,
0000
0000
0001
0000
,
0100
0100
0000
1000
,
0000
0000
0001
0000
,
0010
0000
0010
0000
,
0100
0000
0000
0000
,
0010
0000
0000
0000
,
0010
0000
0000
0000
,
0100
0000
0000
0000
,
1000
0000
0000
0000
,
0001
0000
0000
0000
,
0001
0000
0000
0000
,
1000
0000
0000
0000
,
0100
0000
0000
0000
,
0001
0000
0000
0000
,
0010
0000
0000
0000
,
1000
0000
0000
0000
,
1000
0000
0000
0000
,
0100
0000
0000
0000
,
0001
0000
0000
0000
,
0010
0000
0000
0000
,
0100
0000
0100
0100
,
0000
0010
0010
0010
,
0000
0001
0001
0001
,
0000
0010
0000
1000
,
0000
0000
0100
0000
,
1000
0000
0100
0100
,
0000
0000
0100
0000
,
0010
0010
0000
1001
,
0000
0000
0100
0000
,
0001
0000
0100
0100
,
0000
0000
0010
0000
,
0001
0000
0001
0000
,
0100
0000
0000
0000
,
0010
0000
0000
0000
,
0010
0000
0000
0000
,
0100
0000
0000
0000
,
1000
0000
0000
0000
,
0001
0000
0000
0000
,
0001
0000
0000
0000
,
1000
0000
0000
0000
,
0100
0000
0000
0000
,
0001
0000
0000
0000
,
0010
0000
0000
0000
,
1000
0000
0000
0000
,
1000
0000
0000
0000
,
0100
0000
0000
0000
,
0001
0000
0000
0000
,
0010
0000
0000
0000
,
0100
0000
0100
0100
,
0000
0010
0010
0010
,
0000
0001
0001
0001
,
0000
0010
0000
1000
,
0000
1000
0000
0100
,
0000
0100
0000
0010
,
0000
1000
1000
1000
,
0000
0100
0000
0001
,
0000
0000
0000
0000
;

//---------------dance-single - ----------------
#NOTES:
     dance-single:
     :
     Easy:
     6:
     :
0000
0000
0000
0000
,
0000
0000
0000
0000
,
0000
0000
0000
0000
,
0000
0000
0000
0000
,
0100
0000
0100
0101
,
0010
0010
1000
1000
,
0100
0110
0100
1100
,
0010
0110
0100
0101
,
0010
0000
0010
0011
,
0100
0100
1000
1000
,
0010
0110
0010
1010
,
0100
0110
0010
0011
,
0100
0000
0001
0101
,
0010
0010
1000
1000
,
0100
0110
0100
1100
,
0010
0110
0100
0101
,
0010
0000
0001
0011
,
0100
0100
1000
1000
,
0101
0000
0101
0000
,
1010
0000
1010
0000
,
0200
0000
0000
0000
,
0010
0000
0000
0300
,
0020
0000
0000
0000
,
0100
0000
0000
0030
,
2000
0000
0000
0000
,
0001
0000
0000
3000
,
0002
0000
0000
0000
,
1000
0000
0000
0003
,
0200
0000
0000
0000
,
0001
0000
0000
0300
,
0020
0000
0000
0000
,
1000
0000
0000
0030
,
2000
0000
0000
0000
,
0100
0000
0000
3000
,
0002
0000
0000
0000
,
0010
0000
0000
0003
,
0100
0101
0100
0100
,
0010
1010
0010
0010
,
0001
0101
0001
0001
,
1000
1010
1000
1000
,
0001
0000
0100
0101
,
1000
1001
0100
0100
,
0001
0000
0100
0000
,
0010
0010
1000
1001
,
1000
0000
0100
1100
,
0001
1001
0100
0100
,
1010
0000
1010
0000
,
0101
0000
0101
0000
,
0200
0000
0000
0000
,
0010
0000
0000
0300
,
0020
0000
0000
0000
,
0100
0000
0000
0030
,
2000
0000
0000
0000
,
0001
0000
0000
3000
,
0002
0000
0000
0000
,
1000
0000
0000
0003
,
0200
0000
0000
0000
,
0001
0000
0000
0300
,
0020
0000
0000
0000
,
1000
0000
0000
0030
,
2000
0000
0000
0000
,
0100
0000
0000
3000
,
0002
0000
0000
0000
,
0010
0000
0000
0003
,
0100
0101
0100
0100
,
0010
1010
0010
0010
,
0001
0101
0001
0001
,
1000
1010
1000
1000
,
0100
1100
0100
0100
,
0010
0011
0010
0010
,
1000
1100
1000
1000
,
0001
0011
0001
0001
,
2002
0000
3003
0000
,
0000
0000
0000
0000
;

//---------------dance-single - ----------------
#NOTES:
     dance-single:
     :
     Medium:
     9:
     :
0000
0000
0000
0000
,
0000
0000
0000
0000
,
0000
0000
0000
0000
,
0000
0000
0000
0000
,
0100
0000
1010
0000
0001
0100
0001
0000
,
0100
1010
0100
1001
,
0100
0000
0011
0000
1000
0100
1000
0000
,
0100
0011
0100
1001
,
0010
0000
1100
0000
0001
0010
0001
0000
,
0010
1100
0010
1001
,
0010
0000
0101
0000
1000
0010
1000
0000
,
0010
0101
0010
1001
,
0100
0000
1010
0000
0001
0100
0101
0000
,
0100
0000
1010
0000
0100
0001
1001
0000
,
0100
0000
0011
0000
1000
0100
1100
0000
,
0100
0000
0011
0000
0100
1000
1001
0000
,
0010
0000
1100
0000
0001
0010
0011
0000
,
0010
0000
1100
0000
0010
0100
1001
0000
,
0100
1100
0000
1001
0000
0011
0000
0110
,
0000
1100
0000
1001
0000
0101
0000
0110
,
2000
0000
0000
0000
,
0010
0000
0000
3000
,
0002
0000
0000
0000
,
0010
0000
0000
0003
,
1000
0100
1000
0000
,
0001
0100
0001
0000
,
1010
0000
1100
0000
,
0101
0000
0011
0000
,
0200
0000
0000
0000
,
1000
0000
0000
0300
,
0020
0000
0000
0000
,
0001
0000
0000
0030
,
1000
0010
1000
0000
,
0001
0010
0001
0000
,
1100
0000
1010
0000
,
0011
0000
0101
0000
,
0010
0100
0001
0000
0100
0000
1001
0000
,
0010
0100
1000
0000
0100
0000
1001
0000
,
0100
0010
0001
0000
0010
0000
1001
0000
,
0100
0010
1000
0000
0010
0000
1001
0000
,
0100
0000
0101
0000
0010
1000
0010
0000
,
0100
0101
0100
1100
,
0000
0100
0000
0100
0000
0010
0000
0010
,
0000
1000
0000
1000
0000
0001
0000
0001
,
0010
0000
0011
0000
0100
1000
0100
0000
,
0010
0011
0010
1010
,
0000
0010
0000
0010
0000
0100
0000
0100
,
0000
1000
0000
1000
0000
0001
0000
0001
,
1000
0100
1100
0000
,
0001
0000
1001
0000
,
0001
0100
0101
0000
,
0001
0000
1001
0000
,
1000
0100
1000
0000
,
0001
0100
0001
0000
,
1010
0000
1100
0000
,
0101
0000
0011
0000
,
0200
0000
0001
0000
,
1000
0000
0001
0300
,
0020
0000
0001
0000
,
1000
0000
0001
0030
,
1000
0010
1000
0000
,
0001
0010
0001
0000
,
1100
0000
1010
0000
,
0011
0000
0101
0000
,
0010
0100
0001
0000
0100
0000
1001
0000
,
0010
0100
1000
0000
0100
0000
1001
0000
,
0100
0010
0001
0000
0010
0000
1001
0000
,
0100
0010
1000
0000
0010
0000
1001
0000
,
0100
0010
0001
0000
0010
0000
1001
0000
,
0100
0010
1000
0000
0010
0000
1001
0000
,
0010
0100
0001
0000
0100
0000
1001
0000
,
0010
0100
1000
0000
0100
0000
1001
0000
,
2002
0000
3003
0000
,
0000
0000
0000
0000
;

//---------------dance-single - ----------------
#NOTES:
     dance-single:
     :
     Hard:
     12:
     :
0000
0000
0000
0000
,
0000
0000
0000
0000
,
0000
0000
0000
0000
,
0000
0000
0000
0000
,
0100
0000
1010
0000
0001
0100
1001
0000
,
0100
0000
0011
0000
1000
0100
1001
0000
,
0100
0000
1010
0000
0001
0100
1001
0000
,
0100
0000
0000
0000
0011
0000
0000
0000
1000
0000
0000
0100
1000
0000
0000
0000
,
0010
0000
1100
0000
0001
0010
1001
0000
,
0010
0000
0101
0000
1000
0010
1001
0000
,
0010
0000
1100
0000
0001
0010
1001
0000
,
0010
0000
0000
0000
0101
0000
0000
0000
1000
0000
0000
0010
1000
0000
0000
0000
,
0100
0010
1010
0000
0001
0100
1001
0000
,
0100
0010
0011
0000
1000
0100
1001
0000
,
0100
0010
1010
0000
0001
0100
1001
0000
,
0100
0000
0010
0000
0011
0000
0000
0000
1000
0000
0000
0100
1000
0000
0000
0000
,
0010
0100
1100
1000
0001
0010
1001
0000
,
0010
0100
0101
0001
1000
0010
1001
0000
,
0100
1010
0000
1001
0000
1010
0000
1001
,
0000
1100
0000
1001
0000
0101
0000
1001
,
0020
0000
0000
0000
,
0130
0000
0000
0001
0000
0000
0001
0000
,
0100
0000
0000
1000
0000
0000
1000
0000
,
0100
0000
0000
0001
0000
0000
0001
0000
,
1000
0100
1000
0000
,
0001
0100
0001
0000
,
1000
0100
0010
0001
,
0110
0000
1010
0000
,
1001
0000
0000
0000
,
0010
0000
0000
0001
0000
0000
0001
0000
,
0010
0000
0000
1000
0000
0000
1000
0000
,
0010
0000
0000
0001
0000
0000
0001
0000
,
1000
0010
1000
0000
,
0001
0010
0001
0000
,
1000
0010
0100
0001
,
0110
0000
1100
0000
,
0010
0000
0100
0000
1010
0000
0000
0000
0001
0000
0000
0100
0001
0000
0000
0000
,
0010
0000
0100
0000
0011
0000
0000
0000
1000
0000
0000
0100
1000
0000
0000
0000
,
0100
0000
0010
0000
1100
0000
0000
0000
0001
0000
0000
0010
0001
0000
0000
0000
,
0100
0000
0010
0000
0101
0000
0000
0000
1000
0000
0000
0010
1000
0000
0000
0000
,
0100
0010
1010
0000
0001
0100
1001
0000
,
0100
0010
0011
0000
1000
0100
1001
0000
,
0000
1100
0000
0101
0000
0011
0000
1010
,
0000
0011
0000
0101
0000
1100
0000
1010
,
0010
0100
1100
1000
0001
0010
1001
0000
,
0010
0100
0101
0001
1000
0010
1001
0000
,
0100
1010
0000
1001
0000
1010
0000
1001
,
0000
1100
0000
1001
0000
0101
0000
1001
,
0010
0000
0100
0000
0010
0001
0000
0000
,
0100
0000
0010
0000
0000
1000
0000
0000
,
0001
0000
1000
0000
0010
1000
0000
0000
,
0100
0000
0010
0000
0000
0001
0000
0000
,
1000
0100
1000
0000
,
0001
0100
0001
0000
,
1000
0100
0010
0001
,
0110
0000
1010
0000
,
1001
0000
0000
0100
0010
0000
0000
0010
,
1000
0000
0000
1000
0001
0000
0100
0000
,
0010
1000
0000
1000
0100
0000
0100
0000
,
0010
0001
0100
0010
,
1000
0010
1000
0000
,
0001
0010
0001
0000
,
1000
0010
0100
0001
,
0110
0000
1100
0000
,
1001
0000
0100
0000
0101
0000
1000
0000
0010
0000
0000
1000
0100
0000
0000
0000
,
1001
0000
0100
0000
1100
0000
0001
0000
0010
0000
0000
0001
0100
0000
0000
0000
,
1001
0000
0010
0000
0011
0000
1000
0000
0100
0000
0000
1000
0010
0000
0000
0000
,
1001
0000
0010
0000
1010
0000
0001
0000
0100
0000
0000
0001
0010
0000
0000
0000
,
1001
0000
0100
0000
1010
0000
0100
0000
0001
0000
0000
1000
0100
0000
0000
0000
,
1001
0000
0100
0000
0011
0000
0100
0000
1000
0000
0000
0001
0100
0000
0000
0000
,
1001
0000
0010
0000
1100
0000
0010
0000
0001
0000
0000
1000
0010
0000
0000
0000
,
1001
0000
0010
0000
0101
0000
0010
0000
1000
0000
0000
0001
0010
0000
0100
0000
,
2002
0000
3003
0000
,
0000
0000
0000
0000
;

//---------------dance-single - ----------------
#NOTES:
     dance-single:
     :
     Challenge:
     13:
     :
0000
0000
0000
0000
,
0000
0000
0000
0000
,
0000
0000
0000
0000
,
0000
0000
0000
0000
,
0100
0001
0100
0000
1100
0000
0000
0000
0001
0000
0100
0000
0001
0000
1000
0000
,
0100
1000
0001
0010
0001
0100
0101
0000
,
0100
0000
1010
0000
0001
0100
0001
1000
,
0100
0010
0001
1000
0010
0100
0101
0000
,
0010
0100
0010
0000
1100
0000
0000
0000
0001
0000
0010
0000
0001
0000
1000
0000
,
0010
0100
0001
1000
0100
0010
1001
0000
,
0010
0000
1100
0000
0001
0010
0001
1000
,
0100
0000
0010
1000
0001
0100
1001
0000
,
0100
0010
1000
0000
0101
0000
0000
0000
0001
0000
0100
0000
0001
0000
1000
0000
,
0100
1000
0001
0010
0001
0100
0101
0000
,
0100
0000
1010
0000
0001
0100
0001
1000
,
0100
0010
0001
1000
0010
0100
0101
0000
,
0010
0100
0010
0000
1100
0000
0000
0000
0001
0000
0010
0000
0001
0000
1000
0000
,
0010
0100
0001
1000
0100
0010
1001
0000
,
0100
1010
0000
1001
0000
1010
0000
1001
,
0000
1100
0000
1001
0000
0101
0000
1001
,
0010
1000
0100
1000
,
0100
1000
0001
0010
,
0100
1000
0001
0010
,
0001
1000
0100
1000
,
0001
1000
0001
0100
,
0001
1000
0001
0100
,
0001
1000
0001
1000
,
0001
0010
0100
1000
,
0100
1000
0001
0010
,
0001
0100
0010
1000
,
0100
0010
0001
1000
,
0001
0100
1000
0100
,
0001
1000
0001
0100
,
0001
1000
0001
0100
,
0001
1000
0001
1000
,
0001
0010
0100
1000
,
0010
0000
1001
0000
0001
0100
1100
0000
,
0100
1000
0011
0000
1000
0100
1000
0000
,
0010
0000
1001
0000
1000
0100
0101
0000
,
0100
0001
1010
0000
0001
0100
0001
0000
,
0100
0010
1000
0000
1100
0000
0000
0000
0001
0000
0100
0000
0001
0000
1000
0000
,
0100
1000
0001
0010
0001
0100
0101
0000
,
0000
1100
0000
0101
0000
0011
0000
1010
,
0000
0011
0000
0101
0000
1100
0000
1010
,
0010
0100
0001
0000
1100
0000
0000
0000
0001
0000
0010
0000
0001
0000
1000
0000
,
0010
0100
0001
1000
0100
0010
1001
0000
,
0100
1010
0000
1001
0000
1010
0000
1001
,
0000
1100
0000
1001
0000
0101
0000
1001
,
0010
1000
0010
1000
0001
0100
0000
0000
,
0100
0000
0010
0000
0000
1000
0000
0001
,
1000
0100
0010
0100
1000
0001
0000
0000
,
0010
0000
0100
0000
1000
0000
0000
0001
,
0010
0000
0000
0100
1000
0001
0000
0000
,
1100
0000
1001
0000
,
1010
0000
0000
1000
0100
0000
1000
0000
,
0001
0010
0100
0000
0010
0100
0000
0000
,
1000
0000
0000
0100
1000
0000
0000
0010
,
0001
0000
0000
0010
0100
0000
0001
0000
,
0010
0001
0000
0000
0010
0001
0000
0001
,
0100
0000
0010
0000
0100
0001
0000
0000
,
1000
0100
0000
0000
0100
1000
0000
0000
,
1000
0010
0000
0001
0100
0000
0010
0000
,
1000
0001
0000
0010
0100
0010
0000
0000
,
1000
0100
0010
0001
0010
0000
0100
1000
,
0010
0000
1001
0000
0001
0100
1100
0000
,
0100
1000
0011
0000
1000
0100
1000
0000
,
0010
0000
1001
0000
1000
0100
0101
0000
,
0100
0001
1010
0000
0001
0100
0001
0000
,
0001
0000
0000
0010
1000
0000
0010
0000
0001
0000
1000
0000
0100
0000
0000
0000
,
1000
0000
0000
0010
0001
0000
0010
0000
1000
0000
0001
0000
0100
0000
0000
0000
,
1000
0000
0000
0010
0001
0000
0010
0000
1000
0000
0001
0000
1000
0000
0000
0000
,
0001
0000
0000
0010
1000
0000
0100
0000
0001
0000
1000
0000
0100
0000
0000
0000
,
2002
0000
3003
0000
,
0000
0000
0000
0000
;

//---------------dance-double - ----------------
#NOTES:
     dance-double:
     :
     Easy:
     6:
     :
00000000
00000000
00000000
00000000
,
00000000
00000000
00000000
00000000
,
00000000
00000000
00000000
00000000
,
00000000
00000000
00000000
00000000
,
01000000
00000000
00010000
01010000
,
00001000
00001000
00000010
00000010
,
00000001
00000101
00000100
00000101
,
00000100
00001100
00010000
00011000
,
00100000
00000000
00010000
00110000
,
00001000
00001000
00000100
00000100
,
00000001
00000011
00000010
00000011
,
00000010
00001010
00010000
00011000
,
01000000
00000000
00100000
01100000
,
10000000
10000000
01000000
01000000
,
00010000
00011000
00001000
00001100
,
00000010
00000110
00000001
00001001
,
00000100
00000000
00000010
00000110
,
00000001
00000001
00000100
00000100
,
00001100
00000000
00001100
00000000
,
00011000
00000000
00011000
00000000
,
02000000
00000000
00000000
00000000
,
00100000
00000000
00000000
03000000
,
00200000
00000000
00000000
00000000
,
00001000
00000000
00000000
00300000
,
00020000
00000000
00000000
00000000
,
00000100
00000000
00000000
00030000
,
00000020
00000000
00000000
00000000
,
00000001
00000000
00000000
00000030
,
00000200
00000000
00000000
00000000
,
00000010
00000000
00000000
00000300
,
00020000
00000000
00001000
00000000
,
00000000
00000000
00000000
00030000
,
02000000
00000000
00100000
00000000
,
00000000
00000000
00000000
03000000
,
20000000
00000000
00010000
00000000
,
00000000
00000000
00000000
30000000
,
01000000
01010000
01000000
01000000
,
00010000
00011000
00010000
00010000
,
00001000
00001100
00001000
00001000
,
00000100
00000101
00000100
00000100
,
00000100
00000000
00000010
00000110
,
00000001
00000001
00000100
00000100
,
00001000
00011000
00010000
01010000
,
00100000
01100000
10000000
10010000
,
01000000
00000000
00100000
01100000
,
10000000
10000000
01000000
01000000
,
01010000
00000000
01010000
00000000
,
00011000
00000000
00011000
00000000
,
00000200
00000000
00000010
00000000
,
00000010
00000000
00000000
00000300
,
00000020
00000000
00010000
00000000
,
00010000
00000000
00000000
00000030
,
00002000
00000000
01000000
00000000
,
01000000
00000000
00000000
00003000
,
00200000
00000000
10000000
00000000
,
10000000
00000000
00000000
00300000
,
02000000
00000000
00100000
00000000
,
00100000
00000000
00000000
03000000
,
00002000
00000000
00010000
00000000
,
00010000
00000000
00000000
00003000
,
00000200
00000000
00000010
00000000
,
00000010
00000000
00000000
00000300
,
00000002
00000000
00001000
00000000
,
00000000
00001000
00000000
00000003
,
00000100
00001100
00000100
00001100
,
00001000
00011000
00001000
00011000
,
00010000
01010000
00010000
01010000
,
01000000
11000000
01000000
11000000
,
01000000
01010000
00010000
00011000
,
00001000
00001010
00000010
00000011
,
00000001
00000101
00000100
00001100
,
00001000
00011000
00010000
00110000
,
20020000
00000000
30030000
00000000
,
00000000
00000000
00000000
00000000
;

//---------------dance-double - ----------------
#NOTES:
     dance-double:
     :
     Medium:
     9:
     :
00000000
00000000
00000000
00000000
,
00000000
00000000
00000000
00000000
,
00000000
00000000
00000000
00000000
,
00000000
00000000
00000000
00000000
,
01000000
00000000
10100000
00000000
00010000
00001000
00010000
00000000
,
00000100
00001100
00000010
00001001
,
00000100
00000000
00000011
00000000
00001000
00010000
00001000
00000000
,
01000000
01010000
00100000
10010000
,
00100000
00000000
11000000
00000000
00010000
00001000
00010000
00000000
,
00000010
00001010
00000100
00001001
,
00000010
00000000
00000101
00000000
00001000
00010000
00001000
00000000
,
00100000
00110000
01000000
10010000
,
01000000
00000000
10100000
00000000
00010000
00001000
00011000
00000000
,
00000100
00000000
00000110
00000000
00000001
00000010
00001100
00000000
,
00000100
00000000
00000011
00000000
00001000
00010000
00011000
00000000
,
01000000
00000000
01100000
00000000
10000000
00100000
01010000
00000000
,
00100000
00000000
11000000
00000000
00010000
00001000
00011000
00000000
,
00000010
00000000
00000110
00000000
00000001
00000100
00001010
00000000
,
00000001
00001100
00000000
00010100
00000000
00011000
00000000
00101000
,
00000000
00110000
00000000
10010000
00000000
01010000
00000000
01100000
,
20000000
00000000
00000000
00000000
,
00100000
00000000
00000000
30000000
,
00020000
00000000
00000000
00000000
,
00001000
00000000
00000000
00030000
,
00000100
00000010
00000100
00000000
,
00000001
00000100
00000001
00000000
,
00001010
00000000
00000001
00000000
,
00000101
00000000
00001000
00000000
,
00000002
00000000
00000000
00000000
,
00000010
00000000
00000000
00000003
,
00002000
00000000
00000000
00000000
,
00010000
00000000
00000000
00003000
,
01000000
00100000
01000000
00000000
,
10000000
01000000
10000000
00000000
,
00110000
00000000
10000000
00000000
,
11000000
00000000
00010000
00000000
,
01000000
00100000
00010000
00000000
00001000
00000000
00011000
00000000
,
00000100
00000010
00001000
00000000
00000100
00000000
00010010
00000000
,
00000100
00000010
00001000
00000000
00010000
00000000
00011000
00000000
,
01000000
00100000
00010000
00000000
01000000
00000000
00101000
00000000
,
01000000
00000000
10100000
00000000
00010000
00001000
00011000
00000000
,
00000100
00000000
00000110
00000000
00000001
00000010
00001100
00000000
,
00000000
00001001
00000000
00000110
00000000
00010100
00000000
00011000
,
00000000
01010000
00000000
01100000
00000000
10010000
00000000
01100000
,
00100000
00000000
11000000
00000000
00010000
00001000
00011000
00000000
,
00000010
00000000
00000110
00000000
00000001
00000100
00001010
00000000
,
00000001
00001100
00000000
00010100
00000000
00011000
00000000
00101000
,
00000000
00110000
00000000
10010000
00000000
01010000
00000000
01100000
,
20000000
00000000
00000000
00000000
,
00100000
00000000
00100000
30000000
,
00020000
00000000
00000000
00000000
,
00001000
00000000
00001000
00030000
,
00000100
00000010
00000100
00000000
,
00000001
00000100
00000001
00000000
,
00001010
00000000
00000001
00000000
,
00000101
00000000
00001000
00000000
,
00000002
00000000
00000000
00000000
,
00000010
00000000
00000010
00000003
,
00002000
00000000
00000000
00000000
,
00010000
00000000
00010000
00003000
,
01000000
00100000
01000000
00000000
,
10000000
01000000
10000000
00000000
,
00110000
00000000
10000000
00000000
,
11000000
00000000
00010000
00000000
,
01000000
00100000
00010000
00000000
00001000
00000000
00011000
00000000
,
00000100
00000010
00001000
00000000
00000100
00000000
00010010
00000000
,
00000100
00000010
00001000
00000000
00010000
00000000
00011000
00000000
,
01000000
00100000
00010000
00000000
01000000
00000000
00101000
00000000
,
01000000
00100000
00010000
00000000
00001000
00010000
00011000
00000000
,
00000100
00000010
00001000
00000000
00000100
00010000
00010010
00000000
,
00000100
00000010
00001000
00000000
00010000
00001000
00011000
00000000
,
01000000
00100000
00010000
00000000
01000000
00001000
00101000
00000000
,
00022000
00000000
00033000
00000000
,
00000000
00000000
00000000
00000000
;

//---------------dance-double - ----------------
#NOTES:
     dance-double:
     :
     Hard:
     12:
     :
00000000
00000000
00000000
00000000
,
00000000
00000000
00000000
00000000
,
00000000
00000000
00000000
00000000
,
00000000
00000000
00000000
00000000
,
01000000
00000000
10100000
00000000
01000000
00010000
00011000
00000000
,
00000100
00000000
00001010
00000000
00000100
00001000
00011000
00000000
,
00100000
00000000
11000000
00000000
00100000
00010000
00011000
00000000
,
00000010
00000000
00001100
00000000
00000010
00001000
00011000
00000000
,
00100000
00000000
01010000
00000000
00100000
10000000
11000000
00000000
,
00100000
00000000
01100000
00000000
00010000
00001000
00011000
00000000
,
00000010
00000000
00001100
00000000
00000010
00000001
00000101
00000000
,
00000010
00000000
00000110
00000000
00001000
00010000
00011000
00000000
,
00100000
01000000
01010000
00000000
00100000
10000000
11000000
00000000
,
00100000
01000000
01100000
00000000
00010000
00001000
00011000
00000000
,
00000010
00000100
00001100
00000000
00000010
00000001
00000101
00000000
,
00000010
00000000
00000100
00000000
00000110
00000000
00000000
00000000
00001000
00000000
00000000
00010000
00001000
00000000
00000000
00000000
,
01000000
00100000
00110000
00000000
01000000
10000000
10100000
00000000
,
01000000
00100000
01100000
00000000
00010000
00001000
00011000
00000000
,
00000100
00001010
00000000
00011000
00000000
00101000
00000000
00011000
,
00000000
00001100
00000000
00011000
00000000
01001000
00000000
00011000
,
00200000
00000000
00000000
00000000
,
01300000
00000000
00000000
00010000
00000000
00000000
00010000
00000000
,
00001000
00000000
00000000
00000100
00000000
00000000
00000100
00000000
,
00000001
00000000
00000000
00000010
00000000
00000000
00000010
00000000
,
00001000
00010000
00001000
00000000
,
00000010
00000001
00000010
00000000
,
00001000
00010000
00001000
01000000
,
00100000
00000000
00010000
00000000
,
00011000
00000000
00000000
00000000
,
00000100
00000000
00000000
00001000
00000000
00000000
00001000
00000000
,
00010000
00000000
00000000
01000000
00000000
00000000
01000000
00000000
,
10000000
00000000
00000000
00100000
00000000
00000000
00100000
00000000
,
00010000
00001000
00010000
00000000
,
00100000
10000000
00100000
00000000
,
00010000
00001000
00010000
00000100
,
00000010
00000000
00001000
00000000
,
00010000
00000000
00001000
00000000
01001000
00000000
00000000
00000000
00100000
00000000
00000000
01000000
00001000
00000000
00000000
00000000
,
00001000
00000000
00010000
00000000
00010100
00000000
00000000
00000000
00000010
00000000
00000000
00000100
00010000
00000000
00000000
00000000
,
00010000
00000000
00001000
00000000
00101000
00000000
00000000
00000000
01000000
00000000
00000000
00100000
00001000
00000000
00000000
00000000
,
00001000
00000000
00010000
00000000
00010010
00000000
00000000
00000000
00000100
00000000
00000000
00000010
00010000
00000000
00000000
00000000
,
00000100
00000010
00001100
00000000
00000010
00000001
00000101
00000000
,
00000010
00000100
00000110
00000000
00001000
00010000
00011000
00000000
,
00000000
00101000
00000000
00011000
00000000
01001000
00000000
00011000
,
00000000
00010010
00000000
00011000
00000000
00010100
00000000
00011000
,
00000010
00000100
00001010
00000000
00000100
00000001
00000011
00000000
,
00000010
00000100
00000110
00000000
00001000
00010000
00011000
00000000
,
01000000
00110000
00000000
00011000
00000000
00010010
00000000
00011000
,
00000000
01010000
00000000
00011000
00000000
00010100
00000000
00011000
,
00100000
00000000
01000000
00000000
00100000
00001000
00000000
00000000
,
00010000
00000000
00000100
00000000
00000000
00001000
00000000
00000000
,
00000010
00000000
00000100
00000000
00000010
00010000
00000000
00000000
,
00001000
00000000
01000000
00000000
00000000
00010000
00000000
00000000
,
10000000
01000000
10000000
00000000
,
00010000
01000000
00010000
00000000
,
00100000
01000000
00010000
00001000
,
00000100
00000000
00001010
00000000
,
00000101
00000000
00000000
00000010
00001000
00000000
00000000
00001000
,
00000100
00000000
00000000
00000100
00010000
00000000
00001000
00000000
,
01000000
00100000
00000000
00000000
00100000
10000000
00000000
10000000
,
01000000
00100000
00001000
00010000
,
00000100
00000010
00000100
00000000
,
00000010
00000001
00000010
00000000
,
00000001
00000100
00000010
00010000
,
00001000
00000000
00011000
00000000
,
00000100
00000000
00000010
00000000
00001000
00000000
00010000
00000000
01000000
00000000
00000000
00100000
00001000
00000000
00000000
00000000
,
00010000
00000000
00001000
00000000
00000100
00000000
00000010
00000000
00010000
00000000
00000000
00001000
00010000
00000000
00000000
00000000
,
01000000
00000000
00100000
00000000
00010000
00000000
00001000
00000000
00000100
00000000
00000000
00000010
00010000
00000000
00000000
00000000
,
00001000
00000000
00010000
00000000
01000000
00000000
00100000
00000000
00001000
00000000
00000000
00010000
00001000
00000000
00000000
00000000
,
00000010
00000000
00000100
00000000
00001000
00000000
00010000
00000000
00100000
00000000
00000000
01000000
00001000
00000000
00000000
00000000
,
00010000
00000000
00001000
00000000
00000010
00000000
00000100
00000000
00010000
00000000
00000000
00001000
00010000
00000000
00000000
00000000
,
00100000
00000000
01000000
00000000
00010000
00000000
00001000
00000000
00000010
00000000
00000000
00000100
00010000
00000000
00000000
00000000
,
00001000
00000000
00010000
00000000
00100000
00000000
01000000
00000000
00001000
00000000
00000000
00010000
00001000
00000000
00000100
00000000
,
00002002
00000000
00003003
00000000
,
00000000
00000000
00000000
00000000
;

//---------------dance-double - ----------------
#NOTES:
     dance-double:
     :
     Challenge:
     14:
     :
00000000
00000000
00000000
00000000
,
00000000
00000000
00000000
00000000
,
00000000
00000000
00000000
00000000
,
00000000
00000000
00000000
00000000
,
00000100
00010000
00000100
00000000
00001100
00000000
00000000
00000000
00000001
00000000
00000100
00000000
00000001
00000000
00000001
00000000
,
00000100
00001000
00010000
01000000
10000000
01000000
10100000
00000000
,
01000000
00000000
11000000
00000000
10000000
01000000
00010000
00001000
,
00000100
00000001
00000010
00001000
00000010
00000100
00001001
00000000
,
00000010
00000001
00000010
00000000
00001100
00000000
00000000
00000000
00000001
00000000
00000010
00000000
00000001
00000000
00001000
00000000
,
00000010
00000100
00001000
00010000
01000000
00100000
10010000
00000000
,
00100000
00000000
11000000
00000000
10000000
00100000
00010000
00001000
,
00000100
00000000
00000010
00001000
00000001
00000100
00001001
00000000
,
00000010
00000100
00001000
00000000
00000011
00000000
00000000
00000000
00000001
00000000
00000100
00000000
00001000
00000000
00010000
00000000
,
01000000
10000000
00010000
00100000
00010000
01000000
11000000
00000000
,
01000000
00000000
10100000
00000000
10000000
01000000
00010000
00001000
,
00000100
00000010
00000001
00001000
00000010
00000100
00000101
00000000
,
00000010
00001000
00000010
00000000
00000101
00000000
00000000
00000000
00000001
00000000
00000010
00000000
00001000
00000000
00010000
00000000
,
00100000
01000000
00010000
00100000
00001000
00100000
00001000
00000000
,
00000000
00001010
00000000
00011000
00000000
00110000
00000000
00011000
,
00000000
00001100
00000000
00011000
00000000
01010000
00000000
00011000
,
00100000
10000000
01000000
00010000
,
00001000
00000010
00000001
00001000
,
00000100
00000001
00000100
00010000
,
00100000
10000000
01000000
10000000
,
00010000
00100000
01000000
00010000
,
00001000
00000100
00001000
00010000
,
01000000
00010000
00001000
00000100
,
00000001
00000100
00000010
00000100
,
00000001
00000100
00001000
00010000
,
01000000
10000000
00100000
01000000
,
00010000
00100000
00001000
00010000
,
00000010
00000100
00000001
00000100
,
00000010
00001000
00000100
00010000
,
00001000
00100000
00010000
01000000
,
10000000
01000000
00010000
00100000
,
00010000
01000000
10000000
00100000
,
00100000
00000000
00011000
00000000
00010000
00000100
00000101
00000000
,
00000100
00001000
00000011
00000000
00001000
00000100
00001000
00000000
,
00000010
00000000
00011000
00000000
00001000
01000000
11000000
00000000
,
01000000
00010000
10100000
00000000
00010000
01000000
00010000
00000000
,
00000100
00010000
00000100
00000000
00001100
00000000
00000000
00000000
00000001
00000000
00000100
00000000
00000001
00000000
00000001
00000000
,
00000100
00001000
00010000
01000000
10000000
01000000
10100000
00000000
,
00000000
11000000
00000000
01010000
00000000
00110000
00000000
00011000
,
00000000
00010010
00000000
00010100
00000000
00000101
00000000
00000011
,
00000010
00000001
00000010
00000000
00001100
00000000
00000000
00000000
00000001
00000000
00000010
00000000
00000001
00000000
00001000
00000000
,
00000010
00000100
00001000
00010000
01000000
00100000
10010000
00000000
,
00000000
00110000
00000000
00011000
00000000
00010100
00000000
00011000
,
00000000
01001000
00000000
10010000
00000000
01010000
00000000
00011000
,
00001000
00010000
00100000
10000000
00010000
01000000
00000000
00000000
,
11000000
00000000
10100000
00000000
00000000
10000000
00000000
01000000
,
00100000
00001000
00010000
00000100
00001000
00000100
00000000
00000000
,
00000011
00000000
00000110
00000000
00001100
00000000
00000000
00010000
,
00100000
00000000
00000000
01000000
10000000
00010000
00000000
00000000
,
01000000
00000000
00010000
00000000
,
00100000
00000000
00000000
10000000
01000000
00000000
00010000
00000000
,
00001000
00000010
00000100
00000000
00001000
00000100
00000000
00000000
,
00000001
00000000
00000000
00000100
00000001
00000000
00000000
00000001
,
00000100
00000000
00000000
00001000
00010000
00000000
00110000
00000000
,
00100000
00010000
00000000
00000000
00001000
00010000
00000000
00010000
,
01000000
00000000
00100000
00000000
01000000
00010000
00000000
00000000
,
00001000
00010000
00000000
00000000
01000000
00010000
00000000
00000000
,
00010000
00100000
00000000
00100000
10000000
00000000
01000000
00000000
,
00010000
00001000
00000000
00000100
00000010
00000100
00000000
00000000
,
00000010
00000001
00001000
00000100
00001000
00000000
00010000
00001000
,
00100000
00000000
00011000
00000000
00000100
00001000
00011000
00000000
,
00010000
00100000
00011000
00000000
00010000
00001000
00010000
00000000
,
00000010
00000000
00011000
00000000
01000000
00010000
00011000
00000000
,
00001000
00000010
00011000
00000000
00001000
00010000
00001000
00000000
,
00010000
00000000
00000000
00100000
10000000
00000000
00100000
00000000
10000000
00000000
00010000
00000000
01000000
00000000
00000000
00000000
,
00001000
00000000
00000000
00000010
00000001
00000000
00000010
00000000
00000001
00000000
00001000
00000000
00000100
00000000
00000000
00000000
,
00010000
00000000
00000000
00100000
10000000
00000000
00100000
00000000
10000000
00000000
00010000
00000000
01000000
00000000
00000000
00000000
,
00001000
00000000
00000000
00000010
00000001
00000000
00000100
00000000
00001000
00000000
00000000
00000000
00000000
00000000
00000000
00000000
,
00020200
00000000
00030300
00000000
,
00000000
00000000
00000000
00000000
;
