
//----- song ID: fasc2 -----//
#TITLE:Fascination ~eternal love mix~;
#ARTIST:2MB;
#BANNER:Fascination ~eternal love mix~.png;
#BACKGROUND:Fascination ~eternal love mix~-bg.png;
#CDTITLE:./CDTITLES/DanceDanceRevolution SuperNOVA.png;
#MUSIC:Fascination ~eternal love mix~.ogg;
#SAMPLESTART:11.997;
#SAMPLELENGTH:15;
#DISPLAYBPM:100:400;
#BPMS:0=99.8,4=100,19=200,35=400,99=200,127=400,135=200,161=400,353=200,385=400,481=200;
#STOPS:19=0.6,136=0.15,137.5=0.15,138.5=0.15,140=0.15,141=0.15,142.5=0.15,144=0.15,148.5=0.15,150=0.15,151=0.15,152.5=0.15,153.5=0.15,481=2.4;

//---------------dance-single - ----------------
#NOTES:
     dance-single:
     :
     Beginner:
     9:
     :
0000
0000
0000
0000
,
0000
0000
0000
0000
,
0000
0000
0000
0000
,
1000
1000
1000
0000
,
0001
0001
0001
0001
,
0000
0100
0000
0100
,
0000
0001
0000
0010
,
0000
0010
0000
0001
,
0000
0100
0000
0001
,
0000
0100
0000
1000
,
0000
0010
0000
0100
,
0000
0001
0000
0010
,
0000
1000
0000
0100
,
0000
0010
0000
0001
,
0000
1000
0000
0010
,
0000
0001
0000
0100
,
0000
0010
0000
0001
,
0000
0100
0000
0010
,
0000
0100
0000
0001
,
0000
0100
0000
1000
,
0000
0100
0000
0010
,
0000
1000
0000
0100
,
0000
0010
0000
0001
,
0000
0100
0000
1000
,
0000
0100
0000
1001
,
0000
0010
0000
0001
,
0000
0010
0000
0110
,
0000
0000
0000
0000
,
0110
0110
0110
0000
,
0001
0000
0100
0000
,
0100
0000
0001
0000
,
0000
0000
0000
0000
,
0000
1001
0000
1001
,
0000
1001
0000
0020
,
0000
0000
0000
0000
,
0000
0000
0000
0000
,
0000
0000
0000
0000
,
0000
0000
0000
0000
,
0000
0030
0000
0001
,
0000
1000
0000
0001
,
0000
1001
0000
0100
,
0000
0100
0000
0001
,
0000
0010
0000
0100
,
0000
1000
0000
1000
,
0000
0001
0000
0010
,
0000
0010
0000
0010
,
0000
1001
0000
1001
,
0000
1001
0000
0010
,
0000
0010
0000
0100
,
0000
1000
0000
1000
,
0000
0010
0000
0100
,
0000
1001
0000
1001
,
0000
0001
0000
0001
,
0000
0001
0000
1000
,
0000
1000
0000
0001
,
0000
0100
0000
0100
,
0000
0001
0000
1001
,
0000
1001
0000
1001
,
0000
1000
0000
1000
,
0000
1000
0000
0100
,
0000
0010
0000
0001
,
0000
0100
0000
0100
,
0000
0100
0000
1000
,
0000
1000
0000
1000
,
0000
0001
0000
0001
,
0000
1000
0000
1000
,
0000
0010
0000
0010
,
0000
1001
0000
1001
,
0000
0010
0000
0010
,
0000
0110
0000
0110
,
0000
0001
0000
0001
,
0000
0010
0000
0010
,
0000
1001
0000
0010
,
0000
1000
0000
1001
,
0000
0010
0000
1000
,
0000
0010
0000
0001
,
0000
1001
0000
1001
,
0000
0001
0000
0001
,
0000
0001
0000
0010
,
0000
0010
0000
0010
,
0000
0100
0000
0010
,
0000
1001
0000
1001
,
0000
0001
0000
0001
,
0000
1000
0000
0001
,
0000
0110
0000
0100
,
0000
1000
0000
0001
,
0000
1000
0000
0100
,
0000
0010
0000
0100
,
0000
1001
0000
0100
,
0000
1000
0000
0100
,
0000
1000
0000
0100
,
0100
0000
1000
1000
,
1000
0000
0010
0010
,
0010
0000
0100
0100
,
0100
0000
0010
0010
,
0010
0000
0001
0001
,
0001
0001
0000
0000
,
1001
0000
0000
1000
,
0000
0000
1001
0000
,
0000
0110
0000
0110
,
0000
0010
0000
0000
,
1001
0000
0000
0100
,
0000
0000
1001
0000
,
0000
0110
0000
0110
,
0000
0010
0000
0000
,
1000
0000
0000
0100
,
0000
0000
0001
0000
,
0000
0000
0010
0000
,
0010
0000
0010
0000
,
0001
0000
0001
0000
,
1000
0000
0001
0000
,
0100
0000
0010
0000
,
1000
0000
0100
0000
,
0001
0000
0010
0000
,
1000
0000
0100
0000
,
0001
0000
0010
0000
,
1000
0000
0100
0000
,
0001
0000
0010
0000
,
1000
0000
0100
0000
,
0001
0000
0010
0000
,
1000
2000
3000
0000
,
0000
0000
0000
0000
;

//---------------dance-single - ----------------
#NOTES:
     dance-single:
     :
     Easy:
     11:
     :
0000
0000
0000
0000
,
0000
0000
0000
0000
,
0000
0000
0000
0000
,
0011
0010
0100
0100
,
1000
0001
1000
0001
,
1000
0100
0001
0100
,
0010
0001
1000
0010
,
0001
0010
1000
0001
,
0010
0100
1000
0001
,
0000
0100
0000
1000
,
0000
0010
0000
0100
,
0000
0001
0000
0010
,
0000
1000
0000
0100
,
0000
0010
0000
0001
,
0000
1000
0000
0010
,
0000
0001
0000
0100
,
0000
0010
0000
0001
,
0000
0100
0000
0010
,
0000
0100
0000
0001
,
0000
0100
0000
1000
,
0000
0100
0000
0010
,
0000
1000
0000
0100
,
0000
0010
0000
0001
,
0000
0100
0000
1000
,
0000
0100
0000
1001
,
1000
0010
0100
0001
,
0100
0010
1000
0110
,
0000
1010
0000
1001
0000
0101
0000
0000
,
0110
0110
0110
1001
,
0001
0010
0100
1000
,
0100
0010
0001
0110
,
0000
0011
0000
0110
0000
1100
0000
0000
,
0000
1001
0000
1001
,
0000
0000
1001
0000
0000
0000
1000
0100
,
1000
0000
0001
0100
0000
0010
0000
0001
,
0100
0000
1000
0000
1000
0100
0000
0010
,
1000
0001
0100
1000
,
0010
0000
0000
1000
0001
0000
0010
0000
,
0100
0010
0000
0100
0000
0000
0001
0000
,
0100
1000
0010
0001
,
0010
1001
0000
0100
,
0000
0100
0000
0001
,
0000
0010
0000
0100
,
0000
1000
0000
1000
,
0000
0001
0000
1010
,
0000
1010
0000
1010
,
0000
1001
0000
1001
,
0000
1001
0000
0010
,
0000
0010
0000
0100
,
0000
1000
0000
1000
,
0000
0010
0000
0100
,
0000
1001
0000
1001
,
0000
0101
0000
0101
,
0000
0101
0000
1000
,
0000
1000
0000
0001
,
0000
0100
0000
0100
,
0000
0001
0000
1001
,
0000
1001
0000
1001
,
0000
1100
0000
1100
,
0000
1100
0000
0100
,
0000
0010
0000
0001
,
0000
0011
0000
0011
,
0000
0011
0000
1000
,
0000
1000
0000
1000
,
0000
0101
0000
0101
,
0000
1000
0000
1000
,
0000
0010
0000
0010
,
0000
1001
0000
1001
,
0000
0010
0000
0010
,
0000
0110
0000
0110
,
0000
0101
0000
0101
,
0000
0010
0000
0010
,
0000
1001
0000
1010
,
0000
1100
0000
1001
,
0000
1010
0000
1100
,
0000
0010
0000
0001
,
0000
1001
0000
1001
,
0000
0001
0000
0101
,
0000
0101
0000
0010
,
0000
1010
0000
1010
,
0000
0011
0000
1010
,
0000
1001
0000
1001
,
0000
0101
0000
0101
,
0000
1100
0000
0101
,
0000
0110
0000
0011
,
0000
1100
0000
0101
,
0000
1100
0000
0011
,
0000
1010
0000
0011
,
0000
1001
0010
0100
,
0001
1000
0010
0100
,
0001
2000
0100
0100
,
3100
0002
1000
1000
,
1003
0200
0010
0010
,
0310
0002
0100
0100
,
0103
2000
0010
0010
,
3010
0200
0001
0001
,
0301
0101
0000
0000
,
1001
0000
0000
1100
,
0000
0000
1001
0000
,
0000
0110
0000
0110
,
0000
1010
0000
0000
,
1001
0000
0000
0011
,
0000
0000
1001
0000
,
0000
0110
0000
0110
,
0000
1010
0000
0000
,
1100
0000
0000
0011
,
0000
0000
0101
0000
,
0000
0000
0010
0000
,
0010
0001
0010
0000
,
0001
0000
0001
0000
,
1000
0000
0001
0000
,
0100
0000
0010
0000
,
1000
0000
0100
0000
,
0010
0000
0010
0000
,
1000
0100
1000
0000
,
0001
0000
0001
0000
,
0100
0000
0001
0100
,
0001
0100
0000
0010
,
0000
0000
1000
0000
,
0100
0000
0010
0000
,
0100
1001
0000
0000
,
0000
0000
0000
0000
;

//---------------dance-single - ----------------
#NOTES:
     dance-single:
     :
     Medium:
     13:
     :
0000
0000
0000
0000
,
0000
0000
0000
0000
,
0000
0000
0000
0000
,
0011
1000
0100
0001
,
0010
0000
1000
0000
0100
0000
1000
0010
,
0100
0000
1000
0010
0100
0000
0001
0010
,
0100
1000
0100
0010
0100
0000
0001
0100
,
0010
0000
0001
0100
0010
0000
0001
0100
,
0010
1000
0010
0100
0001
0000
0010
0000
,
0001
1000
0000
1000
,
0100
0010
0000
0100
,
0010
0001
1000
0100
,
0000
1001
0000
0010
,
1000
0100
0000
0010
,
0100
0001
0000
0100
,
1000
0010
0100
0001
,
0100
0010
0000
1000
,
0010
0100
0000
0001
,
0100
0010
0000
1000
,
0100
0010
0001
0100
,
0000
1001
0000
0001
,
0100
1000
0000
0100
,
0010
0100
0000
0001
,
0010
0100
0010
0001
,
1000
0100
0000
0101
,
1100
0000
0001
0100
0010
0000
1100
0000
,
0101
0000
0010
0100
1000
0000
0101
0000
,
0000
0011
0000
1010
0000
0110
0000
0000
,
0010
0001
0010
0001
1100
0000
0101
0000
,
0110
0000
1000
0010
0100
0000
0110
0000
,
0011
0000
0001
0010
0100
0000
0110
0000
,
0000
0110
0000
0011
0000
1010
0000
0000
,
0000
0100
1000
0100
,
1000
0000
0101
0000
0000
0000
0001
0100
,
1000
0000
0010
1000
0000
0010
0000
0001
,
0100
0000
1000
0000
0010
0100
0000
0001
,
1000
0000
0100
0010
1000
0010
0100
0001
,
1000
0010
0000
0100
0010
0000
0001
0000
,
1000
0001
0000
0100
0000
0001
1000
0100
,
0010
0001
0100
1000
0100
0001
0010
0100
,
1000
0010
1001
0000
0000
0000
0100
0000
,
1000
0100
0000
0100
,
0001
0100
0000
0010
,
0001
0010
0100
1000
,
0100
0010
0000
0011
,
0000
1001
0000
1100
,
0000
1010
0000
0110
,
0000
0101
0000
0001
,
0100
0001
0100
0010
,
0000
1000
0100
1000
,
0100
0010
0100
1000
,
0000
1001
0000
0101
,
0000
0011
0000
1010
,
0000
0110
0000
0010
,
0001
1000
0001
0010
,
0000
0100
1000
0001
,
1000
0100
0000
0101
,
0000
1001
0000
1100
,
0000
0110
0000
0011
,
0000
1001
0000
0100
,
1000
0010
1000
0001
,
0000
0110
0000
1100
,
0000
0101
0000
0001
,
0100
1000
0100
0001
,
0000
1010
0000
1100
,
0000
0010
1000
0100
,
0000
0001
0100
0010
,
0000
0101
0000
0011
,
0000
0010
0100
1000
,
0000
1100
0000
0101
,
0000
0110
0000
1010
,
0000
1000
0010
0100
,
0000
0101
0000
1100
,
0000
0110
0000
0011
,
0000
1001
0000
0101
,
0000
0010
1000
0001
,
0000
1010
0000
1001
,
0000
0100
0000
0110
,
0000
0101
0000
0010
,
0000
1010
0000
0011
,
0000
0101
0000
1100
,
0000
0101
0000
0101
,
0000
1100
0000
1100
,
0000
1010
0000
0011
,
0000
0110
0000
1100
,
0000
1010
0000
0110
,
0000
0101
0000
0011
,
0000
1010
0000
0011
,
0000
0000
1001
0000
0010
0000
0100
1000
,
0001
0000
1001
0000
0010
0000
0100
0001
,
1000
0000
1000
0000
0101
0000
0100
1000
,
0001
0000
0010
0000
1100
0000
0100
0001
,
1000
0000
0100
1000
0010
0000
0010
1000
,
0100
0000
0001
0010
0100
0000
0100
0010
,
0001
0000
0010
1000
0100
1000
0100
1000
,
0010
0100
0001
0010
0001
0010
0001
0100
,
0010
0101
0000
1000
,
0100
0000
0100
1000
,
0000
1000
0010
0000
,
0010
0100
0000
0110
,
0000
0101
0000
0001
,
0010
0000
0010
0001
,
0000
0001
0100
0000
,
0100
0010
0000
1010
,
0000
1001
0000
0010
,
0100
0000
0100
0010
,
0000
1000
0100
0000
,
1000
0100
0010
0001
,
0000
1001
0000
1000
,
0100
0010
0000
0001
,
0100
1000
0000
0100
,
0010
1000
0000
0001
,
0100
0010
0000
1000
,
0001
0100
0000
1000
,
0100
0001
0000
1000
,
0010
0100
0000
0001
,
0010
0100
0000
1000
,
0100
0010
0000
0001
,
1000
0100
0000
0001
,
1000
0100
0010
0100
,
2002
3003
0000
0000
,
0000
0000
0000
0000
;

//---------------dance-single - ----------------
#NOTES:
     dance-single:
     :
     Hard:
     16:
     :
0000
0000
0000
0000
,
0000
0000
0000
0000
,
0000
0000
0000
0000
,
1010
1000
0010
0100
0010
0000
1000
0100
0001
0000
0100
1000
0010
0000
0100
0000
,
0001
1000
0010
0100
0001
0000
0100
0010
1000
0100
0010
0100
1001
0000
1000
0000
,
0100
0010
0001
0000
0100
0010
1000
0010
,
0100
0000
0001
0010
0100
1000
0100
0001
,
0100
1000
0010
0000
0100
0010
0100
1000
,
0100
0000
0001
0010
0001
1000
0100
0000
,
0010
0100
1000
0001
,
0000
0010
0001
0010
,
0100
1000
0000
0010
,
1000
0001
1000
0100
,
0001
0100
1000
0010
,
0000
0100
0001
0100
,
0010
0100
0000
0001
,
0100
0010
1000
0100
,
1000
0010
0100
0001
,
0100
0010
1000
0010
,
0001
0010
1000
0100
,
0010
0001
0100
0001
,
1000
0010
1000
0100
,
0001
0100
1000
0010
,
0100
0001
1000
0010
,
0100
0001
0010
0001
,
1000
0100
0001
0000
0100
0010
0100
1000
,
0100
0000
0010
0001
0100
0010
0100
0000
,
0010
1000
0001
0000
0100
0010
1000
0001
,
0100
0000
0010
1000
0010
0100
0001
0000
,
0010
0001
0100
0000
0001
1000
0100
1000
,
0010
0100
0001
0010
0001
1000
0001
0100
,
0001
0010
1000
0010
0100
0010
0001
0000
,
1000
0010
0100
0001
,
1000
0000
0001
0000
1000
0000
0010
0100
,
0001
0010
0001
1000
0100
1000
0010
1000
,
1000
0001
0100
0100
0001
0001
1000
0100
,
0100
0100
1000
0010
0100
0001
0010
0100
,
1000
0001
0001
0100
0010
0010
1000
0001
,
0010
0010
0010
0100
0100
1000
0010
0001
,
0010
1000
0100
0001
0100
1000
0001
0100
,
0001
0010
0100
1000
0001
0000
0000
0000
0000
0000
0000
0000
0010
0000
0001
0000
,
0000
0000
0100
0010
0000
0000
1000
0010
,
0000
0000
1000
0100
0000
0000
0001
0100
,
0000
0000
1000
0010
0000
0000
0100
0001
,
0000
0000
1000
0010
0000
0000
0100
0010
,
0000
0000
0001
1000
0000
0000
0100
0010
,
0000
0000
0001
0100
0000
0000
0001
0010
,
0000
0000
0100
1000
0000
0000
0010
0100
,
0000
0001
0010
0010
,
0100
0000
0100
1000
0000
0000
0010
0000
,
0100
0000
0100
0000
0001
0000
0001
1000
,
0000
0000
0010
0100
0000
0000
0001
1000
,
0000
0000
0010
0100
0000
0000
0001
0100
,
0000
0000
0010
1000
0000
0000
0100
0010
,
0000
0000
0001
0010
0000
0000
1000
0010
,
0000
0000
0100
0001
0000
0000
0100
1000
,
0000
0000
0100
0001
0000
0000
1000
0010
,
0000
0000
1000
0001
0000
0000
1000
0100
,
0000
0000
0010
0001
0000
0000
0010
0100
,
0000
0000
0010
1000
0000
0000
0010
0000
,
0001
0000
0001
0000
0100
0000
0100
1000
,
0000
0000
0100
0001
0000
0000
0100
1000
,
0000
0000
0100
0001
0000
0000
1000
0000
,
0010
0010
0100
0100
,
0001
0000
0001
0010
0000
0000
0100
0000
,
1000
0000
1000
0000
0010
0000
0010
0001
,
0000
0000
0010
1000
0000
0000
0100
0010
,
0000
0000
0001
1000
0000
0000
0100
0010
,
0000
0000
0001
0100
0000
0000
0010
0000
,
1000
1000
0100
0100
,
0010
0000
0010
0001
0000
0000
0010
0000
,
0100
0000
0100
0000
0010
0000
0010
0001
,
0000
0000
1000
0010
0000
0000
1000
0001
,
0000
0000
1000
0100
0000
0000
0001
0010
,
0000
0000
0001
1000
0000
0000
0001
0100
,
0000
0000
0010
0100
0000
0000
0010
0001
,
0000
0000
0010
1000
0000
0000
1100
0000
,
0100
0000
0010
0000
0001
0000
0010
0100
,
0000
0101
0100
0010
,
1000
0000
0010
0100
0000
0000
0011
0000
,
0001
0100
0010
1100
,
0100
0010
0001
0110
,
0100
0000
1000
0100
0000
0000
1001
0000
,
1000
0000
0100
0000
0001
0000
0100
0010
,
0000
1100
1000
0010
,
0001
0000
0010
0100
0000
0000
0101
0000
,
0010
0000
1000
0000
0100
0000
0010
0001
,
0000
0000
0001
1000
0000
0000
1000
0100
,
0000
0000
1000
0000
0201
0000
1300
0001
,
0010
1000
0100
0000
0021
0000
1030
0001
,
0100
1000
0010
0000
1200
0000
0301
1000
,
0010
0001
0100
0000
1020
0000
0031
1000
,
0100
0001
1000
0010
0100
0001
0010
0001
,
0100
0010
1000
0010
0100
0001
0010
1000
,
0010
0001
0100
0001
1000
0100
0010
0100
,
1000
0000
0000
0001
0000
0000
0100
0000
0000
0001
0000
0000
1000
0000
0000
0100
0000
0000
0010
0000
0100
0000
1000
0000
,
0001
0000
0100
0000
0001
0000
1000
0000
0000
0001
0000
0000
1000
0000
0000
0000
0000
0000
0001
0000
0000
0000
0000
0000
,
0100
0001
1000
0010
,
0100
0001
0100
0010
,
1000
0100
0001
0100
,
1000
0100
0010
0100
,
1000
0001
0010
0001
,
0100
0010
1000
0010
,
0100
0001
0010
0100
,
1000
1010
0100
0001
,
0100
1001
0010
1000
,
0001
1100
0001
0100
,
0010
0101
0010
1000
,
0001
0000
0110
0000
0001
0100
0001
1000
,
0001
0100
0010
1000
,
0100
0000
0001
0000
0100
1000
0100
0010
,
0100
0000
1000
0010
0100
0000
0001
1000
,
0100
0000
1000
0000
0001
0010
0001
1000
,
0001
0100
0010
1000
,
0010
0000
0100
0000
0001
0100
0010
1000
,
0010
0000
0100
0001
1000
0000
0010
0100
,
0001
0000
1000
0000
0100
0010
0001
0010
,
0100
1000
0010
0100
,
0010
0000
0001
0000
0010
0100
0010
1000
,
0010
0000
1000
0010
0100
0001
1000
0100
,
0010
0002
2000
3003
0000
0000
0000
0000
,
0000
0000
0000
0000
;

//---------------dance-single - ----------------
#NOTES:
     dance-single:
     :
     Challenge:
     18:
     :
0000
0000
0000
0000
,
0000
0000
0000
0000
,
0000
0000
0000
0000
,
1100
0000
0100
0000
0010
0000
0001
0000
1000
0000
0100
0000
0001
0010
0100
0000
,
1000
0010
0100
0001
1000
0020
0130
0000
,
0101
1000
0101
0010
,
1100
0000
0001
0000
1100
0000
0001
1000
,
0100
0001
0100
0010
0100
1000
0001
0010
,
0100
0010
1000
0010
0001
0100
1000
0000
,
0010
1000
0100
0010
,
0001
0100
0001
1000
,
0100
0010
1000
0001
,
0100
0010
0001
0100
,
1000
0100
0010
0001
,
0010
0100
0001
1000
,
0100
0010
1000
0001
,
0100
1000
0010
1001
,
0010
0001
0100
0001
,
1000
0100
0010
1001
,
0100
0010
0001
0100
,
0001
1000
0010
0110
,
0001
1000
0001
0110
,
1000
0001
1000
1001
,
0010
0100
0010
1001
,
0100
0010
0100
1001
,
0101
0000
1100
0000
0101
0010
1000
0010
,
0101
0000
1100
0000
0101
1000
0010
1000
,
0011
0000
1010
0000
0011
1000
0100
1000
,
0011
1000
0011
0100
1100
0001
1100
0000
,
1001
0100
0010
0001
1100
0000
0101
0000
,
1010
0100
0001
0010
0101
0000
1010
0000
,
1100
0010
0001
1000
0101
0000
1000
0000
,
0001
0100
0001
0000
1000
0010
1000
0000
,
0001
0100
0001
0000
1000
0010
1000
0100
,
0001
1000
0100
0001
1000
0001
0010
1000
,
0001
0010
1000
0001
0010
1000
0001
1000
,
0010
0001
0010
1000
0100
0010
0001
0100
,
1000
0010
0001
1000
0100
0010
1000
0010
,
0001
1000
0010
0100
0001
0100
1000
0100
,
0001
0000
0100
0000
1000
0000
0100
0000
0001
0010
0100
1000
0001
0100
0010
1000
,
0100
0010
0001
1000
0010
0000
0100
0000
0000
0000
0000
0000
1000
0000
0001
0000
,
0000
0000
0100
0010
0000
0000
0001
0100
,
0000
0000
1000
0010
0000
0000
0100
0001
,
0000
1000
0010
0100
,
0010
0000
0100
0000
0001
0000
1000
0100
,
0000
0000
0010
0001
0000
0000
0100
0010
,
0000
0000
1000
0001
0000
0000
1000
0100
,
0000
0000
1000
0001
0000
0000
1000
0100
,
0000
0000
0001
1000
0000
0000
0010
0001
,
0000
0000
1000
0010
0000
0000
0100
0000
,
0001
1000
0001
1000
,
0100
0000
0010
0001
0000
0000
0010
0001
,
0000
0000
0100
1000
0000
0000
0001
1000
,
0000
0000
0100
1000
0000
0000
0001
1000
,
0000
0000
0010
0100
0000
0000
0001
0010
,
0000
0100
1000
0010
,
1000
0000
0010
0000
0100
0000
0001
0100
,
0000
0000
0010
0100
0000
0000
0001
0100
,
0000
0000
0010
1000
0000
0000
0100
1000
,
0000
0000
0010
1000
0000
0000
0100
1000
,
0000
0000
0010
0001
0000
0000
0100
0010
,
0000
0000
1000
0100
0000
0000
0001
0100
,
0000
0000
1000
0100
0000
0000
0001
0000
,
0010
0100
0010
0100
,
1000
0000
0001
0100
0000
0000
0010
1000
,
0000
0000
0100
0010
0100
0000
0100
0010
,
0100
1000
0001
1000
,
0001
0000
0100
1000
0000
0000
0001
0100
,
0000
0000
0010
1000
0010
0000
1000
0100
,
1000
0000
0001
0100
0001
0000
0010
0001
,
0010
0000
0100
1000
0000
0000
0001
0010
,
0000
0100
1000
0001
,
1000
0101
0001
1001
,
0001
0011
0000
1100
,
1000
1001
1000
1010
,
0000
0100
0001
0100
,
0001
1100
1000
1100
,
1000
0100
0010
0011
,
0001
0011
0001
1000
,
0010
1010
1000
1010
,
1000
1001
0001
0101
,
0100
0110
0010
1010
,
1000
1100
0100
0101
,
0100
1100
0100
0101
,
0100
1100
1000
1001
,
0001
0101
0100
0110
,
0010
1010
1000
1001
,
0100
1001
0100
1001
,
0100
0000
1002
0000
0010
0000
0100
1000
,
0103
0001
2100
0000
0001
0000
0010
0001
,
3010
1000
0102
0000
0010
0000
1000
0100
,
1003
0001
2010
0000
0001
0000
0100
0001
,
3100
1000
0102
0000
0013
0001
0200
0000
,
0310
1000
0200
0000
0301
0100
2000
0010
,
3001
0010
0200
1000
0310
0001
2000
0100
,
3010
1000
0002
0100
0013
0001
2000
0010
,
3100
0001
1000
0000
0100
0000
0010
0000
,
0100
1000
0010
0001
,
0100
0001
1000
0010
,
0001
0110
1000
0110
,
0001
0110
1000
0001
,
0010
0100
1000
1001
,
0010
1000
0001
0100
,
0010
1001
0100
1001
,
0010
0000
1001
0000
1000
0010
0100
0000
,
0101
0000
0001
0010
0100
0000
1100
0000
,
0010
0001
1000
0000
1001
0000
0100
0001
,
1000
1100
0100
0101
,
0001
1001
0011
1001
,
1000
1001
1100
1001
,
1000
0110
0101
0110
,
0001
0110
1100
0110
,
1000
0011
1001
0101
,
0010
1100
1001
1010
,
0100
0000
1000
0001
0100
0010
1000
0000
,
0100
0011
1000
1010
,
0100
0000
0001
0100
0010
1000
0100
0000
,
0010
1100
0001
0101
,
0010
0000
1000
0100
0010
0001
1000
0000
,
1001
0101
1010
1100
,
0011
0000
2002
3003
0000
0000
0000
0000
,
0000
0000
0000
0000
;

//---------------dance-double - ----------------
#NOTES:
     dance-double:
     :
     Easy:
     10:
     :
00000000
00000000
00000000
00000000
,
00000000
00000000
00000000
00000000
,
00000000
00000000
00000000
00000000
,
00000011
00000010
00000100
00000100
,
00001000
00000001
00001000
00010000
,
00001000
00100000
00010000
01000000
,
00100000
01000000
00010000
10000000
,
01000000
00010000
00001000
00010000
,
00000100
00001000
00000010
00001000
,
00000000
00000001
00000000
00000100
,
00000000
00000010
00000000
00000100
,
00000000
00001000
00000000
00010000
,
00000000
01000000
00000000
00100000
,
00000000
00010000
00000000
01000000
,
00000000
10000000
00000000
01000000
,
00000000
00100000
00000000
10000000
,
00000000
01000000
00000000
00100000
,
00000000
00010000
00000000
10000000
,
00000000
01000000
00000000
00010000
,
00000000
00001000
00000000
00000010
,
00000000
00001000
00000000
00010000
,
00000000
00001000
00000000
00000100
,
00000000
00000001
00000000
00001000
,
00000000
00000010
00000000
00000100
,
00000000
00001000
00000000
00011000
,
00100000
10000000
01000000
00010000
,
00001000
00000100
00000010
00000210
,
00000000
00001000
00000000
00000010
00000000
00000301
00000000
00000000
,
00000100
00001000
00010000
01000000
,
00100000
00010000
01000000
10000000
,
00100000
10000000
01000000
01200000
,
00000000
00010000
00000000
01000000
00000000
10300000
00000000
00000000
,
00000000
01000000
00000000
00010000
,
00000000
00000000
00001000
00000000
00000000
00000000
00001000
00010000
,
00001000
00000000
00001000
00010000
00000000
00001000
00000000
00000100
,
00000001
00000000
00000100
00000000
00001000
00010000
00000000
00010000
,
00001000
00000000
00000000
00100000
00000000
00010000
00000000
10000000
,
01000000
10000000
00000000
01000000
00100000
00000000
00010000
00000000
,
00001000
00000100
00000000
00000001
00000000
00000000
00000010
00000000
,
00000100
00000001
00000100
00001000
,
00010000
00011000
00000000
01000000
,
00000000
01000000
00000000
10000000
,
00000000
00100000
00000000
00010000
,
00000000
00001000
00000000
00010000
,
00000000
00001000
00000000
00020100
,
00000000
00001000
00000000
00030010
,
00000000
00012000
00000000
00010000
,
00000000
00013000
00000000
00100000
,
00000000
00100000
00000000
01000000
,
00000000
10000000
00000000
10000000
,
00000000
00100000
00000000
01000000
,
00000000
10020000
00000000
10030000
,
00000000
02100000
00000000
00100000
,
00000000
03100000
00000000
10000000
,
00000000
10000000
00000000
00010000
,
00000000
01000000
00000000
01000000
,
00000000
00001000
00000000
01002000
,
00000000
00010000
00000000
00103000
,
00000000
00021000
00000000
00001000
,
00000000
00031000
00000000
00000100
,
00000000
00000100
00000000
00000010
,
00000000
00000120
00000000
00000100
,
00000000
00000130
00000000
00000001
,
00000000
00000001
00000000
00000100
,
00000000
00000201
00000000
00000301
,
00000000
00000100
00000000
00001000
,
00000000
00010000
00000000
00001000
,
00000000
00011000
00000000
00011000
,
00000000
00100000
00000000
00100000
,
00000000
01100000
00000000
01100000
,
00000000
11000000
00000000
11000000
,
00000000
00100000
00000000
00100000
,
00000000
10010000
00000000
10100000
,
00000000
11000000
00000000
10010000
,
00000000
10100000
00000000
11000000
,
00000000
10000000
00000000
01000000
,
00000000
01010000
00000000
01010000
,
00000000
00010000
00000000
00011000
,
00000000
00011000
00000000
00001000
,
00000000
00001100
00000000
00001100
,
00000000
00000100
00000000
00000100
,
00000000
00000001
00000000
00000001
,
00000000
00000010
00000000
00001000
,
00000000
00010000
00000000
00100000
,
00000000
10000000
00000000
01000000
,
00000000
00010000
00000000
00001000
,
00000000
00000100
00000000
00000001
,
00000000
00000100
00000000
00001000
,
00000000
00020000
00000000
00001000
,
00031000
00200000
00000000
01000000
,
01300000
20000000
00000000
00010000
,
30010000
00020000
00000000
01000000
,
01030000
00002000
00000000
00010000
,
00013000
00000200
00000000
00000001
,
00000301
00002000
00000000
00000010
,
00003010
00000200
00000000
00001000
,
00001300
00011000
00000000
00000000
,
00102000
00000000
00000000
01000000
,
00000000
00000000
00013000
00000000
,
00000000
00011000
00000000
00011000
,
00000000
00020000
00000000
00000000
,
00000010
00000000
00000000
00000100
,
00000000
00000000
00031000
00000000
,
00000000
00011000
00000000
00011000
,
00000000
00110000
00000000
00000000
,
00010000
00000000
00000000
01000000
,
00000000
00000000
00100000
00000000
,
00000000
10000000
00000000
00000000
,
00010000
00000000
01000000
00000000
,
00100000
00000000
10000000
00000000
,
01000000
00000000
00010000
00000000
,
00001000
00000000
00000100
00000000
,
00000010
00000000
00000100
00000000
,
00000001
00000000
00001000
00000000
,
00000100
00000000
00010000
00000000
,
00001000
00000000
00100000
00000000
,
01000000
00000000
10000000
00000000
,
00100000
00000000
00010000
00000000
,
00001000
00000000
00000100
00000000
,
00000001
00000000
00001000
00000000
,
00000010
00011000
00000000
00000000
,
00000000
00000000
00000000
00000000
;

//---------------dance-double - ----------------
#NOTES:
     dance-double:
     :
     Medium:
     13:
     :
00000000
00000000
00000000
00000000
,
00000000
00000000
00000000
00000000
,
00000000
00000000
00000000
00000000
,
00001010
00000001
00000100
00001000
,
00010000
01000000
10000000
00100000
,
10000000
01000000
00010000
00001000
,
00000010
00000000
00000001
00000000
00000100
00000000
00000010
00000100
,
00000001
00001000
00000010
00001000
00000100
00000010
00000001
00000000
,
00000011
00000110
00001100
00000100
,
00000000
00010000
00000000
00001000
,
00000000
00100000
00000000
00010000
,
00000000
10000000
00000000
00100000
,
00000000
01000000
00000000
00100000
,
01000000
00010000
10000000
00100000
,
10000000
01000000
00100000
00010000
,
00000000
00110000
00000000
01100000
,
00000000
11000000
00000000
10000000
,
00000000
00100000
00000000
01000000
,
00000000
00010000
00000000
00100000
,
00000000
00001000
00000000
00010000
,
00000000
00001000
00000000
00100000
,
00010000
00100000
00001000
00010000
,
00000010
00001000
00000010
00010000
,
00000000
00011000
00000000
00011000
,
00000000
00011000
00000000
00011000
,
00100000
00010000
01000000
00000000
00100000
10000000
01000000
00000000
,
01000000
00010000
00001000
00000000
00010000
00001000
00021000
00000000
,
00000000
00000010
00000000
00001000
00000000
00030100
00000000
00000000
,
00000100
00001000
00000001
00001000
00000010
00001000
00000001
00000000
,
00000010
00000001
00001000
00000000
00000100
00001000
00000001
00000000
,
00000100
00001000
00010000
00000000
00001000
00010000
00012000
00000000
,
00000000
00100000
00000000
00010000
00000000
01003000
00000000
00000000
,
00000000
01000000
00001000
00010000
,
00001000
00000000
00100000
00000000
00001000
00000000
00010000
00001000
,
00010000
00000000
00100000
10000000
00000000
00010000
00000000
01000000
,
00001000
00000000
00010000
00000000
00001000
00000100
00000000
00000001
,
00000100
00000000
00001000
00010000
01000000
10000000
00100000
10000000
,
01000000
00100000
00000000
10000000
01000000
00000000
00010000
00000000
,
00001000
00000100
00000000
00000001
00000000
00000010
00001000
00000100
,
00000010
00000001
00000100
00001000
00010000
00100000
10000000
01000000
,
00100000
10010000
00000000
01000000
,
00000000
00010000
00000000
00001000
,
00000000
00000010
00000000
00001000
,
00000000
00010000
00000000
00100000
,
00000000
10000000
00000000
11000000
,
00000000
01010000
00000000
00110000
,
00000000
10010000
00000000
10010000
,
00000000
10010000
00000000
00100000
,
00000000
01000000
00000000
10000000
,
00000000
00100000
00000000
01000000
,
00000000
00001000
00000000
00010000
,
00000000
00012000
00000000
00013000
,
00000000
00021000
00000000
00001000
,
00000000
00031000
00000000
00000100
,
00000000
00000010
00000000
00001000
,
00000000
00000001
00000000
00000100
,
00000000
00000010
00000000
00001010
,
00000000
00001100
00000000
00000011
,
00000000
00001001
00000000
00001001
,
00000000
00001001
00000000
00000100
,
00000000
00000010
00000000
00000001
,
00000000
00000110
00000000
00001010
,
00000000
00000101
00000000
00000010
,
00000000
00001000
00000000
00000100
,
00000000
00000011
00000000
00001100
,
00000000
00010000
00000000
00000100
,
00000000
00001000
00000000
00010000
,
00000000
00011000
00000000
00011000
,
00000000
00100000
00000000
01000000
,
00000000
01100000
00000000
01100000
,
00000000
10010000
00000000
10010000
,
00000000
01000000
00000000
00100000
,
00000000
10010000
00000000
00110000
,
00000000
01010000
00000000
10010000
,
00000000
00110000
00000000
01010000
,
00000000
00100000
00000000
10000000
,
00000000
01010000
00000000
01001000
,
00000000
00010000
00000000
00011000
,
00000000
00010010
00000000
00001000
,
00000000
00001010
00000000
00001001
,
00000000
00000101
00000000
00000110
,
00000000
00001000
00000000
00010000
,
00000000
00011000
00000000
00101000
,
00000000
00110000
00000000
10010000
,
00000000
01000000
00000000
00100000
,
00000000
10010000
00000000
01100000
,
00000000
10010000
00000000
11000000
,
00000000
01100000
00000000
00110000
,
00000000
00000000
00011000
00000000
00010010
00000000
00001000
00000001
,
00000100
00000000
00000010
00000000
00001100
00000000
00010000
00000100
,
00001000
00000000
00000010
00000000
00000101
00000000
00000100
00001000
,
00010000
00000000
00100000
00010000
01000000
00000000
00100000
10000000
,
01000000
00000000
00010000
00000000
00101000
00000000
00001000
01000000
,
00010000
00000000
00100000
00000000
11000000
00000000
01000000
00100000
,
00010000
00000000
00001000
00100000
00001000
00000000
00010000
00000010
,
00010000
00000000
00001010
00000000
00000001
00000000
00000100
00000010
,
00001000
00011000
00000000
00001000
,
01000000
00000000
00100000
10000000
,
00000000
01000000
00010000
00000000
,
00001000
00010000
00000010
00001000
,
00000000
00001100
00000000
00000001
,
00000010
00000000
00000100
00001000
,
00000000
00000010
00010000
00000000
,
00001000
00100000
00010000
01000000
,
00000000
00110000
00000000
10000000
,
01000000
00000000
00010000
00001000
,
00000000
00000010
00000001
00000000
,
00001000
00000100
00000010
00000001
,
00000100
00000010
00000100
00000010
,
00001000
00000001
00001000
00000001
,
00000010
00000001
00000010
00000001
,
00001000
00000100
00001000
00000100
,
00010000
00000010
00010000
00000010
,
00010000
00001000
00010000
00001000
,
01000000
00001000
01000000
00001000
,
00010000
00001000
00010000
00001000
,
00010000
00001000
00010000
01000000
,
00010000
01000000
00100000
01000000
,
10000000
01000000
00010000
00001000
,
00000100
00000001
00000100
00001000
,
00010000
10010000
00000000
00000000
,
00000000
00000000
00000000
00000000
;

//---------------dance-double - ----------------
#NOTES:
     dance-double:
     :
     Hard:
     17:
     :
00000000
00000000
00000000
00000000
,
00000000
00000000
00000000
00000000
,
00000000
00000000
00000000
00000000
,
00001010
00001000
00000001
00001000
00000010
00010000
00001000
01000000
,
00010000
00000000
00100000
00000000
10000000
00000000
00100000
00010000
00001000
00010000
00000200
00000000
00000310
00000000
00000001
00000000
,
00001000
00000100
00001000
00000000
00000001
00000100
00000010
00010000
,
00001000
00000000
00000100
00000010
00010000
00100000
10000000
00010000
,
01000000
00100000
10000000
00000000
00010000
00100000
00001000
00010000
,
00000010
00000000
00000100
00000001
00000010
00000100
00010000
00001000
,
00010000
00000100
00000010
00000001
,
00000010
00000100
00010000
01000000
,
00100000
00010000
10000000
01000000
,
10000000
00000000
00100000
00000000
10000000
00000000
01000000
00100000
,
00010000
01000000
00010000
00100000
,
00001000
00010000
00000100
00000010
,
00000001
00000100
00000001
00000010
,
00001000
00000000
00000010
00000000
00000100
00000000
00010000
00001000
,
00010000
00000000
01000000
00000000
00100000
00000000
00010000
01000000
,
00100000
00000000
10000000
00000000
00010000
00000000
10000000
01000000
,
00100000
00000000
00010000
00000000
00100000
00000000
00001000
00010000
,
00000100
00000000
00000010
00000000
00000001
00000000
00000001
00000100
,
00000010
00000000
00001000
00000000
00000100
00000000
00000010
00000001
,
00000100
00000000
00000010
00000000
00010000
00000000
00001000
00100000
,
00010000
00000000
01000000
00000000
00100000
00000000
10000000
00100000
,
01000000
00001000
00010000
01000000
,
10000000
00010000
00100000
00010000
01000000
00001000
01000000
00010000
,
00100000
00001000
00010000
00000100
00010000
00001000
00010000
00000000
,
00010000
00000000
00000000
00000000
00010000
00001000
00000000
00000000
00000000
00000000
00000000
00000000
00000100
00000010
00000000
00000000
00000000
00000000
00000000
00000000
00000010
00000001
00000000
00000000
00000000
00000000
00000000
00000000
00001000
00000000
00000000
00000000
,
00001000
00000100
00000000
00000000
00000000
00000000
00000000
00000000
00000100
00010000
00000000
00000000
00000000
00000000
00000000
00000000
01000000
00001000
00000000
00000000
00000000
00000000
00000000
00000000
00010000
00000000
00000000
00000000
01000000
00000000
00000000
00000000
,
00010000
10000000
01000000
00100000
00001000
00010000
01000000
00100000
,
01000000
00010000
00001000
00010000
00000100
00001000
00000100
00000010
,
00000001
00000000
00000000
00000000
00001000
00000001
00000000
00000000
00000000
00000000
00000000
00000000
00010000
00000010
00000000
00000000
00000000
00000000
00000000
00000000
00001000
01000000
00000000
00000000
00000000
00000000
00000000
00000000
00000000
00000000
00000000
00000000
,
01000000
00000000
00000000
00000000
00100000
01000000
00000000
00000000
00000000
00000000
00000000
00000000
00010000
10000000
00000000
00000000
,
00000000
00000000
00000000
00000000
10000000
01000000
00000000
00000000
00000000
00000000
00000000
00000000
00100000
00000000
10000000
00000000
,
00010000
10000000
01000000
00010000
00001000
00000001
00001000
00010000
,
01000000
10000000
00010000
01000000
00001000
00000100
00000010
00010000
,
00100000
10000000
01000000
00010000
00001000
00000100
00000001
00000010
,
00001000
00010000
10000000
01000000
00010000
00000100
00000001
00001000
,
00010000
00100000
00001000
00000010
00000001
00001000
00000001
00000100
,
00000010
00001000
00000100
00010000
01000000
10000000
00010000
10000000
,
00010000
01000000
00010000
10000000
01000000
00000000
00000000
00000000
00000000
00000000
00000000
00000000
00100000
00000000
00000000
00000000
,
00010000
01000000
00001000
00010000
,
01000000
10000000
00100000
00010000
,
00001000
00010000
00000100
00000010
,
00000001
00000100
00000000
00000110
,
00000000
00010100
00000000
00101000
,
00000000
00010100
00000000
00101000
,
00000000
00000010
00000100
00001000
,
00010000
00100000
10000000
01000000
,
00100000
00001000
01000000
00100000
,
00010000
00001000
01000000
10000000
,
01000000
01100000
00000000
00011000
,
00000000
00000110
00000000
00001001
,
00000000
00000100
00000001
00000100
,
00000010
00010000
00001000
00000100
,
00001000
00010000
00000010
00000001
,
00000010
00001000
00000001
00000110
,
00000000
00001001
00000000
00010100
,
00000000
00101000
00000000
00010100
,
00000000
00101000
00000000
00010000
,
00001000
00000100
00000010
00010000
,
00001000
00011000
00000000
01001000
,
00000000
01100000
00000000
00010000
,
00100000
00010000
01000000
00001000
,
00000100
00000010
00000000
00000001
,
00001000
00000000
00000010
00010000
00001000
00010000
00000100
00000000
,
00001000
00000010
00010000
00001000
,
00010000
00100000
10000000
01000000
,
00100000
00000000
00001000
01000000
00010000
01000000
00100000
00000000
,
01000000
00000000
00001000
00010000
00001000
00100000
00010000
00000000
,
01000000
00000000
00001000
00000000
00010000
00000100
00001000
00000100
,
00010000
00001000
00000010
00000001
,
00000010
00000100
00001000
00000001
,
00000100
00000000
00001000
00010000
00000000
00000000
00100000
00000000
,
10000000
00000000
00100000
00000000
00010000
00000000
00001000
00010000
,
00000000
00001000
00000010
00000001
,
00000010
00000100
00000000
00010000
,
00100000
10000000
01000000
00010000
,
00000000
00000010
00000001
00000100
,
00001000
00010000
00000000
01100000
,
00000000
10010000
00000000
00011000
,
00000000
00000011
00000000
00000101
,
00000000
00011000
00000000
01001000
,
00100000
10000000
00100000
01000000
,
00001000
00010000
00001000
00000010
,
00001000
00000011
00000000
00001100
,
00000000
00010100
00000000
00001001
,
00000000
00000110
00000000
00011000
,
00000000
00000000
00100000
01000000
00010000
00100000
10000000
00010000
,
01000000
00100000
00001000
00000010
00000100
00001000
00000001
00000100
,
00000010
00000001
00001000
00000100
00001000
00010000
00100000
01000000
,
00010000
10000000
01000000
00010000
01000000
00100000
00001000
00010000
,
00000010
00000100
00000001
00000100
00001000
00010000
00100000
01000000
,
00010000
10000000
01000000
00100000
10000000
00010000
00100000
01000000
,
00001000
00010000
00000100
00000010
00000001
00001000
00000100
00010000
,
00001000
00100000
00001000
00000010
00001000
00100000
00001000
00000010
,
00001000
00010000
00100000
00000000
00010000
00000000
00001000
00000000
,
00010000
00000100
00000010
00000100
,
00010000
00000010
00000001
00000010
,
00010000
00000000
00000100
00001000
00000100
00000000
00000010
00000000
,
00000001
00000100
00000001
00001000
,
00000100
00010000
01000000
00100000
,
00010000
00000000
10000000
00100000
10000000
00000000
00100000
00000000
,
01000000
00010000
00100000
00001000
,
00010000
00001000
00000010
00000001
,
00001000
00000000
00000001
00000100
00000010
00000000
00001000
00000000
,
00000001
00000100
00001000
00010000
,
00100000
10000000
00100000
01000000
,
00010000
00000000
10000000
01000000
10000000
01000000
10000000
01000000
,
00100000
00001000
00100000
00001000
,
00000100
00000000
00000010
00001000
00000010
00001000
00000010
00001000
,
00000100
00000010
00000001
00000010
,
00000001
00000000
00000100
00000010
00000100
00000010
00000100
00000010
,
00001000
00000100
00010000
00001000
,
00100000
00000000
00010000
01000000
00010000
01000000
00010000
01000000
,
00100000
10000000
00010000
10000000
,
00010000
00000000
00100000
01000000
10000000
00010000
00100000
00001000
,
00010000
00001000
00000100
00001000
,
00000100
00000000
00000001
00001000
00000001
00000100
00000010
00001000
,
00000100
00000000
00010000
00001000
01000000
00010000
00100000
01000000
,
00010000
00002000
00020000
00033000
00000000
00000000
00000000
00000000
,
00000000
00000000
00000000
00000000
;

//---------------dance-double - ----------------
#NOTES:
     dance-double:
     :
     Challenge:
     17:
     :
00000000
00000000
00000000
00000000
,
00000000
00000000
00000000
00000000
,
00000000
00000000
00000000
00000000
,
00000011
00000001
00000010
00000001
00000100
00001000
00000100
00001000
,
00010000
01000000
00010000
01000000
10000000
10020000
00130000
00000000
,
01000000
10000000
00100000
01000000
,
00001000
00010000
00100000
10000000
,
01000000
10000000
01000000
10000000
00100000
01000000
00100000
01000000
,
00001000
00010000
00001000
00010000
00000100
00000010
00000100
00000000
,
00000010
00000001
00000100
00000001
,
00000010
00000100
00010000
00001000
,
00010000
00000100
00010000
00001000
,
01000000
00001000
00010000
00001000
,
00100000
01000000
10000000
01000000
,
00100000
00010000
01000000
00100000
,
01000000
00010000
10000000
01000000
,
00100000
00000000
01000000
00000000
10000000
00000000
00100000
10000000
,
00100000
00000000
01000000
00000000
00001000
00000000
00100000
00001000
,
00100000
00000000
00010000
00000000
01000000
00000000
00001000
00010000
,
00001000
00000000
00000010
00000000
00000001
00000000
00000100
00000010
,
00000100
00000001
00000010
00000100
,
00010000
01000000
00010000
00000100
,
00000010
00000001
00000100
00010000
,
01000000
00000000
00010000
00000000
00000100
00000000
00000001
00000010
,
00000100
00001000
00000001
00000010
00000100
00010000
00001000
00100000
,
00010000
00100000
00001000
01000000
00010000
01000000
00001000
00000000
,
00010000
00000100
00000001
00000100
00010000
00000000
00000010
00001000
,
00000010
00010000
00000100
00001000
00000100
00010000
00001000
00000000
,
01000000
10000000
01000000
00010000
00100000
00000000
01000000
10000000
,
01000000
00100000
00001000
00010000
00100000
00010000
00001000
00100000
,
00001000
01000000
00001000
00010000
00001000
00000100
00000001
00000010
,
00000100
00010000
00001000
00000100
00001000
00100000
00010000
00000000
,
10000000
00000000
01000000
00000000
00100000
00001000
00010000
00000010
,
00001000
00000010
00010000
00001000
00100000
00010000
10000000
01000000
,
10000000
00010000
00001000
00010000
00001000
00000001
00000100
00001000
,
00010000
00010000
01000000
01000000
10000000
00100000
00001000
00000100
,
00000001
00000010
00001000
00010000
00001000
00000100
00001000
00100000
,
01000000
10000000
00010000
00100000
01000000
00001000
00000100
00000100
,
00000010
00000001
00000001
00001000
00010000
00100000
10000000
01000000
,
00010000
00000010
00000100
00001000
00100000
01000000
00010000
00000100
,
00001000
00000010
00000100
00000010
00000100
00000000
00000001
00000000
,
00000010
00001000
00010000
00000100
,
00000001
00000100
00001000
00000001
,
00000010
00000100
00010000
00001000
,
00000010
00000000
00000001
00000000
00000100
00000000
00001000
00010000
,
00000000
00000000
00100000
10000000
00000000
00000000
01000000
00010000
,
00000000
00000000
00001000
00000010
00000000
00000000
00000001
00000100
,
00000000
00000000
00001000
00010000
00001000
00000000
00100000
00000000
,
10000000
00100000
01000000
10000000
,
00100000
01000000
10000000
01000000
,
00001000
00010000
01000000
10000000
,
01000000
00000000
00010000
00001000
00000000
00000000
00000100
00000001
,
00000000
00000000
00000010
00001000
00000000
00000000
00010000
00100000
,
00000000
00000000
10000000
01000000
10000000
00000000
00100000
00000000
,
01000000
00001000
00010000
00100000
,
10000000
01000000
00001000
00000100
,
00000010
00000000
00000001
00000000
00000100
00000000
00001000
00010000
,
00000000
00000000
00010000
00000100
00000000
00000000
00000100
00000010
,
00000000
00000000
00000010
00000001
00000000
00000000
00000001
00000100
,
00000000
00000000
00000100
00000010
00000100
00000000
00000001
00000000
,
00001000
00000100
00010000
00001000
,
01000000
00000000
00100000
10000000
00000000
00000000
10000000
00010000
,
00000000
00000000
00010000
00100000
00010000
00000000
10000000
00000000
,
01000000
00100000
00001000
00010000
,
00100000
00000000
10000000
01000000
00000000
00000000
01000000
00100000
,
00000000
00101000
00000000
00010010
,
00000010
00001000
00000100
00010000
,
00001000
00000000
00000010
00000001
00000000
00000000
00000001
00001000
,
00000000
00001100
00000000
00010100
,
00000000
01001000
00000000
01010000
,
01000000
00000000
00010000
10000000
00000000
00000000
10000000
01000000
,
00000000
00100000
00001000
00010000
,
00100000
00000000
10000000
01000000
00000000
00000000
01000000
00010000
,
00000000
00000000
00010000
00001000
00000000
00000000
00001000
00000100
,
00000000
00000000
00000100
00000001
00000000
00000000
00000001
00000010
,
00000000
00000010
00000100
00010000
,
00000010
00000000
00000100
00000001
00000100
00000000
00000001
00001000
,
00000001
00000000
00000010
00000000
00000100
00000000
00010000
00001000
,
00010000
00000000
00001000
01000000
00001000
00000000
00100000
00000000
,
01000000
10100000
00000000
01001000
,
00000000
00010100
00000000
00000011
,
00000000
00000101
00000000
00010010
,
00000000
00101000
00000000
11000000
,
00000000
10010000
00000000
01100000
,
00000000
00011000
00000000
00011000
,
00000000
00000110
00000000
00001001
,
00000000
00000000
00000001
00000100
00001000
00000000
00000100
00001000
,
00010000
00000000
00001000
00010000
01000000
00000000
00010000
01000000
,
10000000
00000000
00010000
01000000
00001000
00010000
00000100
00010000
,
01000000
00100000
10000000
00100000
00001000
00000010
00000100
00010000
,
01000000
00100000
00001000
00010000
00000010
00000100
00000010
00010000
,
00001000
00100000
01000000
00100000
00001000
00010000
00000100
00000010
,
00001000
00000001
00000100
00000010
00000001
00001000
00000100
00010000
,
01000000
00100000
00001000
00100000
10000000
00100000
00001000
00000010
,
00000100
00010000
01000000
00100000
00001000
00010000
00000010
00000100
,
00000001
00000100
00001000
00010000
00100000
01000000
10000000
01000000
,
00100000
00010000
00001000
00000000
00100000
00000000
01000000
00000000
,
10000000
00010000
00100000
10000000
,
01000000
00010000
00001000
00100000
,
01000000
10000000
00010000
00100000
,
00001000
00000010
00010000
00100000
,
00001000
00010000
00000100
00010000
,
00001000
00000010
00000001
00000100
,
00001000
01000000
00001000
00100000
,
00010000
00100000
00001000
00010000
,
01000000
10000000
00100000
01000000
,
00001000
00100000
01000000
00010000
,
01000000
10000000
00010000
00100000
,
10000000
00100000
00001000
00010000
,
00001000
00000010
00000001
00000100
,
00000010
00010000
00000010
00001000
,
00000100
00000010
00000001
00001000
,
00000010
00010000
00001000
00100000
,
01000000
00000000
10000000
00010000
01000000
00000000
00100000
00000000
,
10000000
01000000
00010000
00001000
,
00000100
00000000
00000001
00001000
00000010
00000000
00010000
00000000
,
00000010
00000100
00000001
00000010
,
00000100
00000000
00010000
00001000
01000000
00000000
00010000
00000000
,
10000000
00000000
01000000
00100000
00001000
00000000
00010000
00000000
,
00000010
00000000
00000100
00000001
00000010
00000001
00001000
00000100
,
00010000
00000000
00022000
00033000
00000000
00000000
00000000
00000000
,
00000000
00000000
00000000
00000000
;
