
//----- song ID: fjus -----//
#TITLE:FEELS JUST LIKE IT SHOULD;
#ARTIST:LH MUSIC CREATION;
#BANNER:FEELS JUST LIKE IT SHOULD.png;
#BACKGROUND:FEELS JUST LIKE IT SHOULD-bg.png;
#CDTITLE:./CDTITLES/Dancing Stage SuperNOVA.png;
#MUSIC:FEELS JUST LIKE IT SHOULD.ogg;
#SAMPLESTART:55.19;
#SAMPLELENGTH:15;
#BPMS:0=87;

//---------------dance-single - ----------------
#NOTES:
     dance-single:
     :
     Beginner:
     3:
     :
0000
0000
0000
0000
,
0000
0000
0000
0000
,
0000
0000
0000
0000
,
0000
0000
0000
0000
,
0000
0000
0000
0000
,
1000
1000
0000
0001
,
0000
0100
0000
0000
,
1000
1000
0000
0010
,
0000
1000
0000
0000
,
0001
0001
0000
1000
,
0000
0100
0000
0000
,
0100
0100
0000
0010
,
0000
0001
0000
0000
,
1000
1000
0000
0001
,
0000
0010
0000
0000
,
0100
0100
0000
0001
,
0000
1000
0000
0000
,
1000
1000
0000
0001
,
0000
0010
0000
0000
,
0100
0000
0000
0000
,
0010
0000
1000
0000
,
0100
0000
0001
0000
,
0001
0000
0001
0000
,
0100
0000
0010
0000
,
0001
0000
0100
0000
,
1000
0000
1000
0000
,
0100
0000
0001
0000
,
0010
0000
0001
0000
,
1000
1000
0000
0010
,
0000
0001
0000
0000
,
0100
0100
0000
0010
,
0000
1000
0000
0000
,
0010
0010
0000
1000
,
0000
1000
0000
0000
,
1000
1000
0000
0001
,
0000
0010
0000
0001
,
0000
0000
0000
0000
;

//---------------dance-single - ----------------
#NOTES:
     dance-single:
     :
     Easy:
     4:
     :
0000
0000
0000
0000
,
0000
0000
0000
0000
,
0000
0000
0000
0000
,
0000
0000
0000
0000
,
0000
0000
0000
0000
,
1000
1000
0001
0001
,
0010
0100
0010
0000
,
1000
1000
0010
0010
,
0001
1000
0010
0000
,
0001
0001
1000
1000
,
0001
0100
1000
0000
,
0100
0100
0010
0010
,
0100
0001
0010
0000
,
1000
1000
0001
0001
,
0100
0010
1000
0000
,
0100
0100
0001
0001
,
0010
1000
0100
0000
,
1000
1000
0001
0001
,
1000
0010
1000
0000
,
0200
0000
0000
0300
,
0010
0001
1000
0010
,
0100
0010
0001
0010
,
0001
0100
0001
0010
,
0100
1000
0010
0000
,
0001
0010
0100
0001
,
1000
0100
1000
0010
,
0100
0010
0001
1000
,
0010
1000
0001
0000
,
1000
1000
0010
0010
,
1000
0001
1000
0000
,
0100
0100
0010
0010
,
0001
1000
0001
0000
,
0010
0010
1000
1000
,
0100
1000
0100
0000
,
1000
1000
0001
0001
,
0100
0000
0010
0000
1000
0000
0001
1000
,
0000
0000
0000
0000
;

//---------------dance-single - ----------------
#NOTES:
     dance-single:
     :
     Medium:
     6:
     :
0000
0000
0000
0000
,
0000
0000
0000
0000
,
0000
0000
0000
0000
,
0000
0000
0000
0000
,
0000
0000
0000
0000
,
1000
0000
0100
0000
0001
0010
0001
0000
,
0100
0000
0001
0000
0100
0010
0001
0000
,
1000
0000
0100
0000
0001
1000
0100
0000
,
1000
0000
0100
0000
1000
0010
0001
0000
,
0100
0000
0001
0000
0010
1000
0100
0000
,
0001
0000
0010
0000
0001
1000
0010
0000
,
0100
0000
0001
0000
0010
1000
0100
0000
,
0010
0001
1000
0000
0100
0010
0001
0000
,
1000
0000
0001
0000
0100
1000
0010
0000
,
0100
0001
0010
0000
1000
0000
1001
0000
,
0010
0000
1000
0000
0001
0100
1000
0000
,
0001
0100
0001
0000
0010
1000
0100
0000
,
1000
0000
0010
0000
0001
1000
0010
0000
,
1000
0100
0010
0000
1000
0000
0100
0000
,
1002
0010
0100
1003
,
0100
0010
0001
0000
1000
0000
0100
0000
,
0010
1000
0100
0000
0001
0000
0100
0000
,
0001
1000
0010
0000
0001
0000
0100
0000
,
0010
0100
1000
0000
0100
0000
0001
0000
,
0010
0000
0100
0000
0010
1000
0001
0000
,
1000
0100
0010
0000
1000
0000
0100
0000
,
0010
0000
0100
0000
0001
0010
1000
0000
,
0100
0010
1000
0000
0100
0000
0001
0000
,
1000
0000
0001
0000
0010
1000
0100
0000
,
1000
0000
0001
0000
1000
0010
0001
0000
,
0100
0000
0001
0000
0100
1000
0010
0000
,
0001
0000
1000
0000
0001
1000
0010
0000
,
0100
0000
0001
0000
0010
1000
0100
0000
,
0010
0000
1000
0000
0010
0100
0001
0000
,
1000
0000
0001
0000
0100
1000
0010
0000
,
0001
0000
0010
0000
1000
0100
0001
0010
,
0000
0000
0000
0000
;

//---------------dance-single - ----------------
#NOTES:
     dance-single:
     :
     Hard:
     10:
     :
0000
0000
0000
0000
,
0000
0000
0000
0000
,
0000
0000
0000
0000
,
0000
0000
0000
0000
,
0000
0000
0000
0000
,
0001
0000
0000
0000
0100
0000
0000
0010
1000
0000
0100
0000
1000
0000
0000
0000
,
0010
0000
0100
0000
0001
0100
1000
0000
,
0001
0000
0000
0000
0100
0000
0000
0010
0100
0000
0001
0000
0010
0000
0000
0000
,
0001
0000
1000
0000
0010
0000
0000
0100
0001
0000
0100
0000
1000
0000
0000
0000
,
0010
0000
0000
0000
1000
0000
0000
0100
0010
0000
0001
0000
0010
0000
0000
0000
,
1000
0000
0010
0000
0100
0000
0000
0010
1000
0000
0001
0000
0100
0000
0000
0000
,
0010
0000
0000
0000
0100
0000
0000
1000
0100
0000
0001
0000
0010
0000
0000
0000
,
0100
0000
1000
0000
0001
0000
0000
0100
0010
0000
0100
0000
1000
0000
0000
0000
,
0001
0000
0000
0000
1000
0000
0000
0100
0010
0000
0001
0000
0100
0000
0000
0000
,
0010
0000
1000
0000
0100
0000
0000
0010
0001
0000
1000
0000
0001
0000
0000
0000
,
0100
0000
0000
0000
0001
0000
0000
0010
1000
0000
0010
0000
0001
0000
0000
0000
,
1000
0000
0010
0000
1000
0000
0000
0010
0100
0000
0001
0000
0010
0000
0000
0000
,
0001
0000
0000
0000
0100
0000
0000
0010
1000
0000
0001
0000
0100
0000
0000
0000
,
0001
0000
0010
0000
0100
0000
0000
0010
0000
0001
1000
0010
1000
0000
0000
0000
,
0100
0000
0001
0000
0010
1000
0100
0000
,
0020
0000
0000
0000
1030
0000
0000
0001
0000
0000
0100
0000
0010
0000
0000
0000
,
0100
0000
1000
0000
0001
0000
0000
1000
0000
0001
0100
0001
0010
0000
0000
0000
,
0200
0000
0000
0000
0301
0000
0000
1000
0000
0000
0100
0000
0001
0000
0000
0000
,
0010
0000
0100
0000
0001
0000
0000
1000
0000
0010
0100
0010
1000
0000
0000
0000
,
0200
0000
0000
0000
1300
0000
0000
0010
0000
0000
0001
0000
1000
0000
0000
0000
,
0001
0000
0010
0000
0100
0000
0000
1000
0000
0001
0010
0001
1000
0000
0000
0000
,
0020
0000
0000
0000
0130
0000
0000
1000
0000
0000
0100
0000
0001
0000
0000
0000
,
0010
0000
0100
0000
0001
0000
0000
0010
0000
0100
1000
0001
0100
0000
0010
0000
,
0001
0000
0000
0000
0100
0000
0000
0010
0100
0000
0001
0000
0010
0000
0000
0000
,
0001
0000
1000
0000
0100
0000
0000
0010
0001
0000
0100
0000
1000
0000
0000
0000
,
0010
0000
0000
0000
1000
0000
0000
0100
0010
0000
0001
0000
0100
0000
0000
0000
,
1000
0000
0001
0000
0010
0000
0000
0100
1000
0000
0001
0000
0100
0000
0000
0000
,
0010
0000
0000
0000
0100
0000
0000
1000
0100
0000
0001
0000
0010
0000
0000
0000
,
0100
0000
1000
0000
0001
0000
0000
0010
0100
0000
0010
0000
1000
0000
0000
0000
,
0001
0000
0000
0000
1000
0000
0000
0100
0010
0000
0001
0000
0100
0000
0000
0000
,
0010
0000
1000
0000
0100
0000
0000
0010
0001
0000
1000
0000
0010
0000
0100
0000
,
0000
0000
0000
0000
;

//---------------dance-double - ----------------
#NOTES:
     dance-double:
     :
     Easy:
     4:
     :
00000000
00000000
00000000
00000000
,
00000000
00000000
00000000
00000000
,
00000000
00000000
00000000
00000000
,
00000000
00000000
00000000
00000000
,
00000000
00000000
00000000
00000000
,
00010000
00010000
10000000
00000000
,
00100000
00100000
01000000
00000000
,
00010000
00010000
00100000
00000000
,
10000000
01000000
00010000
00000000
,
01000000
01000000
00010000
00000000
,
00100000
10000000
01000000
00000000
,
00010000
00010000
00001000
00000000
,
00001000
00000010
00001000
00000000
,
00000001
00000001
00001000
00000000
,
00000100
00000001
00000010
00000000
,
00000100
00000100
00001000
00000000
,
00000010
00000001
00000100
00000000
,
00001000
00001000
00010000
00000000
,
00010000
01000000
00100000
00000000
,
02000000
00000000
00000000
03000000
,
00100000
10000000
00010000
00000000
,
01000000
00100000
10000000
00100000
,
10000000
10000000
01000000
00000000
,
01000000
00010000
00100000
01000000
,
10000000
10000000
01000000
00000000
,
00010000
00001000
00010000
00001000
,
00000010
00000001
00001000
00000000
,
00000010
00001000
00000100
00000001
,
00000010
00000010
00000001
00000000
,
00000001
00001000
00000001
00000000
,
00000100
00000100
00000010
00000000
,
00001000
00000001
00001000
00000000
,
00000100
00000100
00010000
00000000
,
00001000
00010000
00001000
00000000
,
00010000
00010000
00100000
00000000
,
01000000
00100000
00010000
10000000
,
00000000
00000000
00000000
00000000
;

//---------------dance-double - ----------------
#NOTES:
     dance-double:
     :
     Medium:
     6:
     :
00000000
00000000
00000000
00000000
,
00000000
00000000
00000000
00000000
,
00000000
00000000
00000000
00000000
,
00000000
00000000
00000000
00000000
,
00000000
00000000
00000000
00000000
,
00000001
00001010
00000100
00001001
,
00000100
00000000
00001000
00000000
00010000
00001000
00010000
00000000
,
01000000
01100000
10000000
00110000
,
10000000
00000000
00100000
00000000
10000000
01000000
10000000
00000000
,
00100000
10010000
01000000
00110000
,
10000000
00000000
00100000
00000000
10000000
01000000
00010000
00000000
,
00001000
00001010
00000100
00000011
,
00000100
00000000
00000001
00000000
00000010
00000100
00000010
00000000
,
00000001
00001100
00000010
00000101
,
00000010
00000000
00000100
00000000
00000001
00001000
00000001
00000000
,
00000100
00000011
00001000
00011000
,
00010000
00000000
01000000
00000000
00100000
00010000
00100000
00000000
,
00010000
11000000
10000000
01010000
,
00100000
00000000
01000000
00000000
10000000
00100000
10000000
00000000
,
20020000
00000000
00000000
30030000
,
00100000
01000000
10000000
00000000
00010000
00000000
00100000
00000000
,
00001000
00010000
00001000
00000010
,
00000100
00001000
00000010
00000000
00001000
00000000
00000001
00000000
,
00000010
00001000
00010000
00001000
,
00001000
00010000
00100000
00000000
10000000
00000000
01000000
00000000
,
00010000
01000000
10000000
00100000
,
00010000
01000000
00100000
00000000
10000000
00000000
00100000
00000000
,
00010000
01000000
10000000
01000000
,
00010000
00011000
00000100
00000110
,
00000001
00000000
00001000
00000000
00000001
00000100
00000001
00000000
,
00000010
00001010
00000100
00000101
,
00001000
00000000
00000010
00000000
00001000
00000001
00001000
00000000
,
00000010
00000101
00001000
00011000
,
01000000
00000000
00010000
00000000
01000000
00100000
01000000
00000000
,
00010000
11000000
00100000
01010000
,
10000000
00000000
01000000
00000000
00010000
10000000
00010000
01000000
,
00000000
00000000
00000000
00000000
;

//---------------dance-double - ----------------
#NOTES:
     dance-double:
     :
     Hard:
     8:
     :
00000000
00000000
00000000
00000000
,
00000000
00000000
00000000
00000000
,
00000000
00000000
00000000
00000000
,
00000000
00000000
00000000
00000000
,
00000000
00000000
00000000
00000000
,
00001000
00000000
00000010
00000000
00000001
00001000
00000001
00000000
,
00000100
00000000
00000010
00000000
00001000
00000010
00000001
00000000
,
00001000
00000000
00001000
00000000
00000010
00000000
00000000
00000001
00000000
00000000
00000100
00000000
00001000
00000000
00000000
00000000
,
00010000
00000000
00010000
00000000
01000000
00000000
00000000
00100000
00000000
00000000
00010000
00000000
10000000
00000000
00000000
00000000
,
01000000
00000000
01000000
00000000
00010000
00000000
00000000
00100000
00000000
00000000
10000000
00000000
01000000
00000000
00000000
00000000
,
00010000
00000000
00010000
00000000
00100000
00000000
00000000
01000000
00000000
00000000
10000000
00000000
00100000
00000000
00000000
00000000
,
00010000
00000000
00010000
00000000
00001000
00000000
00000000
00010000
00000000
00000000
00100000
00000000
00010000
00000000
00000000
00000000
,
00001000
00000000
00001000
00000000
00000010
00000000
00000000
00000001
00000000
00000000
00001000
00000000
00000010
00000000
00000000
00000000
,
00001000
00000000
00001000
00000000
00000001
00000000
00000000
00000010
00000000
00000000
00000100
00000000
00001000
00000000
00000000
00000000
,
00000010
00000000
00000010
00000000
00010000
00000000
00000000
00001000
00000000
00000000
00000100
00000000
00000010
00000000
00000000
00000000
,
00001000
00000000
00001000
00000000
00010000
00000000
00000000
00100000
00000000
00000000
00010000
00000000
01000000
00000000
00000000
00000000
,
10000000
00000000
10000000
00000000
00010000
00000000
00000000
01000000
00000000
00000000
10000000
00000000
01000000
00000000
00000000
00000000
,
10000000
00000000
10000000
00000000
00100000
00000000
00000000
01000000
00000000
00000000
00010000
00000000
00100000
00000000
00000000
00000000
,
01000000
00000000
01000000
00000000
00010000
00000000
00000000
00001000
00000000
00000000
00000100
00000000
00001000
00000000
00000000
00000000
,
00002001
00000010
00000100
00003001
,
00000100
00000000
00000100
00000000
00001100
00000000
00000000
00010000
00000000
00000000
00000010
00000000
00000100
00000000
00000000
00000000
,
00000001
00000000
00000001
00000000
00001001
00000000
00000000
00000100
00000000
00000000
00000010
00000000
00000100
00000000
00000000
00000000
,
00001000
00000000
00001000
00000000
00011000
00000000
00000000
00010000
00000000
00000000
00100000
00000000
10000000
00000000
00000000
00000000
,
01000000
00000000
01000000
00000000
11000000
00000000
00000000
00010000
00000000
00000000
01000000
00000000
00010000
00000000
00000000
00000000
,
00100000
00000000
00100000
00000000
00110000
00000000
00000000
01000000
00000000
00000000
10000000
00000000
00010000
00000000
00000000
00000000
,
00100000
00000000
00100000
00000000
00101000
00000000
00000000
00010000
00000000
00000000
00001000
00000000
00000100
00000000
00000000
00000000
,
00000010
00000000
00000010
00000000
00000110
00000000
00000000
00000001
00000000
00000000
00000010
00000000
00001000
00000000
00000000
00000000
,
00000100
00000000
00000100
00000000
00001100
00000000
00000000
00000010
00000000
00000000
00000001
00000000
00000010
00000000
00000000
00000000
,
00000100
00001001
00011000
10010000
,
00100000
00000000
01000000
00000000
00010000
10000000
00100000
00000000
,
01000000
10000000
01000000
00000000
00010000
00001000
00000100
00000000
,
00000001
00000000
00000100
00000000
00001000
01000000
00100000
00000000
,
01000000
10010000
00011000
00001001
,
00000010
00000000
00001000
00000000
00000010
00000100
00000001
00000000
,
00001000
00010000
01000000
00000000
10000000
01000000
00010000
00000000
,
00001000
00000000
00000100
00000000
00000010
00001000
00000100
00011000
,
00000000
00000000
00000000
00000000
;
