#TITLE:SAY IT AGAIN;
#ARTIST:NAOKI feat. DDT;
#BANNER:SAY IT AGAIN (Ver.2).png;
#BACKGROUND:SAY IT AGAIN (Ver.2)-bg.png;
#CDTITLE:./CDTITLES/DanceDanceRevolution S.png;
#MUSIC:SAY IT AGAIN (Ver.2).ogg;
#OFFSET:-0.019;
#SAMPLESTART:42.419;
#SAMPLELENGTH:15;
#BPMS:0=150;

//---------------dance-single - ----------------
#NOTES:
     dance-single:
     :
     Beginner:
     3:
     :
0000
0000
0000
0000
,
0000
0000
0000
0000
,
0000
0000
0000
0000
,
0100
0000
0100
0000
,
0010
0000
0010
0000
,
0100
0000
0010
0000
,
0100
0000
0010
0000
,
0001
0000
1000
0000
,
0001
0000
0001
0000
,
0001
0000
0010
0000
,
1000
0000
1001
0000
,
0001
0000
0010
0000
,
1000
0000
1000
0000
,
0010
0000
0010
0000
,
0100
0000
0100
0000
,
0010
0000
0010
0000
,
0100
0000
1000
0000
,
0001
0000
0001
0000
,
0001
0000
0000
0000
,
1000
0000
1000
0000
,
1000
0000
0000
0000
,
0001
0000
0000
0000
,
1000
0000
0000
0000
,
0001
0000
0000
0000
,
1001
0000
0000
0000
,
0001
0000
0010
0000
,
1001
0000
1000
0000
,
0001
0001
0001
0000
,
1000
1000
1000
0000
,
0010
0000
0010
0000
,
0100
0000
0100
0000
,
0010
0000
0000
0000
,
0100
0000
0000
0000
,
1001
0000
0000
0000
,
1001
0000
0000
0000
,
1000
1000
0100
0000
,
0001
0001
0010
0000
,
1001
0000
0000
0000
,
1000
0000
0000
0000
,
0100
0000
0000
0000
,
0100
0000
0000
0000
,
0010
0000
0000
0000
,
0001
0000
0000
0000
,
0100
0000
0000
0000
,
0100
0000
0000
0000
,
0110
0000
0000
0000
,
0001
0000
1000
0000
,
1001
0000
1000
0000
,
0100
0000
1001
0000
,
0010
0000
0000
0000
,
0010
0000
0000
0000
,
0100
0000
0100
0000
,
0010
0010
0010
0000
,
0001
0000
0100
0000
,
1000
1000
1000
0000
,
1001
0000
0000
0000
,
1001
0000
0000
0000
,
1001
0000
0000
0000
,
0110
0000
0000
0000
,
0001
0000
0010
0000
,
1000
0000
0100
0000
,
0001
0000
0010
0000
,
2000
0000
0000
0000
,
3000
0000
0000
0000
;

//---------------dance-single - ----------------
#NOTES:
     dance-single:
     :
     Easy:
     5:
     :
0000
0000
0000
0000
,
0000
0000
0000
0000
,
0000
0000
0000
0000
,
1000
0000
0100
0000
,
0001
0000
0010
0000
,
1000
0000
0001
0000
,
1000
1000
0001
0000
,
1000
0000
0100
0000
,
0001
0000
0010
0000
,
1000
1000
0001
0000
,
1000
1000
1001
0000
,
1000
0000
0100
0000
,
0001
0010
0010
0000
,
1001
1000
1001
0000
,
1001
0000
0001
0000
,
1000
1000
0100
0000
,
0001
0001
0010
0000
,
1001
0000
0110
0000
,
0110
0000
1001
0000
,
1000
1000
1100
0000
,
0001
0001
0011
0000
,
1000
0100
1001
0000
,
0001
0010
1001
0000
,
0110
1000
0110
0000
,
1001
0010
1001
0000
,
1000
0100
0010
0001
,
2000
0000
3000
0000
,
0100
0100
0110
0000
,
0001
0001
0011
0000
,
1000
0100
0001
0010
,
0001
0001
1000
0000
,
1000
0100
0010
0001
,
1000
0100
0011
0000
,
1000
0100
0001
0010
,
1000
0100
1001
0000
,
0100
0100
1100
0000
,
0010
0010
0011
0000
,
0020
0000
0000
0000
,
0000
0000
0030
0000
,
1000
1000
0100
0000
,
0001
0001
0010
0000
,
1000
1000
0100
0100
,
0001
0001
0110
0000
,
1000
0100
0001
0010
,
0001
0010
1000
0100
,
0010
0010
0010
0100
,
0100
0100
0110
0000
,
2000
0000
3000
0000
,
0002
0000
0003
0000
,
1000
1000
0100
0100
,
0001
0001
0010
0010
,
1000
1000
0100
0000
,
0001
0001
0010
0000
,
1000
0100
0001
0010
,
1000
0100
0001
0000
,
1001
0000
1001
0000
,
0110
0000
0110
0000
,
1000
1000
1100
0000
,
0001
0001
0011
0000
,
0100
0100
0101
0000
,
0010
0010
1010
0000
,
1001
0000
1001
0000
,
2002
0000
0000
0000
,
3003
0000
0000
0000
;

//---------------dance-single - ----------------
#NOTES:
     dance-single:
     :
     Medium:
     7:
     :
0000
0000
0000
0000
,
0000
0000
0000
0000
,
0000
0000
0000
0000
,
1100
0000
1000
0000
1000
0100
0010
0000
,
0011
0000
0001
0000
0001
0010
0100
0000
,
1001
1000
0110
0010
,
0110
0001
1001
0010
,
1100
1000
0011
0001
,
0110
0001
0001
1000
,
1001
0000
0100
0000
1000
0100
0010
1000
,
0100
0110
1001
0100
,
1000
0001
1000
0100
0010
0100
1000
0000
,
0001
0010
0001
0100
0001
1000
0001
0000
,
1001
0110
1001
0110
,
1001
0000
1001
0000
0100
0010
1000
0000
,
1000
1000
1000
0010
0100
0001
0010
0000
,
0001
0001
0001
0100
0010
1000
0100
0000
,
1100
0100
0011
0010
,
1100
0000
0100
0000
0001
1000
0001
0000
,
1000
0001
1000
0100
1000
0010
1000
0000
,
0001
0010
0001
0100
0010
1000
0001
0000
,
1100
0100
0011
0010
,
0011
0001
0010
0100
,
1001
1000
0001
1000
,
0011
0001
1100
1000
,
1100
1000
0010
0100
,
2002
0000
3003
0000
,
1000
0100
1000
0100
1000
0010
0100
0000
,
0001
0100
0001
0100
0010
1000
0100
0000
,
1100
1000
0011
0001
,
1010
1000
0101
0001
,
1000
1000
0001
0100
0001
0001
1000
0000
,
1000
1000
0001
0010
0001
0001
1000
0000
,
1001
0100
1001
0010
,
1001
0110
1001
0011
,
1100
0100
0011
0001
,
1000
0100
1000
0100
1000
0100
0001
0000
,
0220
0300
2000
3000
,
0200
0300
2030
3000
,
1100
1000
0011
0001
,
1010
0100
0101
0001
,
1000
0100
1000
0000
0001
0100
0001
0000
,
0100
1000
0100
0000
0010
0001
0010
0000
,
1001
0100
1001
0010
,
0110
0100
0110
0010
,
1001
0010
1001
0100
,
0101
0001
1100
0000
,
2000
0000
0200
0300
,
0020
0030
0002
3003
,
1100
1000
0011
0010
,
0010
0000
0010
0000
0101
0010
0001
0000
,
1100
1000
0011
0001
,
1100
0100
0011
1000
,
1001
0010
0110
0100
,
1010
0000
0100
0000
1001
0010
0100
0000
,
1000
0001
0100
0000
1000
0010
0001
0000
,
0001
1000
0100
0000
0001
0010
0100
0000
,
1010
0010
0101
0100
,
1100
0100
0011
0010
,
1000
1000
0100
0000
0001
0001
0010
0000
,
1000
1000
0100
0000
0001
0001
0001
0000
,
1001
0010
0110
0010
,
0102
1000
0100
1000
,
0103
0000
0000
0000
;

//---------------dance-single - ----------------
#NOTES:
     dance-single:
     :
     Hard:
     12:
     :
0000
0000
0000
0000
,
0000
0000
0000
0000
,
0000
0000
0000
0000
,
1000
0001
0010
0100
1000
0010
0001
0000
,
0001
0100
0001
1000
0010
1000
0100
0000
,
1001
0000
0000
0100
0010
0000
0000
0000
1001
0000
0000
0010
0100
0000
0000
0000
,
1001
0100
0001
0100
0001
0001
0001
0000
,
1000
0001
1000
0001
1000
0100
0010
0000
,
0001
1000
0001
1000
0010
0001
0100
0000
,
1001
0000
0000
0100
0010
0000
0000
0000
1001
0000
0000
0010
0100
0000
0000
0000
,
1001
0100
0001
0100
0001
0001
0001
0000
,
1000
0100
1000
0010
0100
0001
0100
0000
,
0001
1000
0100
0100
1000
0010
0100
0000
,
1001
0000
0000
0010
0100
0000
0000
0000
1001
0000
0000
0100
0010
0000
0000
0000
,
1000
0100
0010
0001
1100
0000
0011
0000
,
1000
0000
0000
1000
0100
0000
0000
0100
1000
0000
0000
0000
1001
0000
0000
0000
,
0200
0000
0320
0000
1030
0001
1000
0000
,
2000
0000
3001
0010
0002
0000
1003
0100
,
2000
0000
3100
0010
1000
0100
0001
0000
,
1000
1000
0100
0010
0001
0001
0010
0000
,
0001
0001
0010
0100
1000
1000
0100
0000
,
1000
0000
0000
1000
0001
0000
0000
0001
0010
0000
0000
0010
0100
0000
0000
0000
,
1001
0000
0100
0000
0101
0001
1010
0000
,
2002
0000
3003
0000
0100
0010
0100
0000
,
2002
0000
3003
0000
0010
0100
0010
0000
,
1000
1000
0001
0001
0100
0010
0100
0010
,
1000
0000
0100
0000
0100
0000
1000
0000
0001
1000
0001
1000
0001
0000
0000
0000
,
2000
3002
0203
0302
,
1003
0100
0010
0000
0101
0000
1000
0100
,
1001
0000
1001
0000
0110
0100
0110
0000
,
1000
0010
1000
0001
0110
0100
0110
0000
,
1000
0000
0000
1000
0001
0000
0000
0001
0010
0000
0000
0010
0001
0000
0000
0001
,
1000
0000
0000
1000
0100
0000
0000
0100
0010
0000
0000
0000
1001
0000
0000
0000
,
2000
0001
3002
1000
,
2003
0001
3002
1000
,
1003
0100
1000
0000
0001
0010
0001
0000
,
0100
0010
0100
0000
0010
0100
0010
0000
,
2002
3000
0200
0300
,
1000
0000
0100
0000
1000
0100
1003
0000
,
1000
0000
0000
1000
0100
0000
0000
0000
0001
0000
0000
0001
0010
0000
0000
0000
,
0001
0000
0000
0001
0010
0000
0000
0000
1000
0000
0000
1000
0100
0000
0000
0000
,
1000
0000
0000
1000
0001
0000
0000
0001
1000
0000
0000
1000
0001
0000
0000
0000
,
0100
0000
0000
0010
0100
0000
0000
0000
1001
0000
0000
0000
0110
0000
0000
0000
,
0001
0000
0000
0001
0010
0000
0000
0000
1000
0000
0000
1000
0100
0000
0000
0000
,
1000
0000
0000
1000
0100
0000
0000
0000
0001
0000
0000
0001
0010
0000
0000
0000
,
1000
0000
0000
1000
0001
0000
0000
0001
0010
0000
0000
0010
0100
0000
0000
0100
,
1000
1100
2002
3003
,
2020
0000
3030
0000
0220
0000
0330
0000
1001
0000
0000
1001
0000
1001
0000
0000
,
1000
0000
0010
0000
0100
0000
0001
0000
1000
0100
1000
0000
0001
0000
0100
0000
,
0010
0000
0001
0000
0100
0000
1000
0000
0001
0010
0100
0000
1000
0000
0001
0000
,
0100
0000
1000
0000
0010
0000
1000
0000
0010
0100
0010
0100
0001
0000
0000
0000
,
1000
0000
0000
1000
0100
0000
0000
0100
0010
0000
0000
0010
0001
0000
0000
0001
,
1000
0000
0000
1000
0100
0000
0000
0100
0010
0000
0000
0000
0001
0000
0000
0000
,
2000
3002
0203
2300
,
3010
0100
0001
1000
0010
0010
0010
0000
,
0110
1000
0110
0000
1001
0000
1001
0000
,
0110
1000
0110
0000
1001
0000
1001
0000
,
1000
0001
0100
0010
1000
0001
0100
0000
,
0011
0000
1100
0000
0011
0010
1100
0000
,
1000
0000
0100
0000
1000
0000
0100
0000
0010
0100
0001
0000
0010
0000
0100
0000
,
1000
0000
0100
0000
0001
0000
0010
0000
0100
0010
0001
0000
0100
0000
0010
0000
,
2000
3020
0230
0301
,
1000
0000
0100
0000
0010
0000
0100
0000
1000
0001
1000
0001
1000
0000
0000
0000
,
0110
0000
0000
0000
;

//---------------dance-single - ----------------
#NOTES:
     dance-single:
     :
     Challenge:
     6:
     :
0000
0000
0000
0000
,
0000
0000
0000
0000
,
0000
0000
0000
0000
,
1000
1000
0100
0010
,
0001
0001
0010
0100
,
1000
1100
0001
0011
,
1000
1000
0001
0001
,
1000
1000
0100
0010
,
0001
0001
0010
0100
,
1000
1001
0010
0110
,
1000
1001
0100
0110
,
1000
0001
0100
0010
,
0001
1000
0010
0100
,
1001
1001
0110
0110
,
1001
1001
0110
0110
,
1000
1000
0100
0010
,
0001
0001
0010
0100
,
1100
0100
0011
0010
,
0010
0011
0100
1100
,
1000
0001
0001
1000
,
0100
0010
0010
0100
,
1000
0110
0001
0110
,
0100
0100
0010
0010
,
1000
1000
0001
0001
,
0001
0011
1000
1100
,
1000
1100
0010
0100
,
2002
0000
0000
3003
,
0100
0100
0010
0010
,
0001
0001
0010
0010
,
0100
1100
0010
0011
,
1000
1100
0001
0011
,
1000
1000
0100
0100
,
0010
0010
0100
0100
,
1001
0100
0100
1001
,
1000
0110
0001
0110
,
1000
1100
0001
0011
,
1000
1000
0100
0100
,
0020
0000
0000
0000
,
0000
0030
1001
0110
,
1000
1100
0001
0011
,
0100
1001
0010
1001
,
1000
1100
0001
0011
,
1000
1100
0001
0011
,
0100
1001
0010
1001
,
0100
0100
1000
1000
,
0010
0010
0001
0001
,
0010
0011
0010
0011
,
2000
0000
0000
0000
,
0002
0000
3000
0000
,
1000
1000
0100
0103
,
0010
0010
0001
0001
,
1000
1100
0001
0011
,
0100
1100
0010
0011
,
1001
0010
0110
0100
,
1000
1000
0001
0001
,
1000
0110
0001
0110
,
1000
1100
0001
0011
,
0010
0011
0100
1100
,
0010
1010
0100
0101
,
1000
1000
0001
0001
,
0001
1000
0110
0100
,
1000
0110
0010
0000
,
2002
0000
0000
0000
,
3003
0000
0000
0000
;

//---------------dance-double - ----------------
#NOTES:
     dance-double:
     :
     Beginner:
     2:
     :
00000000
00000000
00000000
00000000
,
00000000
00000000
00000000
00000000
,
00000000
00000000
00000000
00000000
,
10000000
00000000
10000000
00000000
,
10000000
00000000
10000000
00000000
,
10000000
00000000
10000000
00000000
,
10000000
00000000
10000000
00000000
,
10000000
00000000
10000000
00000000
,
10000000
00000000
10000000
00000000
,
10000000
00000000
10000000
00000000
,
10000000
00000000
10000000
00000000
,
10000000
00000000
10000000
00000000
,
10000000
00000000
10000000
00000000
,
10000000
00000000
10000000
00000000
,
10000000
00000000
10000000
00000000
,
10000000
00000000
10000000
00000000
,
10000000
00000000
10000000
00000000
,
10000000
00000000
10000000
00000000
,
10000000
00000000
10000000
00000000
,
10000000
00000000
10000000
00000000
,
10000000
00000000
10000000
00000000
,
10000000
00000000
10000000
00000000
,
10000000
00000000
10000000
00000000
,
10000000
00000000
10000000
00000000
,
10000000
00000000
10000000
00000000
,
10000000
00000000
10000000
00000000
,
10000000
00000000
10000000
00000000
,
10000000
00000000
10000000
00000000
,
10000000
00000000
10000000
00000000
,
10000000
00000000
10000000
00000000
,
10000000
00000000
10000000
00000000
,
10000000
00000000
10000000
00000000
,
10000000
00000000
10000000
00000000
,
10000000
00000000
10000000
00000000
,
10000000
00000000
10000000
00000000
,
10000000
00000000
10000000
00000000
,
10000000
00000000
10000000
00000000
,
10000000
00000000
10000000
00000000
,
10000000
00000000
10000000
00000000
,
10000000
00000000
10000000
00000000
,
10000000
00000000
10000000
00000000
,
10000000
00000000
10000000
00000000
,
10000000
00000000
10000000
00000000
,
10000000
00000000
10000000
00000000
,
10000000
00000000
10000000
00000000
,
10000000
00000000
10000000
00000000
,
10000000
00000000
10000000
00000000
,
10000000
00000000
10000000
00000000
,
10000000
00000000
10000000
00000000
,
10000000
00000000
10000000
00000000
,
10000000
00000000
10000000
00000000
,
10000000
00000000
10000000
00000000
,
10000000
00000000
10000000
00000000
,
10000000
00000000
10000000
00000000
,
10000000
00000000
10000000
00000000
,
10000000
00000000
10000000
00000000
,
10000000
00000000
10000000
00000000
,
10000000
00000000
10000000
00000000
,
10000000
00000000
10000000
00000000
,
10000000
00000000
10000000
00000000
,
10000000
00000000
10000000
00000000
,
10000000
00000000
10000000
00000000
,
10000000
00000000
10000000
10000000
;

//---------------dance-double - ----------------
#NOTES:
     dance-double:
     :
     Easy:
     6:
     :
00000000
00000000
00000000
00000000
,
00000000
00000000
00000000
00000000
,
00000000
00000000
00000000
00000000
,
00000100
00000000
00001000
00000000
,
00010000
01000000
10000000
00000000
,
00010000
00010000
01000000
01000000
,
10000000
10000000
01000000
01000000
,
00010000
00001000
00000100
00000001
,
00000010
00001000
00010000
00000000
,
00100000
00000000
00001000
00000000
,
00100000
00000000
00001000
00000000
,
00100000
00010000
00001000
00000000
,
00100000
00000000
00001000
00000000
,
00000010
00000010
00010000
00010000
,
00000010
00000000
00010000
00000000
,
00000010
00000010
00010000
00010000
,
00000010
00000001
00000100
00000000
,
00000110
00001000
00010000
00001000
,
00000110
00001000
00010000
00001000
,
00000110
00001000
00010000
01000000
,
10000000
10000000
00010000
00010000
,
01100000
00010000
02000000
03000000
,
01100000
00010000
02000000
03000000
,
01100000
00010000
00001000
00000100
,
00000002
00000000
00000000
00000003
,
00000001
00000001
00000100
00001000
,
00010000
00010000
01000000
10000000
,
01000000
00010000
00001000
00000100
,
00001000
00010000
02000000
03000000
,
10000000
10000000
01000000
00010000
,
00001000
00000100
00000002
00000003
,
00000010
00001000
00010000
00010010
,
00001000
00000100
00000020
00000030
,
00000001
00000000
00000100
00000000
,
00000010
00000000
00000100
00000000
,
00002000
00000000
00000000
00000000
,
00010000
00000000
00010000
00003000
,
00010010
00000000
00001000
00000000
,
00010010
00000000
00001000
00000000
,
00020010
00001000
00000010
00031000
,
00000010
00000001
00000100
00001000
,
00010000
00000000
00000100
00000000
,
00010000
00000000
00000100
00000000
,
00012000
00000100
00010000
00003100
,
00010000
01000000
10000000
00100000
,
10000000
10000000
01000000
00010000
,
00001000
00001000
00000100
00000001
,
00000110
00001000
00010000
01100000
,
00010000
01100000
20000000
30000000
,
00100000
00010000
00001000
00000010
,
00000110
00001000
00020000
00030000
,
00010010
00001010
00010010
00001010
,
00000100
00001000
00020000
00030000
,
00001000
00000000
00000100
00000000
,
00001000
00000000
00010000
00000000
,
01000000
00000000
01000000
00000000
,
00001000
00000000
00001000
00000000
,
00001000
00000100
00000001
00000110
,
00001000
00010000
01000000
01100000
,
10000000
00100000
01000000
00100000
,
00010000
00001000
00000100
00000100
;

//---------------dance-double - ----------------
#NOTES:
     dance-double:
     :
     Medium:
     9:
     :
00000000
00000000
00000000
00000000
,
00000000
00000000
00000000
00000000
,
00000000
00000000
00000000
00000000
,
00000010
00000010
00000100
00000100
,
00000100
00001000
00010000
01000000
,
10000000
11000000
00010000
01010000
,
00100000
00010000
01000000
10000000
,
00100000
00100000
01000000
01000000
,
01000000
00010000
00001000
00000100
,
00000010
00010000
00002000
00000000
00000010
00000000
00013000
00000000
,
00100000
00020000
00001000
00000000
00100000
00000000
00031000
00000000
,
00010000
01000000
10000000
01100000
,
10000000
01000000
00010000
00001000
,
00100000
00000000
01000000
00000000
00100000
00001000
00010000
00000000
,
00000010
00000000
00000100
00000000
00000010
00010000
00001000
00000000
,
00000010
00000001
00000100
00001000
,
00010000
00001000
00000200
00000300
,
00000010
00000100
00001000
00010000
,
01000000
00001000
02000000
00000000
,
10000000
10000000
00010000
03010000
,
10000000
11000000
00010000
01010000
,
00100000
00020000
00002000
00033000
,
00000010
00002000
00020000
00033000
,
00100000
00010000
00001000
00000010
,
00000200
00000000
00000010
00000310
,
00000010
00002000
00010000
00000000
00000100
00000000
00003100
00000000
,
00000001
00000101
00001000
00010000
,
00100000
00010000
00001000
00000100
,
00001000
00010000
02000000
03000000
,
00001000
00020000
01000000
00000000
00001000
00000000
01030000
00000000
,
00001000
00000100
00000002
00000000
,
00000010
00000010
00000100
00000103
,
00001000
00010000
02000000
03000000
,
00001000
00000000
01000000
00000000
00010000
00001000
00000100
00000000
,
00010000
00000000
00000100
00000000
00001000
00010000
01000000
00000000
,
00100000
01000000
00010000
00001000
,
00000100
00000001
00000010
00001000
,
00000010
00001000
00010000
00001000
,
00000010
00000001
00000100
00001000
,
00020000
00000000
00100000
00130000
,
00001000
00001000
00000100
00000100
,
00000100
00001000
00010000
00001000
,
00000100
00000001
00000010
00001000
,
00010000
01100000
00010000
00001000
,
00000100
00000101
00000010
00001100
,
00000001
00000200
00001000
00000000
00000001
00000000
00001300
00000000
,
00010000
02000000
10000000
00000000
00010000
00000000
13000000
00000000
,
00100000
10000000
01000000
00010000
,
00001000
00010000
01000000
01100000
,
01000000
00020000
00001000
00000000
01000000
00000000
00031000
00000000
,
01000000
00020000
00001000
00000000
01000000
00000000
00031000
00000000
,
00000010
00001000
00010000
01000000
,
00010000
00001000
00000200
00000300
,
00000110
00000000
00001000
00000000
00010000
00001000
00000100
00000000
,
00010000
00000000
00000100
00000000
00001000
00010000
01000000
00000000
,
00100000
01000000
00010000
00001000
,
00000100
00000001
00000010
00001000
,
00100000
00001000
00020000
00000000
01000000
00000000
00031000
00000000
,
01000000
00020000
00001000
00000000
01000000
00000000
00031000
00000000
,
00100000
00110000
10000000
11000000
,
00010000
00000000
00001000
00000000
00000100
00000000
00000001
00000010
;

//---------------dance-double - ----------------
#NOTES:
     dance-double:
     :
     Hard:
     11:
     :
00000000
00000000
00000000
00000000
,
00000000
00000000
00000000
00000000
,
00000000
00000000
00000000
00000000
,
00100000
00000000
01000000
00000000
00100000
10000000
01000000
00010000
,
00002000
00000000
00003000
00001000
00000100
00000000
00000001
00000000
,
00000010
00000000
00000000
00010000
00000000
00000000
00001000
00000000
00000010
00000000
00000000
00000000
00000110
00000000
00000000
00000000
,
00000100
00000000
00000000
00010000
00000000
00000000
00001000
00000000
00000100
00000000
00000000
00000000
00000110
00000000
00000000
00000000
,
00001001
00000000
00000000
00000000
00000110
00000000
00000000
00000000
00000100
00000000
00000000
00001000
00000000
00000000
00010000
00000000
,
01000000
00000000
00000000
00010000
00000000
00000000
00001000
00000000
00010000
00000000
00000000
00000000
01000000
00000000
00000000
00000000
,
10000000
00000000
00000000
00100000
00000000
00000000
00010000
00000000
00001000
00000000
00000000
00000000
01010000
00000000
00000000
00000000
,
10000000
00000000
00000000
01000000
00000000
00000000
00010000
00000000
00001000
00000000
00000000
00000000
00110000
00000000
00000000
00000000
,
11000000
00000000
00110000
00000000
10000000
01000000
00010000
00001000
,
00000200
00000000
00000300
00000100
00001000
00000000
00000110
00000000
,
00000101
00000000
00001010
00000000
00000001
00000100
00001000
00010000
,
02000000
00000000
03000000
01000000
00010000
00000000
01100000
00000000
,
12000000
00010000
00100000
03010000
,
00100000
00000000
00000000
00010000
00000000
00000000
00001000
00000000
00000000
00000000
00000010
00000000
00001000
00000000
00000000
00000000
,
00010000
00000000
00000000
01000000
00000000
00000000
00010000
00000000
00010000
00000000
00000000
00001000
00000000
00000000
00010000
00000000
,
00010000
00000000
00000000
01000000
00000000
00000000
00010000
00000000
00000000
00000000
00010000
00000000
00001000
00000000
00000000
00000000
,
00000010
00000000
00000001
00000000
00000001
00000100
00001000
00000000
,
00010000
00000000
00000000
01000000
00000000
00000000
00010000
00000000
00000000
00000000
00010000
00000000
00001000
00000000
00000000
00000000
,
00001000
00000000
00000000
00000100
00000000
00000000
00001000
00000000
00000000
00000000
00010000
00000000
01000000
00000000
00000000
00000000
,
00001000
00000000
00000000
00000100
00000000
00000000
00001000
00000000
00000000
00000000
00010000
00000000
01000000
00000000
00000000
00000000
,
00001000
00000100
00000001
00000010
,
00002000
00000000
00010000
00013000
,
00000010
00010000
00000000
00001000
00000010
00000000
00000110
00000000
,
00000100
00010000
00000000
00001000
00000100
00000000
00000110
00000000
,
00000100
00001000
00000000
00011000
00000000
00010000
01000000
00000000
,
01100000
00000000
10000000
01000000
00010000
00000000
11000000
00000000
,
10000000
00100000
00010000
00001000
00000000
00100000
00010000
00000000
,
10000000
00000000
00000000
01000000
00000000
00000000
00010000
00000000
00000000
00000000
00100000
00000000
00001000
00000000
00000000
00000000
,
00110000
00000000
00101000
00000000
00110000
00000000
00100000
00001000
,
00000000
00010000
00000010
00001000
00000000
00001000
00000100
00000000
,
00000010
00010000
00000000
00001000
00100000
00010000
00000000
00010000
,
01000000
00000000
11000000
00000000
01000000
00010000
00000000
00002000
,
00000100
00010000
00000010
00023000
,
01000000
00001000
00100000
00031000
,
00020000
00000000
00000000
02030000
00000000
00000000
03000000
01000000
,
10000000
00000000
00110000
00000000
01000000
00000000
00001000
00010000
,
00000000
02000000
00000000
03000000
00010000
00000000
00001000
00000000
,
01000000
00000000
10000000
01000000
00000000
10000000
00100000
00010000
,
00002000
00000000
00000000
00003200
00000000
00000000
00000300
00000100
,
00000001
00000000
00001010
00000000
00000100
00000000
00010000
00001000
,
00000000
00020000
01000000
00000000
00001000
00000000
00130000
00000000
,
10000000
01000000
00010000
00001000
,
00000020
00000000
00000030
00000010
00001000
00000000
00011000
00000000
,
01000000
00010000
00000000
00001000
00000100
00000000
00000110
00000000
,
00000100
00001000
00000000
00010000
01000000
00000000
01100000
00000000
,
00200000
00000000
00300000
00100000
00010000
00000000
00011000
00000000
,
00001000
00000010
00000001
00000100
00000000
00001000
00000100
00000000
,
00010000
00000000
00000000
01000000
00000000
00000000
10000000
00000000
00000000
00000000
00010000
00000000
02000000
00000000
00000000
00000000
,
10000000
00000000
00100000
00000000
03010000
00000000
10000000
01000000
,
00000000
00100000
00010000
00001000
00000000
00100000
00010000
00000000
,
10000000
01000000
00000000
00100000
00010000
00001000
00000000
00100000
,
00010000
00000000
11000000
00000000
00100000
00001000
00000000
00001000
,
02000000
00000000
03000000
01000000
10000000
00000000
01100000
00000000
,
00020000
00001000
01000000
00031000
,
00010010
00000000
00000000
00000000
00001100
00000000
00000000
00000000
00001000
00000000
00000000
00000010
00000000
00000000
00010000
00000000
,
00010010
00000000
00000000
00000000
00001100
00000000
00000000
00000000
00001000
00000000
00000000
00000010
00000000
00000000
00010000
00000000
,
00010010
00001010
00000001
00000100
,
00001000
00000000
00001000
00000000
00010000
00000000
01000000
10000000
;
