#TITLE:Keep on movin';
#ARTIST:NM;
#BANNER:Keep on movin'.png;
#BACKGROUND:Keep on movin'-bg.png;
#CDTITLE:./CDTITLES/DanceDanceRevolution Full-Full Party.png;
#MUSIC:Keep on movin'.ogg;
#SAMPLESTART:30.903;
#SAMPLELENGTH:15;
#DISPLAYBPM:132;
#BPMS:0=132.44,4=132;

//---------------dance-single - ----------------
#NOTES:
     dance-single:
     :
     Beginner:
     4:
     :
0000
0000
0000
0000
,
0000
0000
0000
0000
,
0000
0000
0000
0000
,
0000
0000
0000
0000
,
0000
0000
0000
0000
,
1000
1000
0000
0000
,
0001
0000
0001
0000
,
0001
0001
0000
0000
,
0010
0000
1000
1000
,
1000
0000
0000
0000
,
0001
0001
0001
0000
,
0010
0000
0100
0000
,
0010
0000
0001
0000
,
0001
0000
0000
0000
,
1000
1000
1000
0000
,
0100
0000
0010
0000
,
0100
0000
1000
0000
,
0001
0000
0001
0000
,
1000
0000
1000
0000
,
0100
0000
0010
0000
,
1000
0000
0001
0000
,
0001
0001
0001
0000
,
1000
1000
1000
0000
,
0010
0000
0100
0000
,
0001
0000
1000
0000
,
1000
1000
1001
0001
,
0001
0100
0100
0100
,
0100
0000
0010
0000
,
0001
0001
0001
0001
,
0001
0001
1001
1000
,
1000
0010
0010
0010
,
0010
0000
0100
0000
,
1000
1000
1000
1000
,
0000
0000
0000
0000
,
0010
0010
0010
0010
,
0000
0000
0000
0000
,
0100
0100
0100
0100
,
0000
0001
0001
0001
,
0001
0000
0010
0000
,
0100
0000
1000
1000
,
0000
1001
0000
1001
,
0001
0000
0001
0000
,
1000
0000
1000
0000
,
0100
0000
0010
0000
,
1000
0000
0001
0000
,
0001
0001
0001
0000
,
1000
1000
1000
0000
,
0010
0000
0100
0000
,
0001
0000
1000
0000
,
1001
0000
0000
0000
;

//---------------dance-single - ----------------
#NOTES:
     dance-single:
     :
     Easy:
     5:
     :
0000
0000
0000
0000
,
0000
0000
0000
0000
,
0000
0000
0000
0000
,
0000
0000
0000
0000
,
0000
0000
0000
0000
,
0002
0000
1000
1003
,
0020
0000
0100
0130
,
0200
0000
0001
0301
,
0000
0001
0000
0100
,
1001
0000
0010
0010
,
0100
1000
1000
1000
,
0010
1000
0001
0100
,
0100
0000
0001
0001
0001
0001
0001
0000
,
1001
0000
0100
0100
,
0010
0001
0001
0001
,
0100
0001
1000
0010
,
0010
0000
1000
1000
1000
1000
1000
0000
,
0020
1000
1000
0130
,
2000
0001
0001
3010
,
0100
0010
1001
1001
,
0010
1000
0001
0100
,
0200
0001
0001
0310
,
0002
1000
1000
0103
,
0010
1001
0010
1001
,
0100
0001
1000
0110
,
0100
0200
0000
0320
,
0000
1030
0100
1000
,
0100
0001
1000
0100
,
2000
0000
0000
3010
,
0010
0020
0000
0230
,
0000
0301
0010
0001
,
0010
1000
0001
0010
,
0002
0000
0000
0103
,
0200
0000
0000
0301
,
0002
0000
0000
0013
,
0020
0000
0100
0130
,
0200
0000
0001
0301
,
0010
1001
0010
0110
,
0000
0020
2030
3002
,
0203
0010
0001
0310
,
0100
0010
1000
1001
,
0020
1000
1000
0130
,
2000
0001
0001
3010
,
0100
0010
1001
1001
,
0010
1000
0001
0100
,
0200
0001
0001
0310
,
0002
1000
1000
0103
,
0010
1001
0010
1001
,
0100
0001
1000
0110
,
2000
0000
3000
0000
;

//---------------dance-single - ----------------
#NOTES:
     dance-single:
     :
     Medium:
     7:
     :
0000
0000
0000
0000
,
0000
0000
0000
0000
,
0000
0000
0000
0000
,
0000
0000
0000
0000
,
0000
0000
0000
0000
,
1000
0002
0000
0000
0000
0000
0003
0000
,
0100
0010
2000
3000
,
0001
0000
1000
0000
0100
0010
0100
0000
,
1000
0000
0010
0100
0010
0000
1000
0000
,
1100
0000
0010
0001
0200
0020
0300
0030
,
0100
0001
1000
0001
1000
0010
1000
0000
,
2001
0000
0000
3000
0010
1000
0010
1000
,
0002
0000
1000
0000
0003
1000
0001
0000
,
0011
0000
0100
1000
0020
0200
0030
0300
,
0010
1000
0001
1000
0001
0100
0001
0000
,
1002
0000
0000
0003
0100
0001
0100
0001
,
2000
0000
0001
0000
3000
0001
1000
0000
,
0002
0023
0230
1300
,
0010
1000
1001
0000
1010
1000
0100
0000
,
0200
0301
0020
1030
,
0002
0100
1003
1100
,
2000
3200
0320
0031
,
0100
0001
1001
0000
0101
0001
0010
0000
,
0020
1030
0200
0301
,
2000
0010
3001
0011
,
0100
1000
0100
0000
0001
0000
1100
0000
,
0001
0100
0010
1000
0001
0000
1100
0000
,
0002
2003
3020
0230
,
0302
0000
0000
0003
0000
0001
0010
0100
,
0010
0001
0010
0000
1000
0000
0011
0000
,
1000
0010
0100
0001
1000
0000
0011
0000
,
2000
3002
0203
0320
,
2030
0000
0000
3000
0000
1000
0100
0010
,
0200
0000
0000
0300
,
1000
0010
1000
0010
,
0020
0130
0110
1001
,
1000
0001
0010
0100
1000
0001
0100
0000
,
0002
0000
0000
1003
,
2000
3020
0230
0302
,
0023
0000
0000
1030
,
0001
0010
0001
1000
0010
0000
1001
0000
,
0002
0010
0023
0100
0230
1000
1300
0000
,
0010
1000
0001
0000
0010
0100
0010
0000
,
0200
0301
0020
1030
,
0002
0100
1003
1100
,
2000
0100
3200
0010
0320
0001
0031
0000
,
0100
0001
1000
0000
0100
0010
0100
0000
,
0020
1030
0200
0301
,
2000
0000
0010
0000
3001
0000
0011
0001
,
0002
0000
0003
0000
;

//---------------dance-single - ----------------
#NOTES:
     dance-single:
     :
     Hard:
     9:
     :
0000
0000
0000
0000
,
0000
0000
0000
0000
,
0000
0000
0000
0000
,
0000
0000
0000
0000
,
0000
0000
0000
0000
,
0100
2000
0001
0000
0001
3010
0100
1000
,
0000
0010
0100
0002
0000
1000
0103
0100
,
0011
0000
1100
0000
0010
0000
0100
0100
,
1010
0000
0100
0100
0001
0000
1000
1000
,
0010
0011
1000
1100
0020
0230
0001
0300
,
0010
0001
1000
0001
0000
0001
0100
1000
,
0100
0002
0000
0103
1000
0001
0100
0100
,
2000
0000
0000
0010
3001
0001
1000
0010
,
0100
1100
0001
0011
0200
0320
1000
0030
,
0100
1000
0001
1000
0000
1000
0010
0001
,
0010
2000
0000
3010
0001
1000
0010
0010
,
0002
0000
0000
0100
1003
1000
0001
0010
,
2000
3110
0200
0311
0020
1130
0001
0001
,
1000
0100
0000
0001
0100
0010
0100
0000
,
1000
0020
0000
0130
1000
0002
0103
0020
,
2030
0100
0001
0100
3001
1000
0011
0000
,
0002
0113
0020
1130
0200
0311
1000
1000
,
0001
0010
0000
1000
0010
0100
0010
0000
,
0001
0200
0000
0310
0001
2000
0000
3100
,
0002
0100
0103
1100
,
0010
0010
1001
0000
0100
0100
0011
0000
,
1000
0010
1000
1000
0011
0011
1100
0000
,
2000
3200
2300
3002
0203
0320
2030
0000
,
0100
0000
0100
3000
0000
0001
0101
0000
,
0100
0100
1001
0000
0010
0010
1100
0000
,
0001
0100
0001
0001
1100
1100
0011
0000
,
0002
0023
0032
2003
3020
0230
0302
0000
,
0010
0000
0010
0003
0000
1000
1100
0000
,
0120
1000
0001
1030
,
0001
0100
0010
1000
,
0201
0000
0310
0000
1100
0010
0011
0000
,
0100
1000
0100
0010
1000
0100
0010
0001
,
2000
0000
0100
0000
0010
0010
3010
0000
,
0002
0000
0200
0003
0320
2030
3002
0203
,
0000
0000
0000
0010
0000
0010
0300
0000
,
1000
1000
1000
0100
0001
0001
0001
0000
,
2000
3110
0200
0311
0020
1130
0001
0001
,
1000
0100
0000
0001
0100
0010
0100
0000
,
1000
0020
0000
0130
1000
0002
0103
0020
,
2030
0100
0001
0100
3001
1000
0011
0000
,
0002
0113
0020
1130
0200
0311
1000
1000
,
0001
0010
0000
1000
0010
0100
0010
0000
,
0001
0200
0000
0310
0001
2000
0000
3100
,
0001
0001
1000
1000
0010
0010
0001
0001
,
2200
0000
3300
0000
;
