#TITLE:Technologic;
#SUBTITLE:;
#ARTIST:Daft Punk;
#TITLETRANSLIT:;
#SUBTITLETRANSLIT:;
#ARTISTTRANSLIT:;
#GENRE:;
#CREDIT:;
#MENUCOLOR:;
#METERTYPE:DDR X;
#BANNER:Technologic.png;
#BACKGROUND:Technologic-bg.png;
#LYRICSPATH:;
#CDTITLE:;
#MUSIC:Technologic.ogg;
#OFFSET:-1.135;
#SAMPLESTART:91.020;
#SAMPLELENGTH:15.000;
#SELECTABLE:YES;
#LISTSORT:;
#DISPLAYBPM:127.000;
#BPMS:0.000=127.440;
#STOPS:;
#BGCHANGES:;
#ATTACKS:;

//---------------dance-single - ----------------
#NOTES:
     dance-single:
     :
     Beginner:
     3:
     0.127,0.211,0.253,0.016,0.000:
0000
0000
0000
0000
,
0000
0000
0000
0000
,
1000
0000
0000
0000
,
1000
0000
0000
0000
,
0001
0000
0000
0000
,
0001
0000
0000
0000
,
1000
0000
0000
0000
,
0100
0000
0000
0000
,
0001
0000
0000
0000
,
0100
0000
0000
0000
,
1000
0000
0000
0000
,
0010
0000
0000
0000
,
0001
0000
0000
0000
,
0010
0000
0000
0000
,
0110
0000
0000
0000
,
0110
0000
0000
0000
,
1001
0000
1001
0000
,
1001
0000
0000
0000
,
1001
0000
1001
0000
,
1001
0000
0000
0000
,
1000
0000
0100
0000
,
1000
0000
0000
0000
,
0001
0000
0100
0000
,
0001
0000
0000
0000
,
1000
0000
0000
0000
,
0001
0000
0000
0000
,
1000
0000
0000
0000
,
0001
0000
0000
0000
,
1001
0000
0000
0000
,
1100
0000
0000
0000
,
1001
0000
0000
0000
,
0101
0000
0000
0000
,
1010
0000
0000
0000
,
0011
0000
0000
0000
,
1001
0000
0000
0000
,
1001
0000
0000
0000
,
1000
0000
0000
0000
,
1100
0000
0000
0000
,
0001
0000
0000
0000
,
0101
0000
0000
0000
,
0010
0000
1000
0000
,
1010
0000
1010
0000
,
0010
0000
0001
0000
,
0011
0000
0011
0000
,
1000
0100
0000
0100
,
0000
0100
0000
0100
,
0000
0100
0000
0100
,
0000
0100
0000
0100
,
0001
0000
0000
0000
,
1000
0000
0000
0000
,
0001
0000
0000
0000
,
1000
0000
0000
0000
,
1001
0000
0000
0000
,
1000
0000
0000
0000
,
1001
0000
0000
0000
,
0001
0000
0000
0000
,
1010
0000
0000
0000
,
0101
0000
0000
0000
,
0011
0000
0000
0000
,
1100
0000
0000
0000
,
0110
0000
0000
0000
,
1001
0000
0000
0000
,
1000
0000
0000
0000
,
0001
0000
0000
0000
,
2002
0000
0000
3003
;

//---------------dance-single - ----------------
#NOTES:
     dance-single:
     :
     Hard:
     11:
     0.552,0.500,0.359,0.016,0.000:
0100
0001
0100
0000
0001
0100
0001
0100
,
0010
1000
0010
0000
0010
1000
0010
1000
,
0001
0100
0001
0000
1000
0001
1000
0001
,
0010
0100
0010
0000
0010
0100
0010
0100
,
0001
1000
0001
0000
1000
0100
0010
0001
,
0010
0100
1000
0000
0001
0010
0100
1000
,
0100
0010
0001
0000
1000
0001
0010
0100
,
0001
1000
0010
0000
0001
1000
0010
0100
,
1000
0001
0010
0000
0010
0100
1000
0010
,
0100
0001
0100
0000
0010
0100
0001
0010
,
0100
1000
0100
0000
0001
0010
0100
0001
,
0010
0100
1000
0000
1000
0010
0100
1000
,
0010
0100
0001
0000
0000
0001
0000
0001
,
0100
1000
0100
0000
0000
1000
0000
1000
,
0100
0001
0100
0000
0000
0010
0000
0010
,
1000
0010
0001
0000
0000
0010
0000
0010
,
0001
0011
0000
0000
0001
0101
0000
0000
,
0001
0011
0000
0000
0001
0101
0000
0000
,
1000
1010
0000
0000
1000
1100
0000
0000
,
1000
1010
0000
0000
1000
1100
0000
0000
,
0010
0110
0000
0000
0100
0110
0000
0000
,
0010
0110
0000
0000
0100
0110
0000
0000
,
1000
1001
0000
0000
0001
1001
0000
0000
,
1000
1001
0000
0000
0001
1001
0000
0000
,
1000
0100
1000
0100
0010
0001
0100
1000
,
0001
0100
0001
0100
0010
1000
0100
0001
,
1000
0010
1000
0010
0001
0100
1000
0010
,
0001
0100
0001
0100
0010
1000
0100
0001
,
1000
0100
0100
0010
0010
0001
0100
1000
,
1000
0010
0010
0100
0100
0001
0100
1000
,
0001
0010
0010
0100
0100
1000
0100
0001
,
0001
0100
0100
0010
0010
1000
0100
0001
,
1000
0100
0010
0100
0001
0100
0010
0100
,
1000
0100
0010
0001
0001
0010
0100
1000
,
1000
0001
1000
0001
0010
0100
0010
0100
,
1000
0010
0100
0001
0001
0010
0100
1000
,
0100
0010
0100
0010
0001
0001
0001
0001
,
0100
0010
0100
0010
1000
1000
1000
1000
,
1000
0100
1000
0100
0010
0010
0010
0010
,
0001
0100
0001
0100
0010
0010
0010
0010
,
0100
1100
0000
0000
0100
0101
0000
0000
,
0100
1100
0000
0000
0100
0101
0000
0000
,
0010
1010
0000
0000
0010
0011
0000
0000
,
0010
1010
0000
0000
0010
0011
0000
0000
,
0100
1000
1100
0000
0100
0001
0101
0000
,
0010
1000
1010
0000
0010
0001
0011
0000
,
1000
0001
1001
0000
0001
1000
1001
0000
,
1000
0001
0101
0000
0001
1000
1100
0000
,
2000
3010
0110
0000
0001
0100
0010
0100
,
0002
0013
0110
0000
1000
0100
0010
0100
,
1000
0100
0101
0000
0001
0100
1000
0100
,
0001
0100
0101
0000
1000
0010
0001
0010
,
1000
0010
1010
0000
0001
0010
1000
0010
,
0001
0010
0011
0000
1000
0100
0001
0100
,
1000
0010
1000
0010
0100
0001
0100
0001
,
0010
0001
0010
0001
0100
1000
0100
1000
,
0001
0010
0100
1000
0001
0010
0100
1000
,
1000
0100
0010
0001
1000
0100
0010
0001
,
1000
0001
0010
0100
1000
0001
0010
0100
,
0001
1000
0010
0100
0001
1000
0010
0100
,
1000
0001
0100
0010
1000
0001
0100
0010
,
0001
1000
0100
0010
0001
1000
0100
0010
,
0001
0010
0011
0000
1000
0010
1010
0010
,
0001
0010
0011
0000
1000
0010
1010
0010
,
0001
0010
0011
0000
1010
0000
0000
0000
;

//---------------dance-single - ----------------
#NOTES:
     dance-single:
     :
     Medium:
     8:
     0.454,0.470,0.351,0.408,0.000:
1100
0100
0000
0000
,
0101
0100
0000
0000
,
1100
0100
0000
0000
,
0101
0100
0000
0000
,
1010
0000
0010
0000
0000
0010
0000
0010
,
0011
0000
0010
0000
0000
0010
0000
0010
,
1010
0000
0010
0000
0000
0010
0000
0010
,
0011
0000
0010
0000
0000
0100
0000
0100
,
1000
0000
0001
0000
1000
0001
0100
0000
,
0001
0000
1000
0000
0001
1000
0100
0000
,
1010
0000
0010
0000
0100
0001
0100
0000
,
0011
0000
0010
0000
0100
1000
0100
0000
,
1100
0000
0101
0000
1000
0100
0001
0000
,
0101
0000
1100
0000
0001
0100
1000
0000
,
1010
0000
0011
0000
1000
0010
0001
0000
,
0011
0000
1010
0000
0001
0010
1000
0000
,
2200
3300
2200
3300
,
0022
0033
0022
0033
,
0202
0303
0202
0303
,
2020
3030
2020
3030
,
2002
3003
2002
3003
,
0220
0330
0220
0330
,
2002
3003
0022
0033
,
2002
3003
2020
3030
,
1000
0000
1000
0000
0000
1000
0000
1000
,
0001
0000
0001
0000
0000
0001
0000
0001
,
1000
0000
0010
0000
0000
0010
0000
0010
,
0001
0000
0010
0000
0000
0010
0000
0010
,
0100
0001
0100
0000
0010
1000
0010
0000
,
0100
0001
0100
0000
0010
1000
0010
0000
,
0100
1000
0100
0000
0010
0001
0010
0000
,
0100
1000
0100
0000
0010
0001
0010
0000
,
1000
0001
0010
0000
0001
1000
0010
0000
,
1000
0100
0010
0000
0001
0100
0010
0000
,
1000
0010
0100
0000
0001
0010
0100
0000
,
1000
0001
1000
0000
0001
1000
0001
0000
,
1001
0000
1001
0000
1000
0100
1000
0000
,
1001
0000
1001
0000
0001
0100
0001
0000
,
0110
0000
0110
0000
0010
0100
0010
0000
,
0110
0000
0110
0000
0100
0010
0100
0000
,
0200
0000
2000
3000
,
0020
0030
0002
0003
,
0020
0030
2000
3000
,
0020
0030
0002
0303
,
0020
0000
0200
0300
1000
0000
0200
0300
,
1000
0000
0200
0300
1000
0000
0200
0330
,
0020
0000
0200
0300
0001
0000
0200
0300
,
0001
0000
0200
0300
0001
0000
0200
0330
,
1000
0100
0001
0000
0001
0100
1000
0000
,
1000
0010
0001
0000
0001
0010
1000
0000
,
1000
0100
0010
0000
0001
0100
0010
0000
,
1000
0100
0010
0000
0001
0100
0010
0000
,
1000
0010
0100
0000
0001
0100
0010
0000
,
1000
0010
0100
0000
0001
0010
0100
0000
,
1000
0010
1000
0000
0001
0010
0001
0000
,
1000
0010
1000
0000
0001
0010
0001
0000
,
1000
0100
1000
0100
0001
0100
0001
0100
,
1000
0100
1000
0100
0001
0100
0001
0000
,
1000
0010
1000
0010
0001
0010
0001
0010
,
1000
0010
1000
0010
0001
0010
0001
0000
,
1000
0001
1000
0001
1000
0001
1000
0001
,
1000
0001
1000
0001
1000
0001
1000
0000
,
0001
1000
0001
1000
0001
1000
0001
1000
,
0001
1000
0001
1000
0001
1000
0001
0000
,
1001
0000
0000
0000
;

//---------------dance-single - ----------------
#NOTES:
     dance-single:
     :
     Easy:
     4:
     0.207,0.261,0.204,0.245,0.000:
0000
0000
0000
0000
,
0000
0000
0000
0000
,
1000
0000
0000
0001
,
0001
0000
0000
1000
,
1000
0000
0000
0010
,
0010
0000
0000
0100
,
0100
0000
0000
0010
,
0010
0000
0000
1000
,
0001
0000
0000
0001
,
1000
0000
0000
1000
,
0010
0000
0000
0001
,
0010
0000
0000
1000
,
0100
0000
0000
0001
,
0100
0000
0000
1000
,
0011
0000
0000
0001
,
1010
0000
0000
1000
,
0200
0300
0200
0300
,
0200
0300
0000
0000
,
0200
0300
0200
0300
,
0200
0300
0000
0000
,
0020
0030
0020
0030
,
0020
0030
0000
0000
,
0020
0030
0020
0030
,
0020
0030
0000
0000
,
1000
1000
0000
0000
,
0001
0001
0000
0000
,
1001
1100
0000
0000
,
1001
0101
0000
0000
,
1010
1001
0000
0000
,
0011
1001
0000
0000
,
1100
1001
0000
0000
,
0101
1001
0000
0000
,
1001
1010
0000
0000
,
1001
0011
0000
0000
,
2000
3100
0000
0000
,
0002
0103
0000
0000
,
2000
3001
0000
0000
,
0002
1003
0000
0000
,
0020
0130
0000
0000
,
0200
0310
0000
0000
,
0020
0030
0020
0030
,
0020
0030
0000
0000
,
0200
0300
0200
0300
,
0200
0300
0000
0000
,
2000
3000
2000
3000
,
2000
3000
0000
0000
,
0002
0003
0002
0003
,
0002
0003
0000
0000
,
1000
0101
0000
0000
,
0001
1100
0000
0000
,
1000
0011
0000
0000
,
0001
1010
0000
0000
,
1000
0110
0000
0000
,
0001
0110
0000
0000
,
1000
0100
0000
0000
,
0001
0100
0000
0000
,
1000
0010
0000
0000
,
0001
0010
0000
0000
,
1000
0001
1000
0000
,
0001
1000
0001
0000
,
0010
1000
0010
0000
,
0010
0001
0010
0000
,
0100
1000
0001
0000
,
0100
0001
1000
0000
,
0110
0000
0000
0000
;
