#TITLE:Policy of Truth;
#SUBTITLE:;
#ARTIST:Depeche Mode;
#TITLETRANSLIT:;
#SUBTITLETRANSLIT:;
#ARTISTTRANSLIT:;
#GENRE:;
#CREDIT:N. Muriel;
#MENUCOLOR:;
#METERTYPE:DDR X;
#BANNER:Policy of Truth.png;
#BACKGROUND:Policy of Truth-bg.png;
#LYRICSPATH:;
#CDTITLE:;
#MUSIC:Policy of Truth.ogg;
#OFFSET:-0.001;
#SAMPLESTART:41.700;
#SAMPLELENGTH:15.000;
#SELECTABLE:YES;
#LISTSORT:;
#DISPLAYBPM:114.000;
#BPMS:0.000=114.240;
#STOPS:;
#BGCHANGES:;
#ATTACKS:;

//---------------dance-single - ----------------
#NOTES:
     dance-single:
     :
     Medium:
     9:
     0.399,0.405,0.289,0.093,0.000:
0000
0000
0000
0000
,
0000
0000
0000
0000
,
1000
0100
0000
0100
0001
0000
0000
0000
,
0001
0100
0000
0100
1000
0100
1000
0000
,
1000
0010
0000
0010
0001
0100
1000
0100
,
0000
0100
0001
0100
0002
0000
0003
0000
,
1000
0010
0000
0010
1000
0100
0001
0100
,
0000
0001
0010
0100
0002
0000
0003
0000
,
0010
0100
0000
0100
0010
1000
0001
1000
,
0000
0100
0010
0001
2000
0000
3000
0000
,
1010
0010
0000
0010
0001
0100
1000
0100
,
0000
0100
0001
0100
0020
0000
0030
0000
,
1000
1000
0001
0000
0100
0100
0001
0000
,
0001
0001
1000
0100
0000
1000
1000
0000
,
0010
0000
0100
0000
0001
0100
0001
0000
,
0010
0010
0100
1000
0000
1000
0100
1000
,
0001
0010
0100
0000
1000
1000
1000
0000
,
1000
0010
0100
0000
0001
0001
0001
0000
,
1001
1000
0100
0000
0110
0000
0011
0000
,
1001
0001
0100
0000
0110
0000
1010
0000
,
1000
0100
0000
0100
0010
0000
0110
0000
,
0001
0100
0000
0100
0010
0000
0110
0000
,
1000
0100
0000
0010
0000
0100
0000
0010
,
0000
0000
0001
1000
0000
0000
0000
0000
,
1000
0000
0100
0010
0001
1000
0001
1000
,
0000
0000
0001
0100
0001
0000
1000
0020
,
0000
0030
1000
0100
0000
0001
0100
0101
,
0000
1000
0100
1000
1100
0000
0101
0000
,
1001
0000
1000
0000
0100
1000
0001
1000
,
0000
0100
0001
1000
0002
0000
0003
0000
,
1001
0000
0001
0000
0100
0001
1000
0001
,
0000
0100
1000
0001
2000
0000
3000
0000
,
0110
0000
1000
0000
0001
0100
0010
1000
,
0000
1000
0100
0010
0001
0101
0101
0000
,
2000
0000
3100
0000
0010
0100
1000
0000
,
0002
0100
0103
0000
0010
0100
0001
0000
,
1001
0000
1100
0000
0001
0100
1000
0000
,
1001
0000
0101
0000
1000
0100
0001
0100
,
0010
1000
0010
1000
0001
0000
0011
0000
,
1000
1000
0000
1000
0000
0000
0001
0100
,
0001
0000
1100
0000
0001
0100
0001
0000
,
1000
0100
0101
0000
1000
0100
1000
0010
,
0000
0100
0000
0001
0000
0000
0100
1000
,
0000
0000
1000
0001
0000
0000
0010
0100
,
0000
0000
0100
0010
0000
0000
1000
0001
,
0000
1000
0000
0001
0000
0000
0100
1000
,
0100
0000
0010
0000
0100
0001
0100
0000
,
0110
0000
1000
0100
0001
0000
0001
0010
,
0100
1000
0100
0010
0000
0010
0100
0001
,
0000
0001
1000
0100
1000
0000
0000
0000
,
0101
0000
0010
0000
1010
1000
0100
0001
,
0000
0001
0010
0100
2000
0000
3000
0000
,
0101
0001
0100
0001
0000
0000
0001
0100
,
1100
1000
0100
1000
0000
0000
0010
1000
,
0000
0101
0000
0000
0101
0000
0000
0101
,
0000
0101
0000
0001
0200
0000
0310
0000
,
0110
0000
0000
0000
;

//---------------dance-single - ----------------
#NOTES:
     dance-single:
     :
     Hard:
     11:
     0.498,0.476,0.340,0.229,0.025:
1010
0010
0000
1000
1100
0000
0101
0000
,
0001
0010
0100
0001
0000
0001
0011
0000
,
0011
0010
0000
0001
0101
0000
1100
0000
,
1000
0010
0100
1000
0000
1000
0100
0001
,
0101
0001
0000
0001
0011
0010
0100
0010
,
0000
1000
0010
1000
0002
0000
0103
0000
,
1100
1000
0000
1000
1010
0010
0100
0010
,
0000
0001
0010
0001
2000
0000
3100
0000
,
0101
0001
0100
1000
1100
0010
0100
0001
,
0000
0000
0001
0000
1000
0000
0100
0000
0020
0000
0000
0000
1030
0000
0100
0001
,
0100
0000
0001
0100
0001
0000
1000
0000
1100
0000
0001
0000
0100
0000
0010
0000
,
0000
1000
0100
0001
0020
0000
0031
0000
,
1100
1000
0100
0000
0101
0001
0010
0100
,
1000
1000
0001
0100
0000
0100
0110
1000
,
0100
0100
0010
0000
0100
0001
0100
0000
,
1001
0000
0001
0000
0010
0000
0001
0000
0000
0000
1000
0000
0100
0000
0000
0001
,
0010
0001
0010
0000
0101
0001
0100
0000
,
1100
1000
0100
0010
0000
0010
0101
1000
,
1000
0100
0100
0000
0010
1000
0010
0000
,
0100
0100
0001
1000
0000
0010
0100
2000
,
0000
3002
0000
0013
0220
0030
1300
1200
,
0000
0301
0101
0001
1001
0000
0001
0100
,
0001
1000
0100
1000
1001
0000
0001
0010
,
0001
1000
0010
1000
1001
0000
1000
1000
,
0100
0010
0001
0100
0100
1000
0010
0100
,
0000
0000
0001
0010
0100
1000
0000
0020
,
0000
0001
0000
0100
0000
1000
1000
1000
,
0000
0100
0100
0000
0001
0000
0031
0000
,
0200
0000
1000
0000
0010
0001
0001
0001
,
0000
0010
0010
0000
1000
0000
1300
0000
,
0012
0000
0100
0000
1000
1000
1000
0100
,
0000
0100
0100
0000
0010
0000
0013
0000
,
2010
0000
0001
0000
0100
0100
0100
0001
,
0000
0001
0001
0000
3010
1010
1010
0000
,
0002
0000
0023
0000
0130
0001
0100
0000
,
0010
0010
0010
0010
0000
0100
0100
0000
,
2000
0000
3020
0000
0130
1000
0100
0000
,
0100
0100
0100
0100
0000
0010
0001
0100
,
0001
0010
0100
1000
0100
0010
0001
0000
,
1000
0000
1000
0000
0001
0000
0100
0000
0000
0000
0100
0000
0101
0000
0001
1000
,
0100
0000
0100
1000
0001
0000
0010
0000
0010
0000
0200
0000
0301
0000
0000
0000
,
0001
0011
0001
0101
0000
0010
0100
2000
,
0000
3002
0000
0013
0220
0030
1300
1200
,
0000
0301
0101
0001
1001
0000
0001
0100
,
0001
1000
0100
1000
1001
0000
0001
0010
,
0001
1000
0010
1000
1001
0000
1000
1000
,
0100
0010
0001
0100
0100
1000
0010
0100
,
0000
0000
0001
0010
0100
1000
0000
0020
,
0000
0001
0000
0100
0000
1000
1000
1000
,
0000
0100
0100
0000
0001
0000
0031
0000
,
0200
0000
1000
0000
0010
0001
0001
0001
,
0000
0000
0010
0000
0010
0000
0000
0000
1000
0000
0000
0000
1300
0000
1000
0100
,
1000
0010
0100
0010
0000
0000
0100
0001
,
0000
0010
0000
0100
1000
1000
0100
0001
,
0000
0010
0010
0000
0100
0100
1000
1000
,
0000
0010
0010
0100
0200
0000
0302
0000
,
1003
0000
0000
0000
;

//---------------dance-single - ----------------
#NOTES:
     dance-single:
     :
     Beginner:
     1:
     0.123,0.161,0.000,0.323,0.000:
0000
0000
0000
0000
,
0000
0000
0000
0000
,
0000
0000
0000
0000
,
0000
0000
0000
0000
,
0000
0000
0000
0000
,
0020
0030
0002
0003
,
0000
0000
0000
0000
,
0020
0030
0002
0003
,
0000
0000
0000
0000
,
0020
0030
2000
3000
,
0000
0000
0000
0000
,
0020
0030
2000
3000
,
0000
0000
0000
0000
,
1000
1000
1000
0000
,
0000
0000
0000
0000
,
1000
1000
1000
0000
,
0000
0000
0000
0000
,
0001
0001
0001
0000
,
0000
0000
0000
0000
,
0001
0001
0001
0000
,
0020
0030
0200
0300
,
2000
0000
0000
3000
,
0020
0030
0200
0300
,
2000
0000
0000
3000
,
0200
0300
0020
0030
,
0002
0000
0000
0003
,
0200
0300
0020
0030
,
0002
0000
0000
0003
,
0000
0000
0000
0000
,
2000
0000
0000
3000
,
0000
0000
0000
0000
,
0020
0000
0000
0030
,
0000
0000
0000
0000
,
0200
0000
0000
0300
,
0000
0000
0000
0000
,
0010
0010
0010
0000
,
0000
0000
0000
0000
,
0100
0100
0100
0000
,
0000
0000
0000
0000
,
0010
0010
0010
0000
,
0000
0000
0000
0000
,
0100
0100
0100
0000
,
2000
3000
0020
0030
,
0200
0000
0000
0300
,
0002
0003
0020
0030
,
0200
0000
0000
0300
,
0200
0300
2000
3000
,
0020
0000
0000
0030
,
0200
0300
0002
0003
,
0020
0000
0000
0030
,
0000
0000
0000
0000
,
0200
0000
0000
0300
,
0002
0000
0000
0000
,
2003
0000
0000
0000
,
3010
0000
0000
0000
;

//---------------dance-single - ----------------
#NOTES:
     dance-single:
     :
     Easy:
     6:
     0.171,0.238,0.195,0.051,0.000: // measure 1
0000
0000
0000
0000
,  // measure 2
0000
0000
0000
0000
,  // measure 3
1000
0000
1010
0000
,  // measure 4
0001
0001
0001
0000
,  // measure 5
0001
0000
0011
0000
,  // measure 6
1000
1000
1000
0000
,  // measure 7
1000
0000
1100
0000
,  // measure 8
0001
0001
0001
0000
,  // measure 9
0001
0000
0101
0000
,  // measure 10
1000
1000
1000
0000
,  // measure 11
0010
0000
0110
0000
,  // measure 12
0100
0100
0100
0000
,  // measure 13
0000
0000
0000
0000
,  // measure 14
1000
1000
1000
0000
,  // measure 15
0000
0000
0000
0000
,  // measure 16
0001
0001
0001
0010
,  // measure 17
0000
0000
0000
0000
,  // measure 18
0001
0001
0001
0000
,  // measure 19
0000
0000
0000
0000
,  // measure 20
1000
1000
1000
0010
,  // measure 21
0100
0000
0011
0000
,  // measure 22
0100
0000
1010
0000
,  // measure 23
0010
0000
0101
0000
,  // measure 24
0010
0000
1100
0000
,  // measure 25
0002
0000
0000
0000
,  // measure 26
2003
0000
0000
3000
,  // measure 27
0101
0000
1000
0000
,  // measure 28
0010
0010
0010
0000
,  // measure 29
1100
0000
0001
0000
,  // measure 30
0010
0010
0010
0000
,  // measure 31
0011
0000
1000
0000
,  // measure 32
0100
0100
0100
0000
,  // measure 33
1010
0000
0001
0000
,  // measure 34
0100
0100
0100
0000
,  // measure 35
0000
0000
0000
0000
,  // measure 36
1000
1000
1000
0000
,  // measure 37
0000
0000
0000
0000
,  // measure 38
0001
0001
0001
0100
,  // measure 39
0000
0000
0000
0000
,  // measure 40
0001
0001
0001
0000
,  // measure 41
0000
0000
0000
0000
,  // measure 42
1000
1000
1000
0100
,  // measure 43
0101
0000
1100
0000
,  // measure 44
0101
0000
1100
0000
,  // measure 45
1010
0000
0011
0000
,  // measure 46
1010
0000
0011
0000
,  // measure 47
2000
0000
0000
0000
,  // measure 48
3002
0000
0000
0003
,  // measure 49
0101
0000
1000
0000
,  // measure 50
0010
0010
0010
0000
,  // measure 51
1100
0000
0001
0000
,  // measure 52
0010
0010
0010
0000
,  // measure 53
2000
0000
0000
0000
,  // measure 54
3020
0000
0000
0030
,  // measure 55
0001
0000
0001
0000
,  // measure 56
1000
1000
1000
0100
,  // measure 57
0010
0000
0000
0000
;
