#TITLE:Mind Gear;
#SUBTITLE:;
#ARTIST:Cleod9;
#TITLETRANSLIT:;
#SUBTITLETRANSLIT:;
#ARTISTTRANSLIT:;
#GENRE:;
#CREDIT:;
#MENUCOLOR:WHITE;
#METERTYPE:DDR X;
#BANNER:Mind Gear.png;
#BACKGROUND:Mind Gear-bg.png;
#LYRICSPATH:;
#CDTITLE:;
#MUSIC:Mind Gear.ogg;
#OFFSET:0.000;
#SAMPLESTART:60.020;
#SAMPLELENGTH:12.000;
#SELECTABLE:YES;
#LISTSORT:;
#DISPLAYBPM:160.000;
#BPMS:0.000=160.010;
#STOPS:;
#BGCHANGES:;
#ATTACKS:;

//---------------dance-single - ----------------
#NOTES:
     dance-single:
     :
     Beginner:
     2:
     0.102,0.198,0.115,0.066,0.000: // measure 1
0000
0000
0000
0000
,  // measure 2
0000
0000
0000
0000
,  // measure 3
0000
0000
0000
0000
,  // measure 4
0000
0000
0000
0000
,  // measure 5
1000
0000
0000
0000
,  // measure 6
0000
0000
0000
0000
,  // measure 7
0000
0000
0000
0000
,  // measure 8
0000
0000
0000
0000
,  // measure 9
0001
0000
0000
0000
,  // measure 10
0000
0000
0000
0000
,  // measure 11
0000
0000
0000
0000
,  // measure 12
0000
0000
0000
0000
,  // measure 13
1000
0000
0000
0000
,  // measure 14
0000
0000
0000
0000
,  // measure 15
0000
0000
0000
0000
,  // measure 16
0000
0000
0000
0000
,  // measure 17
0001
0000
0000
0000
,  // measure 18
0010
0000
0000
0000
,  // measure 19
0001
0000
0000
0000
,  // measure 20
0020
0000
0000
0030
,  // measure 21
1000
0000
0000
0000
,  // measure 22
0010
0000
0000
0000
,  // measure 23
1000
0000
0000
0000
,  // measure 24
0020
0000
0000
0030
,  // measure 25
0100
0000
0100
0000
,  // measure 26
0100
0000
0000
0000
,  // measure 27
0000
0000
0000
0000
,  // measure 28
0000
0000
0000
0000
,  // measure 29
0010
0000
0010
0000
,  // measure 30
0010
0000
0000
0000
,  // measure 31
0000
0000
0000
0000
,  // measure 32
0000
0000
0000
0000
,  // measure 33
1000
0000
0000
0000
,  // measure 34
0001
0000
0000
0000
,  // measure 35
1000
0000
0000
0000
,  // measure 36
0001
0000
0000
0000
,  // measure 37
0001
0000
0000
0000
,  // measure 38
1000
0000
0000
0000
,  // measure 39
0001
0000
0000
0000
,  // measure 40
1000
0000
0000
0000
,  // measure 41
0110
0000
0000
0000
,  // measure 42
0000
0000
0000
0000
,  // measure 43
0110
0000
0000
0000
,  // measure 44
0000
0000
0000
0000
,  // measure 45
1001
0000
0000
0000
,  // measure 46
0000
0000
0000
0000
,  // measure 47
1001
0000
0000
0000
,  // measure 48
0000
0000
0000
0000
,  // measure 49
1010
0000
0000
0000
,  // measure 50
0000
0000
0000
0000
,  // measure 51
1010
0000
0000
0000
,  // measure 52
0000
0000
0000
0000
,  // measure 53
0101
0000
0000
0000
,  // measure 54
0000
0000
0000
0000
,  // measure 55
0101
0000
0000
0000
,  // measure 56
0000
0000
0000
0000
,  // measure 57
1000
0000
0000
0010
,  // measure 58
0010
0000
0000
0001
,  // measure 59
0001
0000
0000
1000
,  // measure 60
1000
0000
0000
0100
,  // measure 61
0100
0000
0000
0010
,  // measure 62
0010
0000
0000
1000
,  // measure 63
1000
0000
0000
0001
,  // measure 64
0001
0000
0000
0000
,  // measure 65
1100
0000
0000
0010
,  // measure 66
0001
0000
0000
0000
,  // measure 67
1100
0000
0000
0010
,  // measure 68
0001
0000
0000
0000
,  // measure 69
0101
0000
0000
0010
,  // measure 70
1000
0000
0000
0000
,  // measure 71
0101
0000
0000
0010
,  // measure 72
1000
0000
0000
0000
,  // measure 73
0200
0000
0000
0000
,  // measure 74
0000
0000
0000
0300
,  // measure 75
0020
0000
0000
0000
,  // measure 76
0000
0000
0000
0030
,  // measure 77
0202
0000
0000
0000
,  // measure 78
0000
0000
0000
0303
,  // measure 79
2020
0000
0000
0000
,  // measure 80
0000
0000
0000
3030
,  // measure 81
0001
0000
0000
0000
;

//---------------dance-single - ----------------
#NOTES:
     dance-single:
     :
     Hard:
     12:
     0.690,0.731,0.609,0.000,0.053:
1000
0000
1000
0000
0100
1000
0100
0000
,
0001
0000
0001
0000
0100
0001
0100
0000
,
0010
0000
0010
0000
1000
0010
0010
0000
,
0010
0000
0010
0000
0001
0010
0010
0000
,
0101
0000
0010
0000
1000
0010
1000
0000
,
0101
0000
0010
0000
1000
0010
1000
0000
,
1010
0000
0100
0000
0001
0010
0010
0000
,
1010
0000
0100
0000
0001
0010
0010
0000
,
1100
0010
0100
0000
0101
0010
0100
0000
,
1100
0100
0010
0000
0101
0100
0010
0000
,
1010
0100
0010
0000
0011
0100
0010
0000
,
1010
0001
0010
0000
0011
1000
0010
0000
,
1000
0000
0000
0000
0100
0000
0000
0000
0010
0100
0010
0100
0010
0000
0000
0000
,
1000
0000
0000
0000
0100
0000
0000
0000
0010
0100
0010
0100
0010
0000
0000
0000
,
0010
0000
0000
0000
0010
0000
0000
0000
0100
0010
0100
0010
0100
0000
0000
0000
,
0010
0000
0000
0000
0010
0000
0000
0000
0100
0010
0100
0010
0100
0000
0000
0000
,
1000
0000
0100
0001
0000
0100
0001
0000
,
0001
0010
0100
0000
0100
0100
0010
0100
,
0011
0000
0100
1000
0000
1000
0100
0000
,
0001
0100
1000
0010
0100
0001
0100
0000
,
1010
0000
0000
0000
0100
0000
0010
0000
0000
0000
0010
0001
0010
0000
0000
0000
,
0001
0001
0100
0000
1000
0100
0010
0100
,
0011
0000
0010
1000
0000
0010
1000
0000
,
0001
0001
0100
0100
0010
0001
0100
0000
,
1100
0101
0011
1010
,
1100
1010
0011
0101
,
1000
0100
0001
0100
0010
0100
1000
0100
,
0001
0010
1000
0100
0001
0010
1000
0100
,
0101
0011
1010
1100
,
0101
1100
1010
0011
,
0001
0010
1000
0010
0100
0010
0001
0010
,
1000
0100
0001
0010
1000
0100
0001
0010
,
0100
0000
1100
0000
0100
1000
0100
0000
,
0010
0000
0011
0000
0010
0001
0010
0001
,
0101
0000
1100
0000
1000
0100
0001
0100
,
0110
0000
1001
0000
1000
0010
0001
0010
,
0001
0100
0001
0100
1000
0100
1000
0100
,
1000
0010
1000
0010
0001
0010
0001
0010
,
0100
0010
0100
0010
0001
1000
0001
1000
,
0010
0000
0100
0000
0010
0000
0100
0000
1000
0100
1000
0100
1000
0001
1000
0001
,
0101
0000
1010
0000
0101
0001
0010
0000
,
0101
0000
1010
0000
0101
0100
1000
0000
,
1100
0000
0011
0000
1100
1000
0010
0000
,
1100
0000
0011
0000
1100
1000
0001
0000
,
0001
0010
0001
0100
0001
0010
0001
0100
,
1000
0010
1000
0100
1000
0010
1000
0100
,
0001
0010
0100
1000
0001
0010
0100
1000
,
1000
0100
0010
0001
1000
0100
0010
0001
,
1100
0001
0100
0001
0100
0001
0100
0000
,
0101
1000
0100
1000
0100
1000
0100
0000
,
1010
0001
0010
0001
0010
0001
0010
0000
,
0011
1000
0010
1000
0010
1000
0010
0000
,
1100
0100
0010
0100
0001
0001
0001
0000
,
0101
0100
0010
0100
1000
1000
1000
0000
,
1000
0100
0010
0100
1000
0100
0010
0000
,
0001
0100
0010
0100
0001
0100
0010
0000
,
1000
0100
1100
0000
0000
0100
1100
0000
,
0001
0100
0101
0000
0000
0100
0101
0000
,
1000
0010
1010
0000
0000
0010
1010
0000
,
0001
0010
0011
0000
0000
0010
0011
0000
,
1000
0001
1001
0000
0000
0001
1001
0000
,
0001
1000
1001
0000
0000
1000
1001
0000
,
0010
0100
0110
0000
0000
0100
0110
0000
,
0100
0010
0110
0000
0000
0010
0110
0000
,
1000
0010
0100
0001
0010
0100
1000
0000
,
0001
0010
0100
1000
0010
0100
0001
0000
,
0010
0100
0010
0100
0010
0010
0010
0000
,
0010
0100
0010
0100
0010
0010
0110
0000
,
1000
0100
1000
0100
0001
0100
0001
0000
,
0001
0100
0001
0100
1000
0100
1000
0000
,
0010
1000
0010
1000
0010
0001
0010
0000
,
0010
0001
0010
0001
0010
1000
0010
0000
,
1000
0100
1000
0100
0000
0100
1000
0000
,
0010
0001
0100
1000
0010
0001
0100
1000
,
0010
0001
0010
0001
0000
0001
0010
0000
,
0010
1000
0100
0001
0010
1000
0100
0001
,
0001
0100
0001
0100
0000
0100
0001
0000
,
1000
0100
0001
0010
1000
0100
0001
0010
,
0010
1000
0010
1000
0000
1000
0010
0000
,
0001
0100
1000
0010
0001
0100
1000
0010
,
1001
0000
0100
0000
1000
0100
0110
0000
;

//---------------dance-single - ----------------
#NOTES:
     dance-single:
     :
     Medium:
     8:
     0.547,0.598,0.782,0.198,0.000:
1010
0010
0000
0010
,
1100
0100
0000
0100
,
0011
0010
0000
0010
,
0101
0100
0000
0100
,
1001
0001
0000
1000
,
1001
1000
0000
0100
,
1001
0001
0000
1010
,
0101
0011
0000
0011
,
1100
1010
0000
0110
,
0011
0011
0000
0110
,
1010
1010
0000
1001
,
0110
0110
0000
1000
,
0200
0320
0032
0013
,
0200
0320
2030
3100
,
2000
0100
3010
0001
,
0002
0100
0013
1000
,
0020
0000
0030
0200
0000
0300
1000
0000
,
0001
0000
0001
0000
1000
0100
1000
0000
,
0020
0000
0030
0200
0000
0300
0001
0000
,
1000
0000
1000
0000
0001
0100
0001
0000
,
2000
0000
3000
0200
0000
0300
0001
0000
,
0001
0100
1000
0000
1000
0010
0001
0000
,
0002
0000
0003
0020
0000
0030
1000
0000
,
1000
0010
0001
0000
0001
0100
1000
0000
,
1000
1100
1000
1100
,
0001
0101
0001
0101
,
1000
1010
1000
1010
,
0001
0011
0001
0011
,
1000
1001
0010
0110
,
0001
1001
0100
0110
,
1000
1001
0010
0110
,
0001
1001
0100
0110
,
1000
0000
0010
0000
0100
0001
0100
0000
,
0001
0000
0010
0000
0100
1000
0100
0000
,
1000
0100
0001
0100
0010
0010
0010
0000
,
0001
0100
1000
0100
0010
0010
0010
0000
,
1010
0010
0000
1010
,
0011
0010
0000
0011
,
1100
0100
0000
1100
,
0101
0100
0000
0101
,
1000
0000
1000
0000
0100
1000
0100
0000
,
0001
0000
0001
0000
0100
0001
0100
0000
,
1000
0000
0010
0000
1000
0010
1000
0000
,
0001
0000
0010
0000
0001
0010
0001
0000
,
1000
0000
1100
0000
0100
1000
0100
0000
,
0001
0000
0101
0000
0100
0001
0100
0000
,
1000
0000
0110
0000
1000
0010
1000
0000
,
0001
0000
0110
0000
0001
0010
0001
0000
,
1100
0000
0001
0000
0100
0001
0100
0000
,
0101
0000
1000
0000
0100
1000
0100
0000
,
1010
0000
0001
0000
0010
0001
0010
0000
,
0011
0000
1000
0000
0010
1000
0010
0000
,
1000
0100
0100
0000
1000
0100
0100
0000
,
0001
0101
0001
0101
,
0001
0100
0100
0000
0001
0100
0100
0000
,
1000
1100
1000
1100
,
0010
1000
0010
0000
0000
0010
0001
0000
,
0010
0001
0010
0000
0000
0010
1000
0000
,
0100
1000
0100
0000
0000
0100
1000
0000
,
0100
0001
0100
0000
0000
0100
0001
0000
,
1000
0001
1000
0000
0000
0001
1000
0000
,
0001
1000
0001
0000
0000
1000
0001
0000
,
0010
0100
0010
0000
0000
0100
0010
0000
,
0010
0100
0010
0000
0110
0000
0110
0000
,
1010
0101
0011
1100
,
1010
0101
0011
1100
,
1010
0101
0011
1100
,
1001
0110
1001
0110
,
1000
0100
0010
0000
0001
0100
0010
0000
,
1000
0100
0010
0000
0001
0100
0010
0000
,
1000
0010
0100
0000
0001
0010
0100
0000
,
1000
0010
0100
0000
0001
0010
0100
0000
,
2000
0000
3000
0020
0000
0030
0011
0000
,
0110
0110
1010
1010
,
0002
0000
0003
0020
0000
0030
1010
0000
,
0110
0110
0011
0011
,
0200
0000
0300
0200
0000
0300
0010
0000
,
0011
0110
1010
0110
,
0020
0000
0030
0020
0000
0030
0100
0000
,
1010
0110
0011
0110
,
1001
1000
0001
1000
;

//---------------dance-single - ----------------
#NOTES:
     dance-single:
     :
     Easy:
     6:
     0.315,0.362,0.370,0.132,0.000:
0000
0000
0000
0000
,
0000
0000
0000
0000
,
0000
0000
0000
0000
,
0000
0000
0000
0000
,
0000
1000
0000
1100
,
0000
1000
0000
1100
,
0000
0100
0000
1100
,
0000
0100
0000
1100
,
0000
0001
0000
0101
,
0000
0001
0000
0101
,
0000
0100
0000
0101
,
0000
0100
0000
0101
,
0000
0010
0000
0110
,
0000
0010
0000
0110
,
0000
0100
0000
0110
,
0000
0100
0000
0110
,
0200
0300
0002
0003
,
0010
1000
0010
1000
,
0200
0300
2000
3000
,
0010
0001
0010
0001
,
0200
0300
0002
0003
,
0010
1000
0010
1000
,
0200
0300
2000
3000
,
0010
0001
0010
0001
,
1000
1000
1000
1000
,
1000
0000
1000
0000
,
0001
0001
0001
0001
,
0001
0000
0001
0000
,
1010
1000
0010
1000
,
1010
0000
1010
0000
,
0011
0001
0010
0001
,
0011
0000
0011
0000
,
1000
0001
0000
0001
,
1000
0001
0000
0001
,
1000
0010
0000
0010
,
1000
0010
0000
0010
,
1000
0001
0000
0001
,
1000
0001
0000
0001
,
1000
0010
0000
0010
,
1000
0010
0010
0010
,
0101
0001
0010
0100
,
1000
0000
1000
0000
,
1100
1000
0100
0010
,
0001
0000
0001
0000
,
1001
0010
0100
0010
,
0110
0000
0110
0000
,
1001
0100
0010
0100
,
0110
0000
0110
0000
,
1100
0010
0001
0010
,
1100
0000
1100
0000
,
0101
0010
1000
0010
,
0101
0000
0101
0000
,
1000
0100
0001
0100
,
1000
0000
1000
0000
,
0001
0100
1000
0100
,
0001
0000
0001
0010
,
0000
0011
0000
0011
,
0000
0001
0000
0001
,
0000
0011
0000
0011
,
0000
0010
0000
0010
,
0000
1010
0000
1010
,
0000
1000
0000
1000
,
0000
1010
0000
1010
,
0000
0010
0000
0010
,
0000
1001
0000
1001
,
0000
1000
0000
0001
,
0000
1001
0000
1001
,
0000
0001
0000
1000
,
0010
0100
0000
0100
,
0100
0010
0000
0010
,
0001
1000
0000
1000
,
0001
1000
0000
1000
,
0020
0030
2000
3000
,
0100
0001
0100
0001
,
0020
0030
0002
0003
,
0100
1000
0100
1000
,
0020
0030
2000
3000
,
0100
0001
0100
0001
,
0020
0030
0002
0003
,
0100
1000
0100
1000
,
1001
0000
0000
0000
;
