#TITLE:Love is Eternity;
#SUBTITLE:;
#ARTIST:Kors K;
#TITLETRANSLIT:;
#SUBTITLETRANSLIT:;
#ARTISTTRANSLIT:;
#GENRE:;
#CREDIT:DDR Addict;
#MENUCOLOR:GREEN;
#METERTYPE:DDR X;
#BANNER:Love is Eternity-banner.png;
#BACKGROUND:Love is Eternity-bg.png;
#LYRICSPATH:;
#CDTITLE:;
#MUSIC:Song.mp3;
#OFFSET:-0.099;
#SAMPLESTART:63.517;
#SAMPLELENGTH:15.000;
#SELECTABLE:YES;
#LISTSORT:;
#DISPLAYBPM:140.000;
#BPMS:0.000=140.000,144.000=70.000,148.000=140.000,245.500=140.000;
#STOPS:;
#BGCHANGES:;
#ATTACKS:;

//---------------dance-single - ----------------
#NOTES:
     dance-single:
     :
     Beginner:
     4:
     0.101,0.142,0.089,0.020,0.000:
0000
0000
0000
0000
,
1000
0000
0000
0000
,
0000
0000
0000
0000
,
0000
0000
0000
0000
,
0000
0000
0000
0000
,
1001
0000
0000
0000
,
0000
0000
0000
0000
,
0000
0000
0000
0000
,
0000
0000
0000
0000
,
0001
0000
0000
0000
,
0000
0000
0000
0000
,
0000
0000
0000
0000
,
1001
0000
0000
0000
,
1000
0000
1000
0000
,
1000
0000
1000
0000
,
0001
0000
0001
0000
,
0001
0000
0001
0000
,
0010
0000
0010
0000
,
0010
0000
0010
0000
,
0100
0000
0100
0000
,
0100
0000
0100
0000
,
1000
0000
0100
0000
,
0010
0000
0001
0000
,
0001
0000
0100
0000
,
0010
0000
1000
0000
,
1001
0000
0000
0000
,
0000
0000
0000
0000
,
1000
0000
0100
0000
,
0010
0000
0100
0000
,
0001
0000
0000
0000
,
0000
0000
0000
0000
,
1000
0000
0000
0000
,
0001
0000
0000
0000
,
1000
0000
0000
0000
,
0000
0000
0000
0000
,
0001
0000
0000
0000
,
1001
0000
0000
0000
,
1000
0000
0100
0000
,
1000
0000
0100
0000
,
0001
0000
0010
0000
,
0100
0000
1000
0000
,
0001
0000
0100
0000
,
0001
0000
0100
0000
,
1000
0000
0010
0000
,
0100
0000
0001
0000
,
1001
0000
0000
0000
,
0000
0000
0000
0000
,
1001
0000
0000
0000
,
0000
0000
0000
0000
,
0110
0000
0000
0000
,
0000
0000
0000
0000
,
0110
0000
0000
0000
,
0000
0000
0000
0000
,
2002
0000
0000
0000
,
0000
0000
0000
0000
,
0000
0000
0000
0000
,
0000
0000
0000
0000
,
3003
0000
0000
0000
;

//---------------dance-single - ----------------
#NOTES:
     dance-single:
     :
     Hard:
     12:
     0.593,0.651,0.298,0.209,0.243:
0000
0000
0000
0000
,
1000
0000
0000
0100
1000
0000
0000
0000
0000
0000
0000
0100
1000
0000
0000
0000
,
0001
0000
0000
0100
0001
0000
0000
0000
0000
0000
0000
0100
0001
0000
0000
0000
,
1000
0000
0000
0100
1000
0000
0000
0000
0000
0000
0000
0100
1000
0000
0000
0000
,
0001
0000
0000
0100
0001
0000
0010
0000
0100
0000
0001
0000
0010
0000
0000
0000
,
1000
0100
1000
0010
0100
0001
0001
0000
,
0001
0100
0001
0010
0100
1000
1000
0000
,
1000
0010
0100
0001
0010
0001
0010
0000
,
0001
0010
0100
1000
0010
1000
0010
0000
,
1010
0100
0001
0010
0100
1000
0100
0000
,
0011
0100
1000
0010
0100
0001
0100
0000
,
1001
0010
0001
0010
1000
0100
0001
0000
,
1001
0010
1000
0010
0001
0100
1000
0000
,
1000
0000
0000
0010
0000
0000
0001
0000
0000
0100
0000
0000
1000
0000
1000
0000
,
0100
0000
0001
0000
0000
0010
0000
0000
0100
0000
0000
1000
0000
0000
1001
0000
,
1000
0000
0000
0010
0000
0000
0001
0000
0000
0100
0000
0000
1000
0000
1000
0000
,
0100
0000
0001
0000
0000
0010
0000
0000
0100
0000
0000
1000
0000
0000
1001
0000
,
0001
0000
0000
0010
0000
0000
1000
0000
0000
0100
0000
0000
0001
0000
0001
0000
,
0100
0000
1000
0000
0000
0010
0000
0000
0100
0000
0000
0001
0000
0000
1001
0000
,
1000
0100
0000
0000
0001
0000
0010
0000
0100
0000
0010
0000
0001
0000
0000
0000
,
1000
0000
0000
0001
0000
0000
1000
0000
0010
0000
0100
0000
0001
0000
0000
0000
,
1001
0000
0100
0000
1000
0000
0010
0000
0100
0001
0000
0000
0010
0000
0000
0100
,
0000
0000
1000
0000
0000
0100
0000
0000
0001
0000
0000
0011
0000
0000
0100
0000
,
0010
0000
0100
0000
0001
0000
0010
0000
0100
1000
0000
0000
0010
0000
0000
0100
,
0000
0000
0001
0000
0000
0100
0000
0000
1000
0000
0000
1010
0000
0000
0001
0000
,
0010
0000
0100
0000
0001
0000
1000
0000
0010
1000
0000
0000
0110
0000
0000
0001
,
0000
0000
1000
0000
0000
0011
0000
0000
0100
0000
0000
0010
0000
0000
0001
0000
,
1000
0010
0000
0000
0000
0000
0000
0000
0001
0100
0000
0000
0000
0000
0000
0000
,
0010
1000
0000
0000
0010
1000
0000
0000
0100
0001
0000
0000
0100
0001
0000
0000
,
1000
0100
0010
0100
0001
0100
0010
0100
,
1000
0010
0200
0301
1000
0010
0200
0301
,
0001
0100
0010
0100
1000
0100
0010
0100
,
0001
0010
0200
1300
0001
0010
0200
1300
,
1100
0010
0001
0001
0100
1000
0100
0000
,
0101
0010
1000
1000
0100
0001
0100
0000
,
1010
0010
0001
0000
0011
0010
1000
0000
,
1001
0000
0000
0000
0000
0000
0000
0000
0001
0100
0001
1001
1000
0100
1000
1001
,
1000
0010
0002
0013
1000
0010
0002
0013
,
0001
0100
2000
3100
0001
0100
2000
3100
,
1010
0001
0001
0001
0011
1000
1000
1000
,
0001
0100
1000
0100
0010
0001
0100
0000
,
0001
1000
0001
0010
1000
0001
1000
0010
,
1000
0001
1000
0010
1000
0001
1000
0001
,
1001
1000
0100
0000
1001
0001
0100
0000
,
1000
0010
0000
0000
0001
0010
0000
0000
1000
0100
0000
0000
0001
0100
0000
0000
,
1000
0100
1000
0010
0001
0010
1000
0000
,
0001
0100
0001
0010
1000
0010
0001
0000
,
1000
0010
1000
0001
0010
1000
0001
0000
,
0001
0010
0001
1000
0010
0001
1000
0000
,
0110
0001
0010
0001
1000
0100
0001
0000
,
0110
1000
0010
1000
0001
0100
1000
0000
,
1001
1000
0100
0001
1001
0001
0100
1000
,
1100
0001
0000
0000
0000
0000
0000
0000
0101
1000
0000
0000
0000
0000
0000
0000
,
2000
3020
0230
0302
,
2000
3000
2000
3000
2000
3000
2003
3000
,
0022
0030
0200
0300
,
2000
3000
0200
0300
,
0013
0000
0000
0000
;

//---------------dance-single - Copied from----------------
#NOTES:
     dance-single:
     Copied from:
     Challenge:
     14:
     0.703,0.736,0.397,0.209,0.393:
0000
0000
0000
0000
,
1000
0000
1000
0100
1000
0000
0000
0000
0000
0000
1000
0100
1000
0000
0000
0000
,
0001
0000
0001
0100
0001
0000
0000
0000
0000
0000
0001
0100
0001
0000
0000
0000
,
1000
0000
1000
0100
1000
0000
0000
0000
0000
0000
1000
0100
1000
0000
0000
0000
,
0001
0000
0001
0100
0001
0000
0010
0000
0100
0000
0001
0000
0010
0000
0000
0000
,
1000
0000
0100
0000
1000
0000
0010
0100
0001
0000
0001
0000
0001
0000
0000
0000
,
0001
0000
0100
0000
0001
0000
0010
0100
1000
0000
1000
0000
1000
0000
0000
0000
,
1000
0000
0010
0000
0100
0000
0001
0010
0100
0000
0001
0000
0010
0000
0000
0000
,
0001
0000
0010
0000
0100
0000
1000
0010
0100
0000
1000
0000
0010
0000
0000
0000
,
1010
0100
0001
0010
0100
1000
0100
0000
,
0011
0100
1000
0010
0100
0001
0100
0000
,
1001
0010
0001
0010
1000
0100
0001
0000
,
1000
0100
0010
0001
0010
0100
0010
0100
1000
0010
0100
0001
0100
0010
0100
0010
,
1000
0000
0000
0010
0000
0000
0001
0000
0000
0100
0000
0000
1000
0000
1000
0000
,
0100
0000
0001
0000
0000
0010
0000
0000
0100
0000
0000
1000
0000
0000
1001
0000
,
1000
0000
0000
0010
0000
0000
0001
0000
0000
0100
0000
0000
1000
0000
1000
0000
,
0100
0000
0001
0000
0000
0010
0000
0000
0100
0000
0000
1000
0000
0000
1001
0000
,
0001
0000
0000
0010
0000
0000
1000
0000
0001
0100
0000
0000
0001
0000
0001
0000
,
0100
0000
1000
0000
0001
0010
0000
0000
0100
0000
0000
0001
0000
0000
1001
0000
,
1000
0100
0000
0000
0001
0000
0010
0000
0100
0000
0010
0000
0001
0100
0000
0000
,
1000
0000
0000
0001
0000
0000
1000
0000
0010
0001
0100
0001
0010
0100
0001
0100
,
0001
0000
0100
0000
1000
0000
0010
0000
0100
0001
0000
0000
0010
0000
0000
0100
,
0000
0000
1000
0000
0000
0100
0000
0000
0001
0000
0000
0011
0000
0000
0100
0000
,
0010
0000
0100
0000
0001
0000
0010
0000
0100
1000
0000
0000
0010
0000
0000
0100
,
0000
0000
0001
0000
0000
0100
0000
0000
1000
0000
0000
1010
0000
0000
0001
0000
,
0010
0000
0100
0000
0001
0000
1000
0000
0010
1000
0000
0000
0110
0000
0000
0001
,
0000
0000
1000
0000
0000
0011
0000
0000
0100
0000
0000
0010
0000
0000
0001
0000
,
1000
0010
0000
0000
0001
0000
0100
0001
0100
0001
0100
0000
0010
0100
0000
0000
,
1000
0100
0010
0001
0010
0100
0010
0100
0001
0010
0100
1000
0100
0010
0100
0010
,
1000
0100
0010
0100
0001
0100
0010
0100
,
1000
0010
0200
0301
1000
0010
0200
0301
,
0001
0100
0010
0100
1000
0100
0010
0100
,
0001
0010
0200
1300
0001
0010
0200
1300
,
1100
0010
0001
0001
0100
1000
0100
0101
,
0101
0010
1000
1000
0100
0001
0100
1010
,
1010
0010
0001
0011
0011
0010
1000
1001
,
1001
0000
0000
0000
0000
0000
0000
0000
0000
0000
0000
0000
0000
0000
0000
0000
0001
0100
0001
0000
0001
0000
1001
0000
1000
0100
0010
0001
1000
0000
1001
0000
,
1000
0010
0002
0013
1000
0010
0002
0013
,
0001
0100
2000
3100
0001
0100
2000
3100
,
1010
0001
0001
0011
0011
1000
1000
1001
,
0001
0100
1000
0100
0010
0001
0100
0101
,
0001
1000
0001
0010
1000
0001
1000
0010
,
1000
0001
1000
0010
1000
0001
1000
0001
,
1001
1000
0100
0001
1001
0001
0100
1000
,
1000
0010
0001
0100
0001
0010
1000
0100
1000
0100
0010
0001
1000
0100
0010
0001
,
1000
0100
1000
0010
0001
0010
1000
0000
,
0001
0100
0001
0010
1000
0010
0001
0110
,
1000
0010
1000
0001
0010
1000
0001
0110
,
0001
0010
0001
1000
0010
0001
1000
0110
,
0110
0001
0010
0001
1000
0100
0001
0110
,
0110
1000
0010
1000
0001
0100
1000
1001
,
1001
1000
0100
0001
1001
0001
0100
1000
,
1100
0001
0100
0000
0000
0000
0000
0000
0101
1000
0100
0000
0000
0000
0000
0000
,
2000
3020
0230
0302
,
2000
3000
2000
3000
2000
3000
2003
3000
,
0022
0030
0200
0300
,
2000
3000
0200
0300
,
0013
0000
0000
0000
;

//---------------dance-single - ----------------
#NOTES:
     dance-single:
     :
     Medium:
     7:
     0.402,0.538,0.507,0.219,0.025:
0000
0000
0000
0000
,
0000
1000
0000
0110
,
0000
0001
0000
0110
,
0000
1000
0000
0110
,
0000
0001
0000
0110
,
1000
0100
0001
0100
,
1000
0010
0001
0010
,
1000
0100
0001
0100
,
1000
0010
0001
0010
,
0100
1000
0100
0010
,
0100
0001
0100
0010
,
0100
1000
0100
0010
,
0110
0011
0110
1010
,
0010
0000
0000
0001
0000
0000
0000
0000
0010
0000
0000
0000
1000
0000
0000
0000
,
0100
0000
0000
0001
0000
0000
0000
0000
0100
0000
0000
0000
1000
0000
0000
0000
,
0100
0000
0000
1000
0000
0000
0000
0000
0100
0000
0000
0000
0001
0000
0000
0000
,
0010
0000
0000
1000
0000
0000
0000
0000
0010
0000
0000
0000
0001
0000
0000
0000
,
1001
1000
0100
1000
,
1001
0001
0100
0001
,
1001
0010
1000
0100
,
1001
0010
0001
0100
,
0010
0011
0010
0110
,
0010
1010
0010
0110
,
0100
0101
0100
0110
,
0100
1100
0100
0110
,
2000
0010
0100
3001
,
0002
0010
0100
1003
,
1002
0013
2001
3010
,
1002
0103
2001
3100
,
2000
0000
3000
0010
,
0002
0000
0003
0010
,
2000
0000
3000
0100
,
0002
0000
0003
0100
,
0220
0000
0330
0110
,
2002
0000
3003
1001
,
2020
3030
0202
0303
,
0022
0033
0000
0000
0100
0000
1000
0000
,
0100
0000
0100
0000
0010
0001
0010
0000
,
0010
0100
1000
0100
0010
0100
0001
0000
,
0100
0000
0100
0000
0010
1000
0010
0000
,
0010
0100
0001
0100
0010
0100
1000
0000
,
1001
0000
0101
0000
1000
0100
1000
0000
,
1001
0000
1100
0000
0001
0100
0001
0000
,
1000
0000
0000
0000
0100
0000
0000
0010
0000
0000
0000
0000
0001
0000
0000
0000
,
0001
0000
1000
0000
0001
1000
0001
0000
,
1000
0100
0001
0000
0001
0100
1000
0000
,
1000
0010
0001
0000
0001
0010
1000
0000
,
1001
1000
0001
0000
1001
0001
1000
0000
,
0110
0010
0100
0000
0110
0100
0010
0000
,
1010
0100
0001
0010
0100
1000
1001
0000
,
0011
0100
1000
0010
0100
0001
1001
0000
,
1100
0000
0101
0000
,
1010
0011
0101
1100
,
2002
0000
0000
0000
,
0000
0000
0000
0000
,
0000
0000
0000
0000
,
0000
0000
0000
3003
,
1001
0000
0000
0000
;

//---------------dance-single - ----------------
#NOTES:
     dance-single:
     :
     Easy:
     5:
     0.182,0.282,0.099,0.060,0.000: // measure 1
0000
0000
0000
0000
,  // measure 2
0000
1000
0000
1000
,  // measure 3
0000
1000
0000
1000
,  // measure 4
0000
1000
0000
1000
,  // measure 5
0000
1000
0000
1000
,  // measure 6
0000
0001
0000
0001
,  // measure 7
0000
0001
0000
0001
,  // measure 8
0000
0001
0000
0001
,  // measure 9
0000
0001
0000
0001
,  // measure 10
0000
0010
0000
0010
,  // measure 11
0000
0010
0000
0010
,  // measure 12
0000
0100
0000
0100
,  // measure 13
0000
0100
0000
0100
,  // measure 14
1000
0000
0001
0000
,  // measure 15
1000
0000
0000
0000
,  // measure 16
0001
0000
1000
0000
,  // measure 17
0001
0000
0000
0000
,  // measure 18
1001
0000
1000
0000
,  // measure 19
0001
0000
0000
0000
,  // measure 20
0110
0000
0010
0000
,  // measure 21
0100
0000
0000
0000
,  // measure 22
1100
0000
0100
0000
,  // measure 23
0001
0000
0000
0000
,  // measure 24
0101
0000
0100
0000
,  // measure 25
1000
0000
0000
0000
,  // measure 26
0110
0000
0000
0000
,  // measure 27
0011
0000
0000
0000
,  // measure 28
0110
0000
1010
0000
,  // measure 29
0200
0302
0023
2030
,  // measure 30
3001
0000
0000
0000
,  // measure 31
1000
0000
0000
0000
,  // measure 32
0001
0000
0000
0000
,  // measure 33
1000
0000
0000
0000
,  // measure 34
0010
0000
0000
0000
,  // measure 35
0100
0000
0000
0000
,  // measure 36
0010
0000
0000
0000
,  // measure 37
0110
0000
0000
0000
,  // measure 38
0001
0100
0001
0000
,  // measure 39
1000
0100
1000
0000
,  // measure 40
0001
0010
0001
0000
,  // measure 41
1000
0010
1000
0000
,  // measure 42
0010
0010
0010
0000
,  // measure 43
0010
0010
0010
0000
,  // measure 44
0100
0100
0010
0010
,  // measure 45
0100
0100
0001
1000
,  // measure 46
1000
0100
1000
0000
,  // measure 47
0001
0100
0001
0000
,  // measure 48
1000
0010
1000
0000
,  // measure 49
0001
0010
0001
0000
,  // measure 50
0010
0010
0010
0000
,  // measure 51
0100
0100
0100
0010
,  // measure 52
0100
0100
0010
0010
,  // measure 53
0100
0100
0001
1000
,  // measure 54
2002
0000
0000
0000
,  // measure 55
0000
0000
0000
0000
,  // measure 56
0000
0000
0000
0000
,  // measure 57
0000
0000
0000
3003
;
