#TITLE:Las De La Intuicion;
#SUBTITLE:;
#ARTIST:Shakira;
#TITLETRANSLIT:;
#SUBTITLETRANSLIT:;
#ARTISTTRANSLIT:;
#GENRE:;
#CREDIT:;
#MENUCOLOR:;
#METERTYPE:DDR X;
#BANNER:Las De La Intuicion.png;
#BACKGROUND:Las De La Intuicion-bg.png;
#LYRICSPATH:;
#CDTITLE:;
#MUSIC:Las De La Intuicion.ogg;
#OFFSET:-0.243;
#SAMPLESTART:74.080;
#SAMPLELENGTH:12.000;
#SELECTABLE:YES;
#LISTSORT:;
#DISPLAYBPM:130.000;
#BPMS:0.000=130.000;
#STOPS:;
#BGCHANGES:0.000=Las De La Intuicion.avi=1.000=0=0=0,
99999=-nosongbg-=1.000=0=0=0 // don't automatically add -songbackground-
;
#ATTACKS:;

//---------------dance-single - ----------------
#NOTES:
     dance-single:
     :
     Beginner:
     2:
     0.073,0.133,0.092,0.082,0.000:
0000
0000
0000
0000
,
0000
0000
0000
0000
,
0000
0000
0000
0000
,
0000
0000
0000
0000
,
1000
0000
0000
0000
,
0000
0000
0000
0000
,
0000
0000
0000
0000
,
0000
0000
0000
0000
,
0001
0000
0000
0000
,
0000
0000
0000
0000
,
1000
0000
0000
0000
,
0000
0000
0000
0000
,
0010
0000
0000
0000
,
0000
0000
0000
0000
,
0100
0000
0000
0000
,
0010
0000
1001
0000
,
0010
0000
0000
0000
,
0000
0000
0000
0000
,
0100
0000
0000
0000
,
0000
0000
0000
0000
,
0010
0000
0000
0000
,
0000
0000
0000
0000
,
0000
0000
0000
0000
,
0100
0000
1001
0000
,
0100
0000
0000
0000
,
0001
0000
0000
0000
,
0100
0000
0000
0000
,
1000
0000
0000
0000
,
0010
0000
0000
0000
,
0001
0000
0000
0000
,
0010
0000
0000
0000
,
1000
0000
0000
0000
,
2002
0000
0000
0000
,
0000
0000
0000
3003
,
0000
0000
0000
0000
,
0000
0000
0000
0000
,
2002
0000
0000
0000
,
0000
0000
0000
3003
,
0000
0000
0000
0000
,
0000
0000
0000
0000
,
0220
0000
0000
0000
,
0000
0000
0000
0330
,
0000
0000
0000
1000
0000
0000
0000
0001
,
0000
0000
0000
1000
0000
0000
0000
0000
,
0220
0000
0000
0000
,
0000
0000
0000
0330
,
0000
0000
0100
0000
,
0100
0000
0100
0000
,
1001
0000
0000
0000
,
0000
0000
0000
0000
,
1001
0000
0000
0000
,
0000
0000
0000
0000
,
1001
0000
0000
0000
;

//---------------dance-single - ----------------
#NOTES:
     dance-single:
     :
     Hard:
     10:
     0.449,0.460,0.431,0.000,0.000:
0000
0000
0000
0000
,
0000
0000
0000
0000
,
1000
0100
0010
0001
0000
0000
0000
0000
,
0001
0100
0010
1000
0000
0000
0000
0000
,
1000
0001
0010
0100
0000
0000
0000
0000
,
0001
1000
0100
0010
0000
0000
0000
0000
,
0010
0100
1000
0001
0000
0000
0000
0000
,
0100
0010
0001
1000
0000
0000
0000
0000
,
0100
0100
1000
1000
0001
0100
0001
0100
,
0000
1000
0000
1100
0000
0000
0100
0101
,
0000
0000
0000
0000
0000
1000
0100
0001
,
0000
0001
0100
1000
0000
1000
0010
0001
,
1001
0000
0000
0000
1000
0100
1000
0001
,
0100
0010
0000
0100
0000
0000
1000
0110
,
0000
0000
0000
0000
,
1100
0101
0011
1010
,
1000
0000
0100
0000
0010
0001
0010
0001
,
0000
0100
0000
0001
0000
0100
0010
1010
,
0000
0000
0000
0000
0000
1000
0001
1000
,
0000
0001
1000
0001
0000
1000
0001
1000
,
1001
0000
0000
0000
1000
0100
0010
0001
,
0000
0001
0010
0100
0000
0001
0010
0100
,
0000
0000
0000
0000
,
1010
0101
0011
1100
,
1000
0100
1100
0000
0001
0100
0101
0000
,
1000
0010
1010
0000
0001
0010
0011
0000
,
1000
0001
0101
0000
0001
1000
1100
0000
,
1000
0001
0011
0000
0001
1000
1010
0000
,
1000
0100
0110
0000
0001
0100
0110
0000
,
1000
0010
0110
0000
0001
0010
0110
0000
,
1000
0100
0010
0100
0001
0100
0010
0100
,
1000
0001
1000
0001
1000
0001
1000
0001
,
1000
0100
1000
0100
0000
0000
0100
0000
,
0001
0100
0001
0100
0000
0000
0100
0000
,
1001
0000
0000
1000
0100
1000
0000
0001
,
0100
0001
0000
1000
0010
1000
0001
0000
,
1000
0010
0100
0000
1000
0010
0100
0000
,
0001
0010
0100
0000
0001
0010
0100
0000
,
0110
0000
0000
1000
0010
1000
0000
0001
,
0010
0001
0000
1000
0100
1000
0001
0100
,
1001
0000
1100
0000
0001
0100
0001
0100
,
0000
0100
0001
0000
0100
1000
0100
1000
,
0100
0010
0000
0010
0001
0100
0000
0010
,
1000
0100
0000
0010
0001
0100
1000
0001
,
1001
1010
1001
0011
,
1000
0100
0010
0100
0001
0010
0001
0000
,
0001
0100
0010
0100
1000
0010
1000
0010
,
0001
0100
0010
1000
0001
0010
0100
0000
,
1100
0100
0100
0100
,
0101
0100
0100
0100
,
1100
0100
0100
0000
0100
0000
0100
0000
,
0101
0100
0100
0000
0100
0000
0100
0000
,
1001
1001
1001
1001
;

//---------------dance-single - ----------------
#NOTES:
     dance-single:
     :
     Medium:
     8:
     0.353,0.400,0.411,0.123,0.000:
0000
0000
0000
0000
,
0000
0000
0000
0000
,
1000
0000
0100
0001
0000
0000
0000
0000
,
0001
0000
0100
1000
0000
0000
0000
0000
,
1000
0000
0001
1000
0000
0000
0000
0000
,
0001
0000
1000
0001
0000
0000
0000
0000
,
0010
0000
0100
0010
0000
0000
0000
0000
,
0100
0000
0010
0100
0000
0000
0000
0000
,
0000
0000
0000
0000
1000
0000
0100
0010
,
0000
0001
0000
0001
0000
0000
0001
0000
,
0101
0000
0000
0000
0000
0001
0000
0100
,
0000
0010
0000
1000
0000
0001
0000
1000
,
1001
0000
0000
0000
1000
0100
0001
0000
,
0101
0000
0010
0000
1000
0000
0100
0001
,
0000
0000
0000
0000
,
1100
1100
0101
0101
,
1000
0100
1100
1100
,
0001
0100
0101
0101
,
2000
3000
0002
0003
,
2000
3020
0230
0302
,
1003
0001
0101
0101
,
0001
1000
1100
1100
,
0002
0003
2000
3000
,
0002
0023
0230
2300
,
3001
0101
0001
0101
,
1000
1100
1000
1100
,
0010
1100
0010
0101
,
1000
0100
1000
0000
0001
0100
0001
0000
,
0100
1010
0100
0011
,
0100
1001
0100
0010
,
1000
0010
1000
0000
0001
0010
0001
0000
,
1000
0100
0010
0001
0001
0010
0100
1000
,
0001
0000
0001
0000
1000
0100
1000
0000
,
1000
0000
1000
0000
0001
0100
0001
0000
,
1001
0000
0000
1000
1000
0000
0000
0001
,
0001
0000
0000
1000
1000
0000
0001
0000
,
1001
1000
0100
1000
,
1001
0001
0100
0001
,
1001
0000
0000
0010
0010
0000
0000
0100
,
0100
0000
0000
0010
0010
0000
0100
0000
,
0110
1000
0001
1000
,
0110
1000
0001
1000
,
0110
0000
0000
1000
0100
0000
0000
0001
,
0100
0000
0000
1000
0100
0000
0001
0000
,
0101
0010
1000
0010
,
1100
0010
0001
0010
,
1001
0000
1100
0000
,
0001
0100
0001
0100
,
0101
0001
0000
0001
,
1100
1000
0000
1000
,
0011
0001
0000
0001
,
1010
1000
0000
1000
,
1001
0000
0000
0000
;

//---------------dance-single - ----------------
#NOTES:
     dance-single:
     :
     Easy:
     5:
     0.194,0.239,0.103,0.174,0.000: // measure 1
0000
0000
0000
0000
,  // measure 2
0000
0000
0000
0000
,  // measure 3
0000
0000
0000
0000
,  // measure 4
0000
0000
0000
0000
,  // measure 5
2000
0000
0000
0000
,  // measure 6
0000
0000
0000
3000
,  // measure 7
0002
0000
0000
0000
,  // measure 8
0000
0000
0000
0003
,  // measure 9
0000
0000
0010
0001
,  // measure 10
0002
1000
1003
0000
,  // measure 11
0000
0000
0000
0010
,  // measure 12
2000
0001
3001
0000
,  // measure 13
0000
0000
0010
0100
,  // measure 14
0020
0100
0130
0000
,  // measure 15
0000
0000
0000
0000
,  // measure 16
0200
0320
0032
2003
,  // measure 17
3000
0110
0000
0110
,  // measure 18
0000
0011
0000
0011
,  // measure 19
0000
0110
0000
0110
,  // measure 20
0000
1010
0000
1010
,  // measure 21
1000
0000
0100
0000
,  // measure 22
0010
0001
0001
0000
,  // measure 23
0001
0000
0100
0000
,  // measure 24
0010
1000
1000
1000
,  // measure 25
0200
0000
0000
0300
,  // measure 26
0020
0000
0000
0030
,  // measure 27
0100
0000
1000
1000
,  // measure 28
0100
0000
0001
0001
,  // measure 29
0100
1000
0100
0000
,  // measure 30
0100
0001
0100
0000
,  // measure 31
0010
1000
0010
0000
,  // measure 32
0001
0100
0100
0100
,  // measure 33
0020
0000
0000
0030
,  // measure 34
0200
0000
0000
0300
,  // measure 35
0000
0000
0000
1000
0000
1000
0000
0001
,  // measure 36
0000
0001
0000
1000
0001
0000
0001
0000
,  // measure 37
2000
0000
0000
3000
,  // measure 38
0002
0000
0000
0003
,  // measure 39
0000
0000
0000
0010
0000
0010
0000
0100
,  // measure 40
0000
0100
0000
0010
0100
0000
0110
0000
,  // measure 41
1000
1000
1000
0000
,  // measure 42
1000
1000
1000
0000
,  // measure 43
0000
0000
0000
0001
0000
0001
0000
1000
,  // measure 44
0000
1000
0000
0001
0001
0000
0001
0000
,  // measure 45
0001
0001
0001
0000
,  // measure 46
1000
1000
1000
0000
,  // measure 47
0000
0000
0000
0001
0010
0000
0000
0100
,  // measure 48
1000
0100
0010
0001
,  // measure 49
2002
0000
0000
0000
,  // measure 50
0000
0000
0000
0000
,  // measure 51
0000
0000
0000
0000
,  // measure 52
0000
0000
0000
3003
;
