#TITLE:Jai Ho (You Are My Destiny);
#SUBTITLE:;
#ARTIST:A. R. Rahman covered by The Pussycat Dolls;
#TITLETRANSLIT:;
#SUBTITLETRANSLIT:;
#ARTISTTRANSLIT:;
#GENRE:;
#CREDIT:;
#MENUCOLOR:;
#METERTYPE:DDR X;
#BANNER:Jai Ho (You Are My Destiny).png;
#BACKGROUND:Jai Ho (You Are My Destiny)-bg.png;
#LYRICSPATH:;
#CDTITLE:;
#MUSIC:Jai Ho (You Are My Destiny).ogg;
#OFFSET:-0.722;
#SAMPLESTART:42.540;
#SAMPLELENGTH:12.000;
#SELECTABLE:YES;
#LISTSORT:;
#DISPLAYBPM:136.000;
#BPMS:0.000=136.220;
#STOPS:;
#BGCHANGES:-1.500=Jai Ho (You Are My Destiny).avi=1.000=0=0=0,
99999=-nosongbg-=1.000=0=0=0 // don't automatically add -songbackground-
;
#ATTACKS:;

//---------------dance-single - ----------------
#NOTES:
     dance-single:
     :
     Beginner:
     1:
     0.086,0.136,0.035,0.116,0.000:
0000
0000
0000
0000
,
0000
0000
0000
0000
,
0000
0000
0000
0000
,
0000
0000
0000
0000
,
1000
0000
0000
0000
,
0000
0000
0000
0000
,
0000
0000
0000
0000
,
0000
0000
0000
0001
,
0001
0000
0000
0000
,
0000
0000
0000
0000
,
1000
0000
0000
0000
,
0000
0000
0000
0001
,
0001
0000
0000
0000
,
0000
0000
0000
1000
,
1000
0000
0000
0000
,
0000
0000
0000
0010
,
0010
0000
0000
0000
,
0000
0000
0000
0000
,
0100
0000
0000
0000
,
0000
0000
0000
1000
,
1000
0000
0000
0000
,
0000
0000
0000
0001
,
0001
0000
0000
0000
,
0000
0000
0000
1000
,
0002
0000
0000
0000
,
0000
0000
0003
0001
,
2000
0000
0000
0000
,
0000
0000
3000
0010
,
0200
0000
0000
0000
,
0000
0300
0100
0220
,
0000
0000
0000
0000
,
0000
0000
0330
0001
,
2000
0000
0000
0000
,
0000
3000
0000
1000
,
0002
0000
0000
0000
,
0000
0000
0003
0100
,
0020
0000
0000
0000
,
0000
0000
0030
0010
,
0220
0000
0000
0000
,
0000
0000
0000
0330
,
1000
0000
0000
0000
,
1000
0000
0000
0000
,
1000
0000
0000
0000
,
1000
0000
0000
0000
,
0001
0000
0000
0000
,
0001
0000
0000
0000
,
0001
0000
0000
0000
,
1001
0000
0000
0000
;

//---------------dance-single - ----------------
#NOTES:
     dance-single:
     :
     Hard:
     11:
     0.505,0.462,0.289,0.185,0.127:
1000
0000
0000
1000
0000
0000
1000
0000
0010
0000
0000
0010
0000
0000
0010
0000
,
0001
0000
0000
0001
0000
0000
0001
0000
0100
0000
1000
0000
0100
0000
0000
0000
,
1000
0000
0000
1000
0000
0000
1000
0000
0010
0000
0000
0010
0000
0000
0010
0000
,
0001
0000
0000
0001
0000
0000
0001
0000
0100
0000
1000
0000
0100
0000
0000
0000
,
1000
0000
0000
0010
1000
0000
0000
1000
0100
0000
0000
0100
0001
0000
0000
0001
,
0010
0000
0000
0010
1000
0000
0001
0000
1000
0000
0000
0000
1001
0000
0000
0000
,
1000
0000
0000
1000
0100
0000
0000
0100
0001
0000
0000
0001
0010
0000
0000
0010
,
1000
0000
0000
1000
0100
0000
0000
0100
0001
0000
0000
0001
1000
0000
0000
0000
,
0001
0001
0000
0000
1000
1000
0000
0000
,
1000
0100
0010
0001
0100
0000
0100
0010
,
0001
0010
0001
0100
1000
0010
1000
0100
,
0010
1000
0010
0001
0100
0000
0110
0000
,
1001
0000
0000
0000
,
1000
0000
0000
1000
0000
0000
1000
0000
0001
0000
0000
0000
0110
0000
0000
0000
,
1001
0000
0000
0000
,
0001
0000
0000
0001
0000
0000
0001
0000
1000
0000
0000
0000
1001
0000
0000
0000
,
1000
1000
0000
0000
0001
0001
0000
0000
,
0001
0010
0100
1000
0100
0000
0100
0010
,
1000
0010
1000
0100
0001
0010
0001
0100
,
1000
0010
0001
0010
0100
0000
0110
0000
,
1001
0000
1000
0000
0100
0100
1000
0001
,
0000
0001
0001
0000
0100
0100
0100
0000
,
1000
0100
0100
0010
0010
0001
0001
0001
,
0000
1000
1000
0000
1100
0100
0010
0000
,
0022
0000
0033
0000
0100
1000
0100
0000
,
1000
0010
0100
0010
0001
0000
0001
0100
,
2200
0000
3300
0000
0100
0001
0100
0000
,
0001
0010
0100
0010
1000
0000
1000
0100
,
0202
0000
0303
0000
0000
1000
0100
0001
,
0100
0010
0100
0000
0000
0000
0110
0000
,
2002
0000
3003
0000
0000
0000
0000
1000
,
0000
0100
0000
0010
0000
0001
1000
0001
,
2200
0000
3300
0000
0010
0001
0010
0000
,
0100
1000
0100
0001
0010
0000
0010
0100
,
0022
0000
0033
0000
0000
1000
0100
0010
,
0100
0100
0001
0001
0011
0000
0101
0000
,
2200
0000
3300
0000
0100
0010
0100
0010
,
0001
0010
0001
0000
0100
0010
0100
0010
,
2000
0000
0000
3010
,
0001
0000
0100
0010
0100
0000
0000
0000
1000
0000
0100
0010
0100
0000
0000
0000
,
1000
0100
1000
0100
0010
0010
0010
0000
,
0001
0100
0001
0100
0010
0010
0010
0000
,
1000
0001
0100
0010
1000
0001
0100
0000
,
0001
1000
0010
0100
0001
1000
0010
0000
,
1010
0100
0001
0000
0011
0100
1000
0100
,
0010
0020
0000
0000
0000
0030
1001
0000
,
0110
0100
1000
0000
0110
0010
0001
0010
,
0110
0000
0000
0000
;

//---------------dance-single - ----------------
#NOTES:
     dance-single:
     :
     Medium:
     7:
     0.317,0.435,0.196,0.150,0.000:
1000
0100
0010
0010
,
0001
0100
0010
0010
,
1000
0010
0100
0100
,
0001
0010
0100
0100
,
1000
0001
1000
0000
0001
1000
0001
0000
,
1000
0100
0010
0001
0100
0000
0100
0000
,
0001
1000
0001
0000
1000
0001
1000
0000
,
0001
0010
0100
1000
0010
0100
0001
1000
,
1001
0000
0001
0000
,
1001
1000
1000
0000
,
1001
0000
0110
0000
,
1001
0000
0110
1000
,
0001
0000
0100
0000
0001
0100
0001
0000
,
1000
0000
0100
0000
1000
0100
1000
0100
,
1000
0000
0001
0000
1000
0001
1000
0000
,
0001
0000
1000
0000
0001
1000
0001
1000
,
0001
0000
1001
0000
,
1000
0000
1001
0000
,
0110
0010
0010
0000
,
0110
0100
0100
0001
,
1000
0000
0100
0000
0010
0000
0001
0010
,
0000
0010
0001
0000
0100
1000
0100
0000
,
1000
0000
0010
0000
0100
0001
0100
0000
,
0001
0000
0010
0000
0100
1000
0100
1000
,
0002
0000
0000
0000
,
0010
0100
0000
0103
,
2000
0000
0000
0000
,
0010
0100
0000
3100
,
0002
0000
0000
0000
,
0100
0010
0000
0013
,
0220
0000
0000
0000
,
0000
0000
0330
0110
,
2002
0000
0000
0003
,
0010
0100
0000
3100
,
2002
0000
0000
3000
,
0010
0100
0000
0103
,
2002
0000
0000
0003
,
0100
0010
0000
3001
,
0220
0000
0000
0000
,
0000
0000
0000
0330
,
1000
0100
0001
0001
,
0001
0100
1000
1000
,
1000
0010
0001
0001
,
0001
0010
1000
1000
,
0100
0010
0001
0100
,
0100
0010
1000
0100
,
0010
0100
0001
0010
,
0110
0000
0000
0000
;

//---------------dance-single - ----------------
#NOTES:
     dance-single:
     :
     Easy:
     5:
     0.203,0.272,0.104,0.104,0.000:
0000
0000
0000
0000
,
0000
0000
0000
0000
,
1000
0100
0000
0100
,
0001
0100
0000
0100
,
1000
0010
1000
0010
,
0001
0001
0001
0000
,
0001
0010
0001
0010
,
1000
1000
1000
0000
,
1001
0000
1000
0000
,
1001
0001
0001
0000
,
1001
0000
0001
0000
,
1001
1000
1000
0010
,
0110
0000
0000
0000
,
0000
0000
0000
0010
,
0110
0000
0000
0000
,
0000
0000
0000
0020
,
0130
0000
0100
0000
,
1000
0001
1000
0000
,
0100
0000
0100
0000
,
0001
1000
0001
0100
,
0110
0000
0000
0000
,
0000
0000
0000
0100
,
0110
0000
0000
0000
,
0000
0000
0000
1000
,
0002
0000
0000
0000
,
0100
0000
1003
1000
,
2000
0000
0000
0000
,
0100
0000
3001
0001
,
0002
0000
0000
0000
,
0010
0000
1003
1000
,
2000
0000
0000
0000
,
0010
0000
3001
0001
,
0020
0000
0000
0000
,
1000
0000
0130
0100
,
0200
0000
0000
0000
,
0001
0000
0310
0010
,
0020
0000
0000
0000
,
0001
0000
0130
0100
,
0200
0000
0000
0000
,
1000
0000
0310
0010
,
1000
0100
0001
0000
,
1000
0100
0001
0000
,
0001
0100
1000
0000
,
0001
0100
1000
0000
,
1000
0010
0001
0000
,
1000
0010
0001
0000
,
0001
0010
1000
0010
,
1001
0000
0000
0000
;
