#TITLE:Jai Ho (Original Mix);
#SUBTITLE:;
#ARTIST:A. R. Rahman;
#TITLETRANSLIT:;
#SUBTITLETRANSLIT:;
#ARTISTTRANSLIT:;
#GENRE:;
#CREDIT:;
#MENUCOLOR:;
#METERTYPE:DDR X;
#BANNER:Jai Ho (Original Mix).png;
#BACKGROUND:Jai Ho (Original Mix)-bg.png;
#LYRICSPATH:;
#CDTITLE:;
#MUSIC:Jai Ho (Original Mix).ogg;
#OFFSET:-0.686;
#SAMPLESTART:31.800;
#SAMPLELENGTH:12.000;
#SELECTABLE:YES;
#LISTSORT:;
#DISPLAYBPM:137.000;
#BPMS:0.000=136.990;
#STOPS:;
#BGCHANGES:;
#ATTACKS:;

//---------------dance-single - ----------------
#NOTES:
     dance-single:
     :
     Beginner:
     3:
     0.107,0.168,0.136,0.102,0.000:
0000
0000
0000
0000
,
0000
0000
0000
0000
,
1000
0000
1000
0000
,
1000
0000
0000
0000
,
0001
0000
0001
0000
,
0001
0000
0000
0000
,
1001
0000
0000
0000
,
0000
0000
0000
0000
,
1001
0000
0000
0000
,
0000
0000
0000
0000
,
1000
0000
0100
0000
,
1000
0000
0000
0000
,
0001
0000
0100
0000
,
0001
0000
0000
0000
,
1001
0000
0000
0000
,
0000
0000
0000
0000
,
1001
0000
0000
0000
,
0000
0000
0000
0000
,
2002
0000
0000
0000
,
0000
0000
0000
0000
,
0000
0000
0000
0000
,
0000
0000
0000
3003
,
2002
0000
0000
0000
,
0000
0000
0000
0000
,
0000
0000
0000
0000
,
0000
0000
0000
3003
,
1000
0000
1000
0000
,
0100
0000
0000
0000
,
0001
0000
0001
0000
,
0100
0000
0000
0000
,
1000
0000
1000
0000
,
0010
0000
0000
0000
,
0001
0000
0001
0000
,
0010
0000
0000
0000
,
1010
0000
0000
0000
,
0000
0000
0000
0000
,
0101
0000
0000
0000
,
0000
0000
0000
0000
,
0011
0000
0000
0000
,
0000
0000
0000
0000
,
1100
0000
0000
0000
,
1001
0000
0000
0000
,
0101
0000
0000
0000
,
1001
0000
0000
0000
,
0020
0000
0000
0000
,
0000
0000
0000
1030
,
0200
0000
0000
0000
,
0000
0000
0000
0301
,
0020
0000
0000
0000
,
0000
0000
0000
0031
,
0200
0000
0000
0000
,
0000
0000
0000
1300
,
1001
0000
0000
0000
,
0000
0000
0000
0000
,
0000
0000
0000
0000
,
0000
0000
0000
0000
,
1001
0000
0000
0000
,
0000
0000
0000
0000
,
2000
0000
0000
0000
,
0001
0000
3001
0000
,
0002
0000
0000
0000
,
1000
0000
1003
0000
,
0020
0000
0000
0000
,
0100
0000
0130
0000
,
0200
0000
0000
0000
,
0010
0000
0310
0000
,
0110
0000
0000
0000
;

//---------------dance-single - ----------------
#NOTES:
     dance-single:
     :
     Hard:
     14:
     0.684,0.680,0.382,0.178,0.327:
1000
0100
1000
0100
0010
0010
0010
0000
,
0001
0100
0001
0100
0010
0010
0010
1000
,
1010
0100
0001
0100
0001
0010
0100
0000
,
0010
0100
1000
0100
2000
0000
3001
0100
,
0010
0100
0001
0100
0010
0100
0010
1000
,
0100
1000
0100
0001
0010
0100
1000
0000
,
1001
0000
0000
1000
0100
0000
0100
0000
0100
0000
0000
0000
0110
0000
0000
0000
,
1001
0000
0000
0001
0100
0000
0100
0000
0100
0000
0000
0000
0110
0000
0000
0000
,
1001
0000
0000
1000
0010
0000
0010
0000
0010
0000
0000
0000
0110
0000
0000
0000
,
1001
0000
0000
0001
0010
0000
0010
0000
0010
0000
0100
1000
0200
0000
0300
0000
,
1000
0100
1000
0100
0010
0100
0010
0001
,
0010
0100
0010
1000
0200
0000
0301
0000
,
1000
0010
0100
0001
0010
0001
0100
1000
,
0100
1000
0010
0001
0100
0010
1000
0001
,
1000
0000
0100
1000
0010
0100
0001
0000
1100
0000
0000
0000
0001
0000
0101
0000
,
0000
1000
1100
0010
0100
0001
0001
0000
,
0010
0110
0000
1000
1100
0010
0100
0001
,
0000
0000
0001
0000
0010
0000
0100
0000
1000
0000
0100
0010
0100
0000
0001
0010
,
0002
0000
0000
0000
0003
0000
0010
0100
,
1000
0000
0000
0100
0000
0000
0010
0000
0001
0000
0000
0000
1001
0000
0000
0000
,
2000
0000
0000
0000
3000
0000
0010
0100
,
0001
0000
0000
0010
0000
0000
0100
0000
1000
0000
0000
0000
1001
0000
1000
0000
,
0002
0000
0000
0000
0003
0000
0010
0100
,
0010
0000
0000
0100
0000
0000
1000
0100
1000
0000
0100
0000
0001
0000
0010
0000
,
0100
1000
0001
0000
1001
0000
0110
0000
,
1000
0000
0100
1000
0100
0010
0100
0000
0001
0100
0001
0100
0010
0100
1000
0000
,
2000
3100
0020
0031
0020
0130
2000
3100
,
0010
0001
0011
0100
0010
1000
1010
0000
,
0002
0103
0020
1030
0020
0130
0002
0103
,
0010
1000
1010
0100
0001
0010
0011
0000
,
1000
0000
0100
0000
0001
0000
0010
0100
1000
0000
0100
0000
0001
0000
0010
0000
,
0100
0000
0010
0000
0100
0000
0001
0000
2000
0000
0000
0000
3001
0000
0010
0100
,
0010
0000
1000
0100
0000
0100
0010
0000
0001
1000
0000
1000
0100
0000
0010
0000
,
0001
0000
0010
0000
0100
0000
1000
0000
0110
0000
0001
0010
0100
0010
0001
0100
,
1000
0000
0100
1000
0000
0100
1000
0000
0100
0000
0100
0000
0100
0000
0000
0000
,
0001
0000
0100
0001
0000
0100
0001
0000
0100
0000
0100
0000
0100
0000
0000
0000
,
2000
0010
0100
3001
0002
0010
0100
1003
,
1100
0100
0010
0001
0011
0000
0110
0000
,
2000
0100
0010
3001
0002
0100
0010
1003
,
1010
0010
0100
0001
0011
0000
0110
0000
,
1000
1000
0000
1000
0100
0010
0001
0000
,
0001
0001
0000
0001
0100
0010
1000
0000
,
1000
0000
1000
0000
0000
0000
0010
0100
0001
0000
0001
0000
0000
0000
0000
0000
,
0001
0000
0001
0000
0000
0000
0010
0100
1000
0000
1000
0000
0000
0000
0000
0000
,
1000
0000
0010
0100
0000
0010
0100
0000
0001
0000
0010
0100
0000
0010
0100
0000
,
1000
0000
0010
0100
0000
0000
0010
0100
0001
0000
0001
0000
0101
0000
0000
0000
,
1000
0000
0010
0001
0000
0010
0001
0000
0001
0000
0010
1000
0000
0010
1000
0000
,
1000
0000
0010
0001
0000
0000
0010
0001
0100
0000
0010
0000
1010
0000
0000
0000
,
0100
0000
1000
0010
0000
1000
0010
0000
0100
0000
0001
0010
0000
0001
0010
0000
,
0100
0000
1000
0010
0000
0000
1000
0010
0001
0000
0100
0000
0010
0000
0000
0000
,
0010
0000
0100
0001
0000
0100
0001
0000
0010
0000
0100
1000
0000
0100
1000
0000
,
0010
0000
0100
0001
0000
0000
0100
0001
0010
0000
1000
0000
0100
0000
0000
0100
,
0001
0000
0001
0000
0000
0000
0000
0100
1000
0000
1000
0000
0000
0000
0100
0000
,
0010
0001
0010
0100
1000
1000
1000
1000
,
0100
0010
0001
0010
1000
0100
1000
0010
,
0001
0100
0001
0100
0001
0000
0010
0000
0110
0000
0000
0000
0000
0000
1000
0000
,
0220
0000
0000
0000
0330
0000
1000
0100
,
0001
0100
0000
0000
0000
0000
1010
0000
,
0110
0000
0001
0010
0001
0010
0001
0000
1000
0000
1000
0000
1000
0000
0000
0000
,
0110
0000
1000
0010
1000
0010
1000
0000
0001
0000
0001
0000
0001
0000
0000
0000
,
0110
0000
1000
0100
1000
0100
1000
0000
0001
0000
0001
0000
0001
0000
0010
0000
,
0100
0000
0000
0001
0000
0000
0010
0000
0001
0000
0000
0000
0010
0000
0100
0000
,
0110
0000
0001
0100
0001
0100
0001
0000
1000
0000
1000
0000
1000
0000
0000
0000
,
0110
0000
0000
0000
1000
0001
1000
0001
1000
0010
0100
0010
0100
0000
0010
0000
,
0110
1000
1000
0000
0110
0001
0001
0000
,
1000
0000
0001
0100
0001
0100
0001
0000
0010
0100
1000
0000
1100
0000
0000
0000
,
0110
0001
0011
0000
0110
1000
1010
0000
;

//---------------dance-single - ----------------
#NOTES:
     dance-single:
     :
     Medium:
     10:
     0.492,0.588,0.636,0.153,0.102:
1000
0000
0100
0000
1000
0010
1000
0001
,
0001
0000
0100
0000
0001
0010
0001
1000
,
1000
1000
0100
0100
0010
0010
0001
0000
,
0001
0001
0100
0100
0010
0000
1010
0000
,
1000
0010
0100
0010
0001
0010
0100
0010
,
1000
0001
0100
0001
1001
0000
0001
1000
,
0100
0000
0000
1000
0100
0000
0000
0000
0101
0000
0000
0000
0101
0000
0000
0000
,
0100
0000
0000
0001
0100
0000
0000
0000
1100
0000
0000
0000
1100
0000
0000
0000
,
0010
0000
0000
0001
0010
0000
0000
0000
1010
0000
0000
0000
1010
0000
0000
0000
,
0010
0000
0000
1000
0010
0000
0000
0000
0011
0000
0000
0000
0011
0000
0000
0000
,
1100
0100
1000
1100
0000
0000
0101
0000
,
0101
0001
0100
0101
0000
0000
1010
0000
,
1010
0010
1000
1010
0000
0000
0011
0000
,
0011
0010
0001
0011
0000
0000
1001
0000
,
1000
0000
0100
1000
0100
0000
0000
0000
1000
0000
0100
0000
0001
0000
0000
0000
,
0001
0010
0100
1000
1001
0000
1001
0000
,
1000
0010
0100
0001
1001
0000
1000
1000
,
0000
0001
0001
0100
0010
0000
0110
0000
,
0220
0000
0000
0000
,
0000
0000
0330
1010
,
0220
0000
0000
0000
,
0000
0000
0330
0011
,
0220
0000
0000
0000
,
0000
0000
0330
1001
,
2002
0000
0000
3003
,
1000
0000
0100
0010
0001
0000
0000
0000
0001
0000
0000
0000
0101
0000
0000
0000
,
0001
0001
0001
0000
1000
1000
1000
0000
,
1000
0100
0010
0100
0001
0010
0100
0000
,
1000
1000
1000
0000
0001
0001
0001
0000
,
0001
0100
0010
0100
1000
0010
0100
0000
,
1000
0000
0000
0000
0000
0000
0001
0100
0001
0000
0100
0000
1000
0000
0000
0000
,
0001
0000
0000
0000
0000
0000
1000
0000
1000
0000
0100
0000
0001
0000
0001
0010
,
0100
0010
0000
0110
0000
1010
0000
0110
,
0000
0000
0000
0011
0000
0000
0000
0000
0000
1000
0000
0000
1000
0000
0100
0000
0010
0000
0001
0000
0100
0000
0010
0000
,
0110
0000
0110
0000
1010
1010
0011
0000
,
0110
0000
0110
0000
0011
0011
1010
0000
,
1000
0100
0001
0010
1000
0100
0001
0010
,
0001
0100
1000
0010
1010
0000
1001
0000
,
1000
0010
0001
0100
1000
0010
0001
0100
,
1000
0010
0001
0100
1100
0000
1001
0000
,
1000
1000
0000
1000
1000
1000
0000
0000
,
0001
0001
0000
0001
0001
0001
0000
0000
,
1000
1000
0000
1000
1100
0100
0000
0000
,
0001
0001
0000
0001
0101
0100
0000
0000
,
1000
0000
0000
0100
0000
0000
1000
0000
0010
0000
0000
0100
0000
0000
0010
0000
,
0001
0000
0000
0100
0000
0000
0001
0000
0010
0000
0100
0000
1000
0000
0000
0000
,
0001
0000
0000
0100
0000
0000
0001
0000
0010
0000
0000
0100
0000
0000
0010
0000
,
1000
0000
0000
0100
0000
0000
1000
0000
0010
0000
0100
0000
0001
0000
0000
0000
,
1001
0000
0000
1000
0000
0000
1000
0000
0001
0000
0000
0001
0000
0000
0001
0000
,
1001
0000
0000
0010
0000
0000
0110
0000
1000
0000
0100
0000
0001
0000
0000
0000
,
1001
0000
0000
0001
0000
0000
0001
0000
1000
0000
0000
1000
0000
0000
1000
0000
,
1001
0000
0000
0100
0000
0000
0110
0000
0001
0000
0100
0000
1000
0000
0000
0000
,
1100
0000
0101
0000
,
1010
0000
0011
0000
1010
1000
0100
1000
,
0010
0001
0100
0001
0010
1000
0100
1000
,
0010
0100
0001
0100
1000
0000
1100
0001
,
0200
0000
0000
0000
0300
0000
0010
0100
,
0010
0200
0000
0000
0300
0000
0110
0000
,
0022
0000
0000
0000
,
0000
0000
0033
0110
,
2020
0000
0000
0000
,
0000
0000
3030
0110
,
2002
0000
0000
0000
,
0000
0000
3003
1001
,
0220
0000
0000
0000
,
0000
0000
0000
0330
,
0110
0000
0000
0000
;

//---------------dance-single - ----------------
#NOTES:
     dance-single:
     :
     Easy:
     6:
     0.261,0.392,0.322,0.178,0.000: // measure 1
0000
0000
0000
0000
,  // measure 2
0000
0000
0000
1000
,  // measure 3
0020
0130
0200
0301
,  // measure 4
0002
0013
0110
0000
,  // measure 5
0020
0130
0200
1300
,  // measure 6
2000
3010
0110
0000
,  // measure 7
0000
1000
1010
0000
,  // measure 8
0000
0001
0011
0000
,  // measure 9
0000
1000
1100
0000
,  // measure 10
0000
0001
0101
0000
,  // measure 11
0200
0310
0020
0031
,  // measure 12
0002
0103
0110
0000
,  // measure 13
0200
0310
0020
1030
,  // measure 14
2000
3100
0110
0000
,  // measure 15
0000
0001
1001
0000
,  // measure 16
0000
1000
1001
0000
,  // measure 17
0000
0010
0110
0000
,  // measure 18
0000
0100
0110
0001
,  // measure 19
2000
0000
0000
0000
,  // measure 20
0000
0000
3000
1000
,  // measure 21
0002
0000
0000
0000
,  // measure 22
0000
0000
0003
0001
,  // measure 23
0020
0000
0000
0000
,  // measure 24
0000
0000
0030
1000
,  // measure 25
0200
0000
0000
0000
,  // measure 26
0000
0000
0300
0000
,  // measure 27
0010
0010
0001
0001
,  // measure 28
0010
0010
1000
1000
,  // measure 29
0010
0010
0100
0100
,  // measure 30
0010
0010
0100
0100
,  // measure 31
1000
1000
0100
0100
,  // measure 32
0001
0001
0100
0100
,  // measure 33
1000
0100
0001
0100
,  // measure 34
1000
0100
0010
0100
,  // measure 35
0110
0000
0000
0000
,  // measure 36
0011
0000
0000
0000
,  // measure 37
1010
0000
0110
0000
,  // measure 38
0011
0000
0110
0000
,  // measure 39
1100
0000
0110
0000
,  // measure 40
0101
0000
0110
0000
,  // measure 41
0000
0000
1000
0000
,  // measure 42
0000
0000
0001
0000
,  // measure 43
0000
0000
1000
0000
,  // measure 44
0000
0000
0001
0000
,  // measure 45
1000
1000
0100
0010
,  // measure 46
0001
0001
0100
0010
,  // measure 47
1000
1000
0100
0010
,  // measure 48
0001
0001
0100
0010
,  // measure 49
1000
1000
0010
0100
,  // measure 50
0001
0001
0010
0100
,  // measure 51
1000
1000
0010
0100
,  // measure 52
0001
0001
0010
0100
,  // measure 53
1001
0000
1001
0000
,  // measure 54
1010
1010
1010
1001
,  // measure 55
1001
0000
1001
0000
,  // measure 56
0011
0011
0011
1001
,  // measure 57
1001
0000
0000
0110
,  // measure 58
0110
0000
0000
1000
,  // measure 59
0002
0000
0000
0000
,  // measure 60
0000
0000
0003
0001
,  // measure 61
2000
0000
0000
0000
,  // measure 62
0000
0000
3000
1000
,  // measure 63
0002
0000
0000
0000
,  // measure 64
0000
0000
0003
0001
,  // measure 65
2000
0000
0000
0000
,  // measure 66
0002
0000
0000
3003
,  // measure 67
1001
0000
0000
0000
;
