#TITLE:HIGHS OFF U (2010 Radio Edit);
#SUBTITLE:;
#ARTIST:4 REEEL remixed by Scorccio;
#TITLETRANSLIT:;
#SUBTITLETRANSLIT:;
#ARTISTTRANSLIT:;
#GENRE:;
#CREDIT:N. Muriel;
#MENUCOLOR:;
#METERTYPE:DDR X;
#BANNER:Highs Off U (2010 Radio Edit).png;
#BACKGROUND:Highs Off U (2010 Radio Edit)-bg.png;
#LYRICSPATH:;
#CDTITLE:;
#MUSIC:Highs Off U (Radio Edit).ogg;
#OFFSET:-1.260;
#SAMPLESTART:23.160;
#SAMPLELENGTH:12.000;
#SELECTABLE:YES;
#LISTSORT:;
#DISPLAYBPM:130.000;
#BPMS:0.000=130.030;
#STOPS:;
#BGCHANGES:0.000=Highs Off U (2010 Radio Edit).avi=1.400=0=0=1,
0.125=Highs Off U (2010 Radio Edit).avi=1.600=0=0=1,
0.250=Highs Off U (2010 Radio Edit).avi=1.000=0=0=1,
99999=-nosongbg-=1.000=0=0=0 // don't automatically add -songbackground-
;
#ATTACKS:;

//---------------dance-single - ----------------
#NOTES:
     dance-single:
     :
     Beginner:
     1:
     0.063,0.157,0.094,0.060,0.000:
0000
0000
0000
0000
,
0000
0000
0000
0000
,
0000
0000
0000
0000
,
0000
0000
0000
0000
,
2000
0000
0000
0000
,
0000
0000
0000
0000
,
0000
0000
0000
3000
,
0001
0000
0001
0000
,
1001
0000
0000
0000
,
0000
0000
0000
0000
,
0000
0000
0000
0000
,
0000
0000
0000
0000
,
1001
0000
0000
0000
,
0000
0000
0000
0000
,
0000
0000
0000
0000
,
1000
0000
0001
0000
,
1001
0000
0000
0000
,
0000
0000
0000
0000
,
0000
0000
0000
0000
,
0000
0000
0000
0000
,
1001
0000
0000
0000
,
0000
0000
0000
0000
,
0000
0000
0000
0000
,
2002
0000
0000
0000
,
0000
0000
0000
3003
,
0000
1000
0000
1000
,
0000
0001
0000
0001
,
0000
1000
0000
0000
,
0000
0001
0000
0000
,
1001
0000
0000
0000
,
0000
0000
0000
0000
,
0000
0000
0000
0000
,
2002
0000
0000
0000
,
0000
0000
0000
3003
,
0000
1000
0001
1000
,
0000
0000
0000
0000
,
0000
0000
0000
0000
,
0000
0000
0000
0000
,
0000
0001
0000
0000
,
0000
1000
0000
0000
,
0000
0001
0000
0000
,
0000
1000
0000
0000
,
0000
0000
0000
0000
,
0000
0000
0000
0000
,
0000
0000
0000
0000
,
0000
0000
0000
0000
,
0000
0000
0000
0000
,
0000
0000
0000
0000
,
0000
1000
0000
0001
,
0000
1000
0000
0001
,
0000
0000
0000
0000
,
2002
0000
0000
3003
,
1001
0000
0000
0000
,
0000
0000
0000
0000
,
0000
0000
0000
0000
,
0000
0000
0000
0000
,
1001
0000
0000
0000
,
0000
0000
0000
0000
,
0000
0000
0000
0000
,
0000
0000
0000
0000
,
0000
0000
0000
0000
,
1001
0000
0000
0000
;

//---------------dance-single - ----------------
#NOTES:
     dance-single:
     :
     Easy:
     5:
     0.251,0.445,0.395,0.155,0.000:
0000
0000
0000
0000
,
0000
0000
0000
0000
,
0000
0000
0000
0000
,
0000
0000
0000
0000
,
1000
0100
1000
0100
,
0001
0100
0001
0100
,
1000
0100
1000
0010
,
0001
0100
0001
0010
,
1001
0000
1001
0000
,
1000
0100
1000
0000
,
1001
0000
1001
0000
,
0001
0100
0001
0000
,
1001
0000
1001
0000
,
1000
0010
1000
0000
,
1001
0000
1001
0000
,
0001
0010
0001
0000
,
2002
0000
0000
3003
,
1000
0100
0001
0000
,
2002
0000
0000
3003
,
0001
0100
1000
0000
,
0220
0000
0000
0330
,
0010
0100
0010
0000
,
0220
0000
0000
0330
,
2002
0000
0000
0000
,
0000
0000
0000
3003
,
1001
0000
1001
0000
,
1001
0100
0100
0000
,
1001
0000
1001
0000
,
1001
0010
0010
0000
,
0110
0000
0110
0000
,
0110
0100
0100
0000
,
0110
0000
0110
0000
,
0220
0000
0000
0000
,
0000
0000
0000
0330
,
1000
0100
1000
0000
,
0001
0000
0001
0000
,
0001
0100
0001
0000
,
1000
0000
1000
0000
,
0010
1000
0010
0000
,
0001
0000
0001
0000
,
0010
0001
0010
0000
,
1000
0000
1000
0000
,
0010
1000
0010
0001
,
0000
1001
0000
1001
,
0000
0010
0001
1000
,
0000
1001
0000
1001
,
0100
0100
0010
0010
,
0100
0010
0100
0010
,
2002
3003
1001
0000
1000
0000
0100
0000
,
2002
3003
1001
0000
0001
0000
0100
0000
,
1000
1000
0001
0001
,
1000
0001
1000
0000
,
1001
0000
1001
0000
,
1001
0100
0100
0000
,
1001
0000
1001
0000
,
1001
0010
0010
0000
,
0110
0000
0110
0000
,
0110
0100
0100
0000
,
0110
0000
0110
0000
,
0220
0000
0000
0000
,
0000
0000
0000
0330
,
1001
0000
0000
0000
;

//---------------dance-single - ----------------
#NOTES:
     dance-single:
     :
     Medium:
     7:
     0.417,0.471,0.378,0.129,0.017:
0000
0000
0000
0000
,
0000
0000
0000
0000
,
1000
0000
0100
0000
1000
0010
1000
0000
,
0001
0000
0100
0000
0001
0010
0001
0000
,
1000
0010
0001
0000
0001
0010
1000
0000
,
1000
0100
0001
0100
1000
0100
0001
0000
,
1000
0100
0001
0000
0001
0100
1000
0000
,
1010
0011
0101
1100
,
1010
1001
0011
1001
,
0100
0100
0100
0100
,
0010
0100
0010
0000
0010
0100
0010
0000
,
1000
0100
0010
0001
0010
0100
1000
0000
,
0011
1001
1010
1001
,
0100
0100
0100
0100
,
0010
0100
0010
0000
0010
0100
0010
0000
,
1010
1100
0101
0011
,
1010
0010
1010
0010
,
1000
0000
0100
1000
0000
1000
0000
1000
,
0011
0010
0011
0010
,
0001
0000
0100
0001
0000
0001
0000
0001
,
1001
1000
0001
1000
,
1001
0000
0100
0010
0000
0001
0000
0100
,
1000
0000
0100
0000
1000
0001
0010
0200
,
0000
0000
0000
0000
,
0000
0000
0000
0300
,
0101
0100
0101
0100
,
0001
0000
0100
0010
0000
0010
0000
0010
,
1100
0100
1100
0100
,
1000
0000
0100
0001
0000
0001
0000
0001
,
1001
1000
0001
1000
,
0001
0000
0010
0100
0000
1000
0000
0100
,
0001
0000
0010
0000
0100
0000
1000
0200
,
0000
0000
0000
0000
,
0000
0000
0000
0300
,
0001
0100
0001
0100
0001
0010
0001
0000
,
1000
0100
1000
0100
1000
0010
1000
0000
,
0001
0010
0001
0010
0001
0100
0001
0000
,
1000
0010
1000
0010
1000
0100
1000
0000
,
1000
0010
0001
0000
1000
0100
0001
0000
,
1000
0010
0001
0000
1000
0100
0001
0000
,
1000
0001
1000
0000
0001
1000
0001
0000
,
0010
0000
0100
0010
0100
0000
0010
0000
0100
0000
0000
0000
0110
0000
0000
0000
,
1000
0010
0100
0001
0010
0100
1000
0000
,
0001
0010
0100
1000
0010
0100
0001
0000
,
0000
0010
0100
0000
0100
0010
0100
0000
,
0000
0100
0010
0000
0010
0100
0010
0000
,
1000
0000
0000
0100
1000
0000
0000
0000
0001
0000
0000
0100
0001
0000
0000
0000
,
1000
0001
1000
0001
1000
0000
1001
0000
,
1000
0000
0000
0100
0010
0000
0000
0000
0001
0000
0001
0000
0001
0000
0000
0000
,
1000
0100
0010
0100
0001
0100
0101
0000
,
1010
0101
0011
1100
,
1010
1100
0101
0011
,
1001
1000
1001
1000
,
0010
0100
0001
0100
0000
0100
0000
0100
,
1001
0001
1001
0001
,
0010
0100
1000
0100
0000
0100
0000
0100
,
2000
3200
0320
0032
,
0023
0230
2300
3002
,
0023
0230
2300
3100
,
0022
0000
0000
0000
,
0000
0000
0000
0033
,
1001
0000
0000
0000
;

//---------------dance-single - ----------------
#NOTES:
     dance-single:
     :
     Hard:
     13:
     0.594,0.583,0.249,0.155,0.292:
1000
0100
1000
0010
1000
0100
1000
0010
,
0001
1000
0001
1000
0001
0000
1000
0000
1001
0000
0000
0000
0000
0000
0000
0000
,
0001
0100
0001
0010
0001
0100
0001
0010
,
1000
0001
1000
0001
1000
0000
0001
0000
1001
0000
0000
0000
0000
0000
0000
0000
,
1000
0010
0100
0001
0010
0100
1000
0000
,
0001
0010
0001
0010
0001
0000
0010
0000
0011
0000
0000
0000
0000
0000
0000
0000
,
0001
0010
0100
1000
0010
0100
0001
0000
,
1001
0000
1001
0000
1010
1010
1010
0001
,
0010
0100
1000
0100
0010
0100
0001
0000
,
1000
0000
0100
0000
0010
0001
0000
0000
0001
0000
0100
0000
0010
1000
0000
0000
,
1000
0100
0010
0100
0001
0010
0100
0000
,
0001
0000
0100
0000
0010
1000
0000
0000
1000
0000
0100
0000
0010
0001
0000
0000
,
0001
0100
0010
0100
1000
0010
0100
0000
,
1000
0000
0100
0000
0010
0001
0000
0000
0001
0000
0010
0000
0100
1000
0000
0000
,
0001
0000
0100
0000
0010
0000
0100
0000
0010
0000
0100
0001
0100
0001
0000
0000
,
0000
0000
0100
1000
0100
1000
0000
0000
0000
0000
1000
0001
1000
0001
0000
0000
,
2000
0000
3200
0000
2300
0000
3100
0010
,
0000
0001
0100
0010
0000
1000
0000
1000
,
0002
0000
0203
0000
0302
0000
0103
1000
,
0010
0100
0010
0001
0100
0000
0101
0000
,
1000
0010
0100
0000
0001
0010
0100
1000
,
0000
1000
0100
0010
0000
0110
0000
0110
,
0002
0000
0203
0000
0320
0000
1030
0002
,
0003
0000
1000
0100
0001
0000
0020
0000
,
0000
0000
0000
0000
0130
0000
1000
0000
0100
0010
0001
0000
1000
0001
0000
0000
,
1000
0100
0010
0000
0001
0100
0010
1000
,
0000
0001
0100
0010
0000
0010
0000
0010
,
1000
0010
0100
0000
0001
0010
0100
0000
,
1000
0100
0001
0000
1001
0000
1001
0000
,
0010
0100
0010
0000
0100
0010
1000
0001
,
0000
0001
1000
0100
0000
0100
0000
0100
,
0020
0000
2030
0000
3002
0000
0103
0020
,
0030
0000
0001
0100
1000
0000
0020
0000
,
0000
0000
0000
0000
0000
0000
0000
0000
1030
0001
0100
0000
0001
1000
0000
0000
,
1000
0000
0100
0000
1000
0000
0100
0000
1000
0100
1000
0000
1100
0000
0000
0100
,
0001
0000
0100
0000
0001
0000
0100
0000
0001
0100
0001
0000
0101
0000
0001
0100
,
1000
0100
0010
0000
1000
0000
0010
0000
1000
0010
1000
0010
0000
0000
0001
0010
,
0001
0000
0010
0000
0001
0000
0100
0000
0001
0100
0001
0010
0001
0000
0000
0000
,
1000
0000
0001
0000
1000
0000
0010
0000
1000
0000
0001
1000
0000
1000
0000
1000
,
0001
0100
0001
0100
0001
0010
0100
0000
0100
0000
1000
0000
0001
0000
0000
1000
,
0100
0000
0100
1000
0100
0000
0000
0000
0001
0000
0100
0001
0100
0000
0000
0000
,
1000
0000
0100
0010
0001
0000
0001
0010
0100
0000
1000
0000
0001
0000
1000
0000
,
0100
1000
0100
1000
0010
0100
0001
0000
,
0100
0001
0100
0001
0010
0100
1000
0101
,
0000
1000
0001
1000
0001
0000
0000
1000
0000
0001
0000
1000
0001
0000
0000
0000
,
1000
0000
0000
0010
0000
0000
1000
0000
0000
0000
0000
0000
0001
0000
0000
0010
0000
0000
0001
0000
0000
0000
0000
0000
1000
0000
0000
0000
0001
0000
0000
0000
0000
0000
0000
0000
1000
0000
0000
0000
0000
0000
0000
0000
0000
0000
0000
0000
,
0100
0000
0001
0000
0100
0000
0000
0000
0010
1000
0010
1000
0010
0000
0000
0000
,
1000
0000
0100
0000
0010
0001
0010
0000
0100
0000
0100
0000
0100
0000
0000
0000
,
1000
0100
0010
0001
0000
0000
0001
0010
0100
1000
0100
0010
0000
0000
0001
1000
,
0001
0100
0001
1000
0001
0100
0001
1000
,
0100
0000
0010
0100
0000
0000
0100
0010
0100
0000
1000
0100
1000
0100
0000
0000
,
0000
0000
0010
0100
0010
0100
0000
0000
0000
0000
0001
0100
0001
0100
0000
0000
,
0100
1000
0100
1000
0010
0100
0010
0001
,
0000
0010
0100
1001
0000
1001
0000
1001
,
0100
1000
0100
1000
0010
0100
0001
0010
,
1000
0010
0100
0010
0001
0100
0000
0100
,
1001
1000
0100
1000
1001
0001
0100
0001
,
1001
1000
0100
1000
1001
0001
0100
0001
,
1001
1000
0010
1000
1001
0001
0010
0002
,
2000
0000
0000
0000
,
0000
0000
0000
3003
,
0110
1001
0110
1001
;

//---------------dance-double - ----------------
#NOTES:
     dance-double:
     :
     Easy:
     7:
     0.281,0.340,0.249,0.189,0.000:
00000000
00000000
00000000
00000000
,
00000000
00000000
00000000
00010000
,
00001000
00001000
00001000
00001000
,
00011000
00000000
00011000
00000000
,
00010000
00100000
01000000
10000000
,
10010000
00000000
00010000
00011000
,
00001000
00000100
00000010
00000001
,
00001001
00000000
00001000
00011000
,
00020000
00030000
00002000
00003000
,
00100000
00100000
00100000
00000000
,
00020000
00030000
00002000
00003000
,
00000010
00000010
00000010
00000000
,
00002000
00003000
00020000
00030000
,
01000000
01000000
01000000
00000000
,
00020000
00030000
00002000
00003000
,
00000100
00000100
00000100
00010100
,
01001000
00001000
01001000
01000000
,
00010100
00010000
00010100
00000100
,
00020000
00031000
00002000
00013000
,
00100000
00100000
01000000
01000000
,
00020000
00031000
00002000
00013000
,
00000010
00000010
00000100
00000100
,
00001000
00010000
00100000
01000000
,
00100000
00010000
00001000
00000100
,
00001000
00010000
00100000
00011000
,
00000010
00000010
00000100
00000100
,
00100000
00100000
01000000
01000000
,
00011000
00000000
00011000
00000000
,
00100000
00010000
00001000
00000000
,
00000010
00000001
00000010
00001000
,
00000010
00001000
00010000
00001000
,
00011000
00000000
00011000
00000000
,
00022000
00000000
00000000
00000000
,
00000000
00000000
00000000
00033000
,
00000000
00100000
00010000
00000000
,
00000000
00000010
00001000
00000000
,
00000000
00100000
00010000
00000000
,
00000000
00000010
00001000
00010000
,
00011000
00000000
00011000
00000000
,
00100000
00010000
00001000
00000010
,
00011000
00000000
00011000
00000000
,
00000010
00001000
00010000
00100000
,
00010000
00010000
00001000
00010000
,
00001000
00001000
00010000
00000100
,
00000010
00000010
00000100
00000010
,
00001000
00010000
00100000
01000000
,
01000000
01000000
00100000
01000000
,
00100000
00100000
01000000
00100000
,
00020000
00031000
00002000
00013000
,
00100000
00000000
00100000
00001000
,
00000010
00000000
00000010
00010000
,
00100000
00000000
00100000
00001000
,
00000010
00000000
00100010
00000000
,
00000010
00000000
00100010
00000000
,
00100000
00000000
00100010
00000000
,
00100000
00000000
00100010
00000000
,
01000000
00000000
01001000
00000000
,
00000100
00000000
01000100
00000000
,
00200000
00320000
00032000
00003020
,
00022030
00000000
00000000
00000000
,
00000000
00000000
00000000
00033000
,
00011000
00000000
00000000
00000000
;
