#TITLE:Groovy Disco;
#SUBTITLE:;
#ARTIST:AlphaOmega;
#TITLETRANSLIT:;
#SUBTITLETRANSLIT:;
#ARTISTTRANSLIT:;
#GENRE:;
#CREDIT:;
#MENUCOLOR:;
#METERTYPE:DDR X;
#BANNER:Groovy Disco.png;
#BACKGROUND:Groovy Disco-bg.png;
#LYRICSPATH:;
#CDTITLE:;
#MUSIC:Groovy Disco.ogg;
#OFFSET:-0.020;
#SAMPLESTART:49.400;
#SAMPLELENGTH:12.000;
#SELECTABLE:YES;
#LISTSORT:;
#DISPLAYBPM:*;
#BPMS:0.000=87.500,32.000=43.750,33.000=350.000,41.000=175.000,104.000=350.000,106.000=175.000,176.000=350.000,180.000=175.000,242.000=350.000,246.000=175.000,314.000=700.000,330.000=50.000;
#STOPS:;
#BGCHANGES:;
#ATTACKS:;

//---------------dance-single - ----------------
#NOTES:
     dance-single:
     :
     Beginner:
     5:
     0.149,0.208,0.017,0.050,0.000:
0000
0000
0000
0000
,
0000
0000
0000
0000
,
0000
0000
0000
0000
,
0000
0000
0000
0000
,
0000
0000
0000
0000
,
0000
0000
0000
0000
,
0000
0000
0000
0000
,
0000
0000
0000
0000
,
1000
0001
0000
0000
,
0000
0000
0000
0000
,
0000
0001
0000
1000
,
0000
0001
0000
0000
,
0000
0001
0000
1000
,
0000
0001
0000
0000
,
0000
0010
0000
0100
,
0000
0010
0000
0000
,
0000
0100
0000
0010
,
0000
0100
0000
0000
,
0000
1000
0000
0100
,
0000
0001
0000
0000
,
0000
0001
0000
0100
,
0000
1000
0000
0000
,
0000
1000
0000
0010
,
0000
0001
0000
0000
,
0000
0001
0000
0010
,
0000
1000
0000
0000
,
0000
0000
0000
0001
,
0000
1000
0000
0001
,
0000
1000
0001
0000
,
0010
0000
0100
0000
,
1000
0000
1000
0000
,
0010
0000
0100
0000
,
0001
0000
0010
0000
,
0100
0000
1000
0000
,
0001
0000
0100
0000
,
0010
0000
0001
0000
,
1000
0000
0100
0000
,
0100
0000
1000
0000
,
0001
0000
0100
0000
,
0100
0000
0001
0000
,
1000
0000
0010
0000
,
0010
0000
1000
0000
,
0001
0000
0010
0000
,
0010
0000
0001
0000
,
1000
0000
0000
0000
,
1000
0000
0001
0000
,
1000
0000
0000
0001
,
0010
0000
0100
0000
,
0010
0000
0000
0100
,
1000
0000
0001
0000
,
1000
0000
0000
0001
,
0010
0000
0100
0000
,
0010
0000
0000
0100
,
1000
0000
0001
0000
,
0100
0000
0100
0100
,
0100
0000
1000
0000
,
0001
0000
0010
0010
,
0010
0000
0001
0000
,
1000
0000
0100
0100
,
0100
0000
1000
0000
,
0001
0000
0010
0000
,
0010
0000
0200
0000
,
0000
0000
0000
0000
,
0000
0300
0020
0000
,
0000
0000
0000
0000
,
0000
0000
0000
0000
,
0000
0000
0000
0000
,
0000
0030
2002
0000
,
0000
0000
0000
0000
,
0000
0000
0000
0000
,
0000
0000
0000
0000
,
0000
3003
1000
0000
,
0001
0000
1000
0000
,
0001
0000
1000
0000
,
0001
0000
1000
0000
,
0001
0000
1000
0000
,
0001
0000
1000
0000
,
0001
0000
1000
0000
,
0001
0000
2002
0000
,
0000
0000
0000
0000
,
0000
0000
0000
0000
,
0000
0000
0000
0000
,
0000
0000
3003
0000
;

//---------------dance-single - ----------------
#NOTES:
     dance-single:
     :
     Medium:
     12:
     0.613,0.624,0.286,0.076,0.118:
1000
0100
0010
0000
0000
0100
1000
0000
,
0001
0100
0010
0000
0000
0100
0001
0000
,
1000
0010
0001
0000
0000
0010
1000
0000
,
0001
0010
1000
0000
0000
0010
0001
0000
,
1000
0100
0001
0000
0000
0100
1000
0000
,
0001
0100
1000
0000
0000
0100
0001
0000
,
1000
0010
0100
0000
0000
0010
1000
0000
,
0001
0010
0100
0000
0000
0010
0001
1000
,
2002
0000
0000
3003
1000
0000
0000
0000
0000
0000
0000
0000
0100
0000
0000
0000
,
0000
0010
0000
0001
,
0000
0000
1000
0000
1000
0000
0001
0100
,
0001
0000
1000
0000
1000
0000
0001
0100
,
0001
0000
0001
0000
0001
0000
1000
0100
,
1000
0000
0001
0000
0001
0000
1000
0100
,
1000
0100
0010
0000
0010
0000
0100
0001
,
0100
0000
0010
0000
0010
0000
0100
1000
,
0100
0000
0100
0000
0100
0000
0010
0001
,
0010
0000
0100
0000
0100
0000
0010
1000
,
0010
0000
1000
0100
1000
0100
0010
0001
,
0010
0000
0001
0100
0001
0100
0010
1000
,
0010
0000
1000
0010
1000
0010
0100
0001
,
0100
0000
0001
0010
0001
0010
0100
1000
,
0100
0000
1000
0100
0010
0001
0010
0100
,
1000
0000
0001
0100
0010
1000
0010
0100
,
0001
0000
1000
0010
0100
0001
0100
0010
,
1000
0000
0001
0010
0100
1000
0100
0010
,
0002
0000
0000
0000
0000
0000
1003
0000
0100
1000
0000
0000
,
0001
0000
0100
0001
0000
0000
1000
0000
0100
1000
0000
0000
,
0001
0000
0000
0000
0100
0000
0001
0000
0000
0000
0000
0000
1000
0000
0000
0100
0000
0000
0010
0000
0000
0100
0000
0000
,
1000
0100
0010
0000
0001
0100
0010
0100
,
0001
0100
0010
0000
1000
0010
0100
0010
,
1000
0010
0100
0000
0001
0010
0100
0010
,
0001
0010
0100
0000
1000
0100
0010
0100
,
0001
0100
0001
0000
0001
0100
0010
0100
,
1000
0100
1000
0000
1000
0010
0100
0010
,
0001
0010
0001
0000
0001
0010
0100
0010
,
1000
0000
0010
0000
1000
0000
0000
0100
0001
0000
0010
0000
0001
0000
0100
0000
,
0001
0010
0001
0000
1000
0100
1000
0010
,
1000
0100
1000
0000
0010
0100
0010
0001
,
0010
0100
0010
0000
0010
0100
0010
1000
,
0010
0000
0100
0000
0010
0000
0000
0001
0010
0000
0100
0000
1000
0000
0100
0000
,
0010
0100
1000
0100
0001
0010
0100
1000
,
0001
0010
0100
1000
0010
0100
1000
0001
,
0010
0100
1000
0001
0010
0100
0001
1000
,
0001
0100
0001
0000
0001
0100
0001
0000
,
1000
0000
0000
1000
0000
0100
1000
0000
0100
1000
0000
0000
,
0001
0000
0000
0001
0000
0100
0001
0000
0100
0001
0000
0000
,
1000
0000
0000
1000
0000
0010
1000
0000
0010
1000
0000
0000
,
0001
0000
0000
0001
0000
0010
0001
0000
0010
0001
0000
0000
,
1000
0000
0000
0100
0000
0100
0001
0000
0100
0001
0000
0000
,
0001
0000
0000
0100
0000
0100
1000
0000
0100
1000
0000
0000
,
1000
0000
0000
0001
0000
1000
0001
0000
0001
1000
0000
0000
,
0001
0000
0000
0000
0000
0000
0000
0000
0000
0000
0000
0000
1000
0000
0000
0000
0000
0000
0000
0000
0001
0000
0000
0000
1000
0000
0000
0000
0000
0000
0000
0000
1000
0000
0000
0000
0001
0000
0000
0000
0000
0000
0000
0000
0000
0100
0000
0000
,
1000
0010
0100
0001
0010
0100
1000
0000
,
0001
0010
0100
1000
0010
0100
0001
0000
,
0010
0100
1000
0100
0010
0100
0001
0000
,
0010
0100
0001
0100
0010
0100
1000
0000
,
1000
1000
1000
1000
1000
1000
1000
1000
,
0001
0001
0001
0001
,
0001
0001
0001
0001
0001
0001
0001
0001
,
1000
1000
1000
0100
,
0010
0000
0000
0001
0000
0000
1000
0000
0100
1000
0000
0000
,
0001
0000
0100
0001
0000
0000
1000
0000
0100
1000
0000
0000
,
1000
0100
0010
0001
0000
0000
1001
0000
0000
1001
0000
0000
,
1001
1001
1001
1001
,
1001
1001
1010
1010
,
1010
1010
1010
1010
,
1010
1010
0011
0011
,
0011
0011
0011
0011
,
0011
0011
0110
0110
,
0110
0110
0110
0110
,
0110
0000
0110
0000
1000
0100
2000
0000
,
0010
0000
3100
0000
0001
0100
0002
0000
,
0010
0000
0103
0000
1000
0010
2000
0000
,
0100
0000
3010
0000
0001
0010
0002
0000
,
0100
0000
0013
0000
1000
0100
0010
0001
,
1000
0100
0010
0001
1000
0100
0010
0001
,
1000
0100
0010
0001
0001
0010
0100
1000
,
0001
0010
0100
1000
2002
0000
0000
0000
,
0000
0000
0000
0000
,
0000
0000
0000
0000
,
0000
0000
0000
0000
,
0000
0000
3003
0000
;

//---------------dance-single - ----------------
#NOTES:
     dance-single:
     :
     Hard:
     18:
     0.892,1.000,0.160,0.277,0.823:
1000
0000
0100
0010
0000
0001
0000
0000
0000
0000
0000
0000
0000
0000
0000
0000
,
0001
0000
0100
0010
0000
1000
0000
0000
0000
0000
0000
0000
0000
0000
0000
0000
,
1000
0000
0010
0100
0000
0100
0000
0000
0000
0000
0000
0000
0000
0000
0000
0000
,
0001
0000
0010
0100
0000
0100
0000
0000
0000
0000
0000
0000
0000
0000
0000
0000
,
1000
0000
0100
0010
0000
0010
0000
0000
0000
0000
0000
0000
0000
0000
0000
0000
,
0001
0000
0100
0010
0000
0010
0000
0000
0000
0000
0000
0000
0000
0000
0000
0000
,
1000
0000
0001
0010
0000
0100
0000
0000
0000
0000
0000
0000
0000
0000
0000
0000
,
0001
0000
1000
0010
0000
0100
0000
0000
0000
0000
0000
0000
0000
0000
0000
0000
,
2002
3003
0220
0330
1000
0000
0100
0000
1000
0000
0100
0000
1000
0000
0100
0000
,
1000
0100
0001
0100
0001
0100
0001
0100
,
0001
0000
0100
0000
1000
0000
0100
0001
0100
0000
0010
0000
1000
0000
0010
0000
,
1000
0000
0000
0000
0001
0000
0100
1000
0100
0000
0010
0000
0001
0000
0010
0000
,
0001
0000
0000
0000
1000
0100
1000
0100
0010
0000
0001
0000
0001
0000
0001
0000
,
1001
0000
0000
0000
0001
0100
0001
0100
0010
0000
1000
0000
1000
0000
1000
0000
,
1001
0000
0000
0000
1000
0010
0100
0001
0100
0000
0010
0000
0010
0000
0010
0000
,
0110
0000
0000
0000
0001
0010
0100
1000
0100
0000
0010
0000
0010
0000
0010
0000
,
0110
0000
0000
0000
1000
0001
1000
0001
1000
0000
0010
0000
0100
0000
0001
0000
,
0100
0000
0000
0000
0001
1000
0001
1000
0001
0000
0010
0000
0100
0000
1000
0000
,
0100
0001
0000
0001
0100
1000
0100
1000
0100
0000
0010
0000
0100
0000
0001
0000
,
0100
0000
0000
0000
0100
0001
0100
0001
0100
0000
0010
0000
0100
0000
1000
0000
,
0100
0000
0000
0000
1000
0100
0001
0100
1000
0000
0010
0000
1000
0000
0001
0000
,
1000
0000
0000
0000
0001
0100
1000
0100
0001
0000
0010
0000
0001
0000
1000
0000
,
0001
0010
0001
0010
1000
0010
1000
0010
1000
0010
1000
0010
1000
0010
1000
0010
,
1000
0010
1000
0010
0001
0010
0001
0010
0001
0010
0001
0010
0001
0010
0001
0010
,
0001
0010
0001
0010
1000
0100
1000
0100
1000
0100
1000
0100
1000
0100
1000
0100
,
1000
0100
1000
0100
0001
0100
0001
0100
0001
0100
0001
0100
0001
0100
0001
0100
,
0001
0000
0000
0100
0000
0000
0001
0000
0000
0100
0000
0000
1000
0000
0100
0000
0010
0000
0002
0000
0000
0000
0003
0000
,
0010
0100
1000
0200
0000
0300
0010
0001
0010
0200
0000
0300
,
1000
0000
0000
0000
0100
0000
0000
0000
0010
0000
0000
0000
0002
0000
0000
0000
0000
0000
0000
0000
0003
0000
0000
0000
1000
0000
0000
0000
0000
0000
0100
0000
0000
1000
0000
0000
0100
0000
0000
0000
0000
0000
0010
0000
0000
0000
0000
0000
,
0001
0000
0010
0000
0001
0000
0001
0000
0100
1000
0100
0000
0010
0000
0001
0000
,
0010
0000
0001
0000
0001
0000
1000
0000
0010
0001
0010
0000
0100
0000
1000
0000
,
0100
0000
1000
0000
1000
0000
0001
0000
0010
0001
0100
0000
1000
0000
1000
0000
,
0100
0000
0001
0000
0010
0000
0100
0000
1000
0100
0010
0000
0100
0000
0100
0000
,
0001
0000
0010
0000
0200
0000
1300
0000
0001
0100
0010
0000
0100
0000
0100
0000
,
1000
0000
0100
0000
0020
0000
0031
0000
1000
0010
0001
0000
0100
0000
0010
0000
,
0100
0000
0010
0000
0200
0000
0301
0000
0001
0010
1000
0000
0100
0000
0010
0000
,
0100
0000
0010
0000
0100
1000
0100
1000
0001
0010
0100
0000
1000
0000
0001
0000
,
1000
0000
0001
0000
2000
0000
3100
0000
1000
0010
0100
0000
0001
0000
1000
0000
,
0001
0000
1000
0000
0002
0000
0013
0000
1000
0100
0001
0000
0010
0000
0100
0000
,
0010
0000
0100
0000
0020
0000
1030
0000
0001
0100
1000
0000
0010
0000
0100
0000
,
0010
0000
0100
0000
0020
0000
0031
0000
1000
0010
1000
0010
1000
0010
1000
0010
,
1000
0010
1000
0010
0001
0010
0001
0010
0001
0010
0001
0010
0001
0010
0001
0010
,
0001
0010
0001
0010
1000
0100
1000
0100
1000
0100
1000
0100
1000
0100
1000
0100
,
1000
0100
1000
0100
0001
0100
0001
0100
0001
0100
0001
0100
0001
0100
0001
0100
,
0001
0100
0001
0100
0001
0100
0001
0100
,
1000
0001
1000
0000
0001
0000
0001
0000
0010
0000
0100
1000
0000
0100
1000
0000
,
0001
1000
0001
0000
1000
0000
1000
0000
0010
0000
0100
0001
0000
0100
0001
0000
,
1000
0010
1000
0000
0100
0000
0001
0000
0100
0000
1000
0100
0000
1000
0100
0000
,
0001
0010
0001
0000
0100
0000
1000
0000
0100
0000
0001
0100
0000
0001
0100
0000
,
1000
0100
0010
0000
0001
0000
0001
0000
1000
0000
0010
0100
0000
0100
0010
0000
,
0001
0100
0010
0000
1000
0000
1000
0000
0001
0000
0100
0010
0000
0010
0100
0000
,
0001
1000
0001
0000
0100
0000
0100
0000
1000
0000
0100
0001
0000
0001
1000
0000
,
1000
0001
1000
0000
0100
0000
0100
0000
0001
0000
0100
1000
0000
1000
0001
0010
,
0100
1000
0100
0000
0100
0000
0000
0000
0110
0000
0001
0000
0011
0000
0000
0000
,
0100
0001
0100
0000
0100
0000
0000
0000
0110
0000
1000
0000
1010
0000
0000
0000
,
1000
0100
0100
0000
0100
0000
0000
0000
0110
0000
0010
0000
0110
0000
0000
0000
,
0001
0100
0100
0000
0100
0000
0000
0000
0110
0000
0100
0000
0110
0000
1000
0000
,
0100
1000
0100
0001
0100
1000
0200
0301
,
1000
0100
0001
0100
1000
0100
0002
0103
,
1000
0100
1000
0100
1000
0100
1000
0100
0001
0100
0001
0100
0001
0100
0001
0100
,
1000
0100
0010
0001
0010
0100
1000
0100
0010
0000
0001
0000
0100
0000
1000
0000
,
0010
0000
0000
0001
0000
0000
0100
0000
0000
1000
0000
0000
0001
0000
0010
0000
0100
0000
2000
0000
0000
0000
3000
0000
,
0100
0010
0001
0020
0000
0030
0100
1000
0100
0020
0000
0030
,
0001
0010
0100
2000
0000
3000
2002
0000
0000
0000
0000
0000
,
0000
0000
0000
0000
,
0000
3003
2002
0000
,
0000
0000
0000
0000
,
0000
3003
2200
0000
,
0000
0000
0000
0000
,
0000
3300
0202
0000
,
0000
0000
0000
0000
,
0000
0000
0303
0000
1000
1000
0100
0100
,
1000
1000
0100
0100
0010
0010
0001
0001
,
0010
0010
0001
0001
0100
0100
1000
1000
,
0100
0100
1000
1000
0001
0001
0010
0010
,
0001
0000
0001
0000
0010
0100
0010
0000
1000
0100
1000
0100
0010
0001
0010
0001
,
0100
0001
0100
0001
0010
1000
0010
1000
0001
0100
0001
0100
1000
0010
1000
0010
,
0100
1000
0100
1000
0010
0001
0010
0001
1000
0001
1000
0001
1000
0001
1000
0001
,
1000
0001
1000
0001
1000
0001
1000
0001
1000
0000
0000
0000
0001
0000
0000
0000
,
1000
0001
1000
0001
,
1000
0001
1000
0001
,
1000
0001
1000
0001
,
2000
0000
0000
0000
0000
0000
0000
0000
0000
0000
0000
0000
0000
0000
0000
0000
3002
0000
0000
0000
0000
0000
0000
0000
0003
0000
0000
0000
0000
0000
0000
0000
2002
3003
0000
0000
0000
0000
0000
0000
0000
0000
0000
0000
0000
0000
0000
0000
0000
0000
0000
0000
0000
0000
0000
0000
0000
0000
0000
0000
0000
0000
0000
0000
;

//---------------dance-single - ----------------
#NOTES:
     dance-single:
     :
     Easy:
     8:
     0.333,0.451,0.151,0.101,0.000:
0100
0010
0001
0001
,
0100
0010
1000
1000
,
0010
0010
0100
0100
,
0010
0010
0100
1001
,
0100
0010
1000
0001
,
0100
0010
1000
0001
,
1000
1000
0001
0001
,
1000
0001
1001
1001
,
0010
0200
0000
0000
,
0000
0000
0000
0000
,
0300
1000
0000
1000
,
0000
0001
0001
0001
,
0000
0001
0000
0001
,
0000
1000
1000
1000
,
0000
0010
0000
0100
,
0000
0010
0010
0010
,
0000
0100
0000
0010
,
0000
0100
0100
0100
,
1001
0010
0000
0001
,
0000
0100
1000
0100
,
0000
0010
0000
1000
,
0000
0100
0001
0100
,
0000
1000
0001
1000
,
0001
1000
0001
1000
,
0001
1000
0001
1000
,
0001
1000
0001
1000
,
2002
3003
0000
1000
,
0000
0001
0000
0010
,
0100
0100
1000
1000
,
0100
1000
0001
0001
,
0100
0001
1000
1000
,
0010
1000
0001
0001
,
0010
0001
1010
0100
,
0001
0100
0011
0100
,
1000
0100
1010
0011
,
0100
0100
0011
1010
,
0100
0100
1000
0100
,
0001
0100
1000
0100
,
0001
0100
1000
0010
,
0001
0010
1000
0010
,
0001
0010
1000
1000
,
0001
0001
1000
0001
,
1000
0001
0010
0010
,
0100
0100
0010
0100
,
0010
0000
0100
0000
,
1000
1000
0100
0001
,
0001
0001
0100
1000
,
0010
0010
1000
0001
,
0010
0010
0001
1000
,
0100
0100
1000
0001
,
0100
0100
0001
1000
,
0010
0010
0100
0010
,
0100
0100
0010
0100
,
0001
1000
0001
1000
,
0010
0100
0010
0100
,
1000
0010
1000
0010
,
0100
0001
0100
0001
,
0010
0001
0010
0001
,
0100
1000
0100
1000
,
2002
3003
2002
3003
,
1000
1000
2000
0000
,
3001
0000
0000
0011
,
0000
1100
0000
1010
,
0000
0101
2000
0000
,
0000
0000
0000
0000
,
0000
0000
0000
0000
,
0000
0000
0000
0000
,
0000
3000
0002
0000
,
0000
0000
0000
0000
,
0000
0000
0000
0000
,
0000
0000
0000
0000
,
0000
0003
1000
1000
,
1000
1000
1000
1000
,
1000
1000
1000
1000
,
1000
1000
1000
1000
,
1000
1000
0001
0001
,
0001
0001
0001
0001
,
0001
0001
0001
0001
,
0001
0001
2002
0000
,
0000
0000
0000
0000
,
0000
0000
0000
0000
,
0000
0000
0000
0000
,
0000
0000
3003
0000
;
