#TITLE:Evacuate the Dancefloor;
#SUBTITLE:;
#ARTIST:Cascada;
#TITLETRANSLIT:;
#SUBTITLETRANSLIT:;
#ARTISTTRANSLIT:;
#GENRE:;
#CREDIT:;
#MENUCOLOR:;
#METERTYPE:DDR X;
#BANNER:Evacuate the Dancefloor.png;
#BACKGROUND:Evacuate the Dancefloor-bg.png;
#LYRICSPATH:;
#CDTITLE:;
#MUSIC:Evacuate the Dancefloor HQ.ogg;
#OFFSET:-0.211;
#SAMPLESTART:38.000;
#SAMPLELENGTH:15.000;
#SELECTABLE:YES;
#LISTSORT:;
#DISPLAYBPM:127.000;
#BPMS:0.000=127.040;
#STOPS:;
#BGCHANGES:-1.250=Evacuate the Dancefloor.avi=1.000=0=0=1,
99999=-nosongbg-=1.000=0=0=0 // don't automatically add -songbackground-
;
#ATTACKS:;

//---------------dance-single - ----------------
#NOTES:
     dance-single:
     :
     Hard:
     10:
     0.499,0.460,0.314,0.020,0.074:
0000
0110
0000
0000
0000
0000
0000
0000
0000
0000
0000
0000
0000
1001
0000
0000
0000
0000
0000
0000
0000
0000
0000
0000
0000
0000
0000
0000
0000
0010
0000
0000
,
0000
0000
0000
0000
0000
0010
0000
0000
0000
0010
0000
0000
0000
0010
0000
0000
0000
0100
0000
0000
0000
0000
0000
0000
0000
1000
0000
0000
0000
0000
0000
0000
,
0000
1001
0000
0000
0000
0000
0000
0000
0000
0000
0000
0000
0000
1001
0000
0000
0000
0000
0000
0000
0000
0000
0000
0000
0000
0000
0000
0000
0000
0010
0000
0000
,
0000
0000
0000
0000
0000
0010
0000
0000
0000
0010
0000
0000
0000
1000
0000
0000
0000
1000
0000
0000
0000
0000
0000
0000
0010
0000
0000
0000
0000
0000
0000
0000
,
0101
0000
1000
0010
1000
0000
0001
0010
,
0001
0000
1000
0010
0001
0100
0001
0100
,
0000
0000
1100
0100
0010
0000
0101
0100
,
0010
0000
0001
0010
0100
1000
0100
1000
,
0000
0000
1000
0010
0001
0000
0001
0010
,
1000
0000
0100
0001
0010
0100
1000
0001
,
1000
0001
0000
0000
0100
0001
0010
0100
,
1000
0001
0000
0000
0000
0000
0000
0000
,
1000
0100
0001
1000
0100
0001
1000
0001
,
0000
0010
0010
0010
0010
0000
0110
0000
,
0001
0100
1000
0001
0100
1000
0001
1000
,
0000
0100
0100
0100
0100
0000
0110
0000
,
1000
0010
0100
1000
0010
0100
0001
0010
,
0000
0010
0010
0010
0010
0100
0110
0000
,
0000
1000
0100
0010
0001
0100
0010
1000
,
0001
1000
0001
0010
0100
0010
0100
0000
,
0101
0001
0010
0000
0100
1000
0010
0001
,
0000
0001
0001
0001
0001
0000
1001
0000
,
1100
1000
0010
0000
0100
0001
0010
1000
,
0000
1000
1000
1000
1000
0001
1001
0000
,
0010
0100
0001
0010
0100
0001
1000
0010
,
0000
1000
1000
1000
0100
0010
0100
0000
,
0001
0100
0001
0010
0100
0010
1000
0010
,
1000
0100
0010
0001
1000
0001
1001
0000
,
0110
0000
1000
0010
0100
0000
0001
0010
,
0100
0000
1000
0100
0001
0100
1000
0001
,
0000
0000
0001
0100
0010
0000
1000
0100
,
0010
0000
0001
0100
1000
0100
0001
1000
,
0000
0000
1000
0001
0010
0000
0001
1000
,
0010
0000
1000
0100
0010
0001
0010
0100
,
1000
0001
0000
0000
0001
0100
0010
1000
,
0010
0100
0000
0000
0000
0000
0110
0000
,
1000
0100
0001
1000
0100
0001
1000
0001
,
0000
0100
0100
0100
0100
0000
0110
0000
,
0001
0100
1000
0001
0100
1000
0001
1000
,
0000
0010
0010
0010
0100
0010
0110
0000
,
1000
0010
0100
0001
0010
0100
0010
0100
,
0000
1000
0100
0010
0001
0001
0001
0000
,
0000
1001
0001
0100
0001
1000
0100
1000
,
0010
0100
0010
0100
0001
1000
0001
0000
,
1100
0100
0001
0000
0101
0100
1000
0010
,
0000
0100
0100
0100
0101
0000
1010
0000
,
1010
0010
0001
0000
0011
0010
1000
0100
,
0000
0010
0010
0010
0011
0000
1100
0000
,
0100
0001
0010
0100
0001
0010
0100
1000
,
0000
0010
0100
0001
0101
0101
0101
0000
,
0000
1000
0100
1000
0010
1000
0100
0001
,
0100
1000
0010
0100
0001
1000
2002
0000
,
3003
0000
0000
0000
;

//---------------dance-single - ----------------
#NOTES:
     dance-single:
     :
     Medium:
     7:
     0.380,0.357,0.108,0.285,0.000:
1000
0000
0000
0010
0000
0000
0000
0001
,
0000
0100
1000
0100
,
0001
0000
0000
0010
0000
0000
0000
1000
,
0000
0100
0001
0000
,
0010
0002
0103
0002
,
0103
2000
3100
0020
,
0130
2000
3100
2000
,
3100
0002
0103
0020
,
0130
2000
3010
0002
,
0013
2000
3010
0002
,
0023
0000
0100
0100
,
0230
0000
0000
0300
,
1000
0100
0000
1000
0100
0000
0010
0001
,
0000
0001
0100
1000
,
0001
0100
0000
0001
0100
0000
0010
1000
,
0000
1000
0101
0000
,
1000
0001
0000
1000
0001
0000
0100
0010
,
0000
0010
0100
0000
1000
0100
0010
0000
,
0000
0001
0100
0000
0010
0000
0010
0000
,
1000
0100
1000
0100
0010
0000
0110
0000
,
0001
0010
0000
0001
0010
0000
0100
1000
,
0000
0010
0001
1000
,
1000
0010
0000
1000
0010
0000
0100
0001
,
0000
0010
1001
0000
,
1000
0010
1000
0000
0001
0010
0001
0000
,
1000
0001
1000
0001
1000
0000
1001
0000
,
0000
0010
0100
0000
1000
0100
1000
0000
,
0001
0100
0001
0100
0010
0000
0110
0000
,
1001
2000
3100
0002
,
0013
2000
3001
0002
,
1003
0002
0103
2000
,
3010
0002
1003
2000
,
3001
2000
3010
0002
,
0013
2000
0100
3010
,
0002
0000
0010
0013
,
0220
0000
0000
0330
,
1000
0010
0000
0010
0100
0000
0001
0010
,
0000
0010
0100
0000
0110
0000
0110
0000
,
0001
0010
0000
0010
0100
0000
1000
0010
,
0000
0010
0100
0000
0110
0000
0000
0000
,
1000
0100
0000
0100
0010
0000
0001
0100
,
0000
0100
0010
0000
1000
0100
0001
0000
,
0000
1000
0001
0000
0001
0100
0001
0000
,
0001
1000
0100
1000
0100
0000
1100
0000
,
0001
0010
0100
0000
1000
0001
1000
0000
,
1000
0010
0100
0000
0001
1000
0001
0000
,
1000
0010
0100
0000
0001
0100
0001
0000
,
0001
0010
0100
0000
1000
0100
1000
0000
,
0001
0001
0010
0010
,
0100
0000
0100
0000
1000
0100
0001
0000
,
0000
0010
0100
0000
1000
0001
0001
0000
,
0001
1000
1000
0010
0010
0100
0002
0000
,
0003
0000
0000
0000
;

//---------------dance-single - ----------------
#NOTES:
     dance-single:
     :
     Easy:
     5:
     0.233,0.281,0.079,0.029,0.000:
0000
0000
0000
0000
,
0000
0000
0000
0000
,
0000
0000
0000
0000
,
0000
0000
0000
0000
,
0000
1000
1000
0001
,
0001
1000
1000
0001
,
1001
0001
0001
1000
,
1000
0001
0001
1000
,
1001
0010
0001
0010
,
0100
0010
1000
0010
,
0200
0000
0000
0000
,
0000
0000
0000
0300
,
0001
0000
0010
0000
,
0100
1000
0100
1000
,
0001
0000
0100
0000
,
1000
0010
1000
0010
,
0001
0000
0110
0000
,
1000
0000
0110
0000
,
1000
0001
0100
0001
,
0001
1000
0100
1000
,
0010
0000
1000
0000
,
0100
0001
0100
0001
,
0010
0000
0001
0000
,
0100
1000
0100
1000
,
0010
0000
1100
0000
,
0010
0000
0101
0000
,
0001
1000
0100
1000
,
1000
0001
0100
0001
,
0000
0010
0010
0100
,
0100
0010
0010
0100
,
0110
0010
0010
0100
,
0100
0010
0010
0100
,
0110
0100
0001
0100
,
0010
0100
1000
0100
,
0020
0000
0000
0000
,
0000
0000
0000
0030
,
1000
0100
0100
0000
,
0010
0001
0010
0001
,
0001
0100
0100
0000
,
1000
0010
1000
0010
,
0100
0001
0010
0100
,
0100
1000
0010
0100
,
0001
0010
0100
1000
,
0001
0010
0100
1000
,
0001
0010
0010
0000
,
1000
0010
0010
0010
,
0001
0010
0010
0000
,
1000
0010
0010
0010
,
1000
0100
0100
0000
,
0001
0100
0100
0100
,
0010
0100
1000
0010
,
0010
0100
0001
0020
,
0030
0000
0000
0000
;

//---------------dance-single - ----------------
#NOTES:
     dance-single:
     :
     Beginner:
     0:
     0.070,0.100,0.000,0.020,0.000: // measure 1
0000
0000
0000
0000
,  // measure 2
0000
0000
0000
0000
,  // measure 3
0000
0000
0000
0000
,  // measure 4
0000
0000
0000
0000
,  // measure 5
1000
0000
0000
0000
,  // measure 6
0000
0000
0000
0000
,  // measure 7
1000
0000
0000
0000
,  // measure 8
0000
0000
0000
0000
,  // measure 9
0010
0000
0000
0000
,  // measure 10
0000
0000
0000
0000
,  // measure 11
0002
0000
0000
0000
,  // measure 12
0000
0000
0000
0003
,  // measure 13
0100
0000
0100
0000
,  // measure 14
0100
0000
0000
0000
,  // measure 15
1000
0000
0000
0000
,  // measure 16
0001
0000
0000
0000
,  // measure 17
0100
0000
0100
0000
,  // measure 18
0100
0000
0000
0000
,  // measure 19
0001
0000
0000
0000
,  // measure 20
1000
0000
0000
0000
,  // measure 21
0010
0000
0010
0000
,  // measure 22
0010
0000
0000
0000
,  // measure 23
0001
0000
0000
0000
,  // measure 24
1000
0000
0000
0000
,  // measure 25
0010
0000
0010
0000
,  // measure 26
0010
0000
0000
0000
,  // measure 27
1000
0000
0000
0000
,  // measure 28
0001
0000
0000
0000
,  // measure 29
0100
0000
0000
0000
,  // measure 30
0000
0000
0000
0000
,  // measure 31
0100
0000
0000
0000
,  // measure 32
0000
0000
0000
0000
,  // measure 33
0001
0000
0000
0000
,  // measure 34
0000
0000
0000
0000
,  // measure 35
2000
0000
0000
0000
,  // measure 36
0000
0000
0000
3000
,  // measure 37
1000
0000
1000
0000
,  // measure 38
1000
0000
0000
0000
,  // measure 39
0010
0000
0000
0000
,  // measure 40
0100
0000
0000
0000
,  // measure 41
0001
0000
0001
0000
,  // measure 42
0001
0000
0000
0000
,  // measure 43
0010
0000
0000
0000
,  // measure 44
0100
0000
0000
0000
,  // measure 45
1000
0000
1000
0000
,  // measure 46
1000
0000
0000
0000
,  // measure 47
0100
0000
0000
0000
,  // measure 48
0010
0000
0000
0000
,  // measure 49
0001
0000
0001
0000
,  // measure 50
0001
0000
0000
0000
,  // measure 51
0100
0000
0000
0000
,  // measure 52
0010
0000
0000
0000
;
