#TITLE:Circus;
#SUBTITLE:;
#ARTIST:Britney Spears;
#TITLETRANSLIT:;
#SUBTITLETRANSLIT:;
#ARTISTTRANSLIT:;
#GENRE:;
#CREDIT:;
#MENUCOLOR:;
#METERTYPE:DDR X;
#BANNER:Circus.png;
#BACKGROUND:Circus-bg.png;
#LYRICSPATH:;
#CDTITLE:;
#MUSIC:Circus.ogg;
#OFFSET:-0.150;
#SAMPLESTART:52.340;
#SAMPLELENGTH:12.000;
#SELECTABLE:YES;
#LISTSORT:;
#DISPLAYBPM:115.000;
#BPMS:0.000=115.010;
#STOPS:;
#BGCHANGES:-0.250=Circus.avi=1.000=0=0=0,
141.000=Circus.avi=0.000=0=0=1,
99999=-nosongbg-=1.000=0=0=0 // don't automatically add -songbackground-
;
#ATTACKS:;

//---------------dance-single - ----------------
#NOTES:
     dance-single:
     :
     Beginner:
     2:
     0.104,0.164,0.013,0.094,0.000:
0000
0000
0000
0000
,
0000
0000
0000
0000
,
1000
0000
0000
0000
,
0000
0000
0000
0000
,
0100
0000
0100
0000
,
0100
0000
0000
0000
,
0010
0000
0000
0000
,
0010
0000
0000
0000
,
1000
0000
1000
0000
,
1000
0000
0000
0000
,
0001
0000
0000
0000
,
0001
0000
0000
0000
,
2000
0000
0000
0000
,
3001
0000
0000
0000
,
0002
0000
0000
0000
,
1003
0000
0100
0000
,
0002
0000
0000
0000
,
0000
0000
0000
0003
,
2000
0000
0000
0000
,
0000
0000
0000
3000
,
0020
0000
0000
0000
,
0000
0000
0000
0030
,
0200
0000
0000
0000
,
0000
0000
0000
0300
,
1000
0000
0200
0300
,
0001
0000
0001
0000
,
0001
0000
0100
0000
,
1000
0000
1000
0000
,
1000
0000
0100
0000
,
1000
0000
0010
0000
,
0001
0000
0010
0000
,
1000
0000
0100
0000
,
0001
0000
0100
0000
,
1000
0001
1000
0001
,
1000
0001
1000
0000
,
1001
0000
0000
0000
;

//---------------dance-single - ----------------
#NOTES:
     dance-single:
     :
     Hard:
     10:
     0.491,0.587,0.242,0.403,0.074: // measure 1
1001
0000
0000
0000
,  // measure 2
0000
0000
1000
0000
1000
0000
0000
0000
0000
0000
0000
0000
,  // measure 3
0010
0100
0010
0100
0010
1000
0010
1000
,  // measure 4
0010
0100
0010
0100
0001
0010
0100
1000
,  // measure 5
1001
0000
1000
0100
0010
0001
1000
0001
,  // measure 6
1000
0000
1000
1001
0000
2000
0100
0010
,  // measure 7
3001
0000
0010
0000
0001
0000
0000
0000
0000
0000
0100
0010
0100
0000
0010
0000
,  // measure 8
0000
0110
0000
0000
0000
0002
0010
0100
,  // measure 9
1003
0000
1000
1100
0000
0001
0101
0001
,  // measure 10
1001
0000
1000
1001
0000
0010
0100
1000
,  // measure 11
0001
0010
0100
0000
0000
0200
1000
0010
,  // measure 12
0301
0000
1000
1010
0000
0020
0001
0100
,  // measure 13
1030
0010
0100
0001
0000
1000
1000
1000
,  // measure 14
0001
0000
0001
0101
0000
1000
0010
0100
,  // measure 15
0001
0000
0010
0011
0000
0001
0001
0001
,  // measure 16
1000
0000
0000
0000
0100
1000
0100
0000
0020
0000
0030
0000
0100
0000
0002
0000
,  // measure 17
0000
0000
0000
0000
0000
0010
0100
0000
,  // measure 18
0010
1000
0010
0100
0013
0001
0100
2000
,  // measure 19
0000
0000
0010
0100
,  // measure 20
0001
0100
0001
0010
3001
0100
0010
0002
,  // measure 21
0000
0000
0000
0000
0010
0100
1000
0000
,  // measure 22
0010
0100
0010
0000
0013
0100
1000
2000
,  // measure 23
0000
0000
0000
0000
0000
0100
0010
0100
,  // measure 24
0001
0010
0001
0100
3001
0100
0010
2002
,  // measure 25
0000
0000
0000
3003
,  // measure 26
1000
0100
1000
0010
2000
0000
3001
0000
,  // measure 27
0001
0000
0100
0000
0001
0000
0010
0000
1000
0000
0001
0000
1000
0001
1000
0000
,  // measure 28
0001
0010
0001
1000
0002
0000
1003
0000
,  // measure 29
1000
0000
0100
0000
1000
0000
0010
0000
0001
0000
1000
0000
0001
1000
0001
0000
,  // measure 30
0000
2000
3100
0020
0031
0020
0130
0020
,  // measure 31
0030
2000
3100
0020
0031
0200
0301
2002
,  // measure 32
3003
0000
0100
0010
0100
0000
0001
0010
0001
0000
0100
0010
0100
0010
0100
0000
,  // measure 33
1000
0000
0100
0000
0010
0000
0001
0000
1000
0000
0100
0000
0010
0001
0010
0000
,  // measure 34
1000
0000
2020
0030
3001
0000
0022
0030
,  // measure 35
1003
0000
0202
0300
1003
0100
2200
3300
,  // measure 36
1001
0000
0000
0000
;

//---------------dance-single - ----------------
#NOTES:
     dance-single:
     :
     Medium:
     6:
     0.326,0.423,0.336,0.134,0.000:
1001
0000
0000
0000
,
0000
0000
0000
0000
,
1000
0100
1000
0100
,
0001
0100
0001
0100
0001
0000
1100
0000
,
0001
0000
0010
0100
0010
0000
0001
0000
,
1000
0000
0010
0100
0010
0000
1000
0000
,
1000
0010
0100
0000
0000
0001
1000
0010
,
0100
0000
0000
0110
,
0001
0000
0100
0010
0100
0000
0001
0000
,
1000
0000
0100
0010
0100
0000
1000
0000
,
0001
0010
0100
0000
0000
1000
0001
0010
,
0100
0000
0000
1100
,
0202
0000
0000
0303
,
1000
0000
0000
0000
,
2200
0000
0000
3300
,
0001
0000
0010
0100
1000
0100
0010
0100
,
0002
0000
0000
1000
,
0100
0010
0100
1003
,
2000
0000
0010
0100
,
0001
0100
0010
3100
,
0020
0000
1000
0001
,
1000
0001
0100
1030
,
0200
0000
0001
1000
,
0010
0001
0010
1300
,
0220
0000
0000
0330
,
1000
0000
0100
0000
1000
0100
1000
0000
,
0001
0000
0100
0000
0001
0100
0001
0100
,
0010
0000
1000
0000
0010
1000
0010
0000
,
0010
0000
0001
0000
0010
0001
0010
0001
,
1000
0110
0001
0110
,
1000
0100
0001
0100
1000
0100
0001
0100
,
0000
1100
0011
1010
,
0101
1010
0011
1001
,
0110
0110
1100
1100
,
0110
0110
0101
0101
,
1001
0000
0000
0000
;

//---------------dance-single - ----------------
#NOTES:
     dance-single:
     :
     Easy:
     4:
     0.221,0.282,0.322,0.134,0.000:
1000
0000
0000
0000
,
0000
0000
0000
0000
,
0001
0001
0100
1000
,
1000
1000
0100
0001
,
1001
1001
0000
0000
,
1001
1001
0000
0000
,
0110
0110
0000
0000
,
0110
0110
0000
0000
,
1100
1100
0000
0000
,
0101
0101
0000
0000
,
1010
1010
0000
0000
,
0011
0011
0000
0000
,
2000
3001
0000
0000
,
0000
0100
0100
0000
,
0002
1003
0000
0000
,
0010
0010
1000
0001
,
0200
0000
0000
0000
,
0000
0000
0000
0300
,
0020
0000
0000
0000
,
0000
0000
0000
0030
,
0220
0000
0000
0000
,
0000
0000
0000
0330
,
0220
0000
0000
0000
,
0000
0000
0000
0330
,
2002
0000
0000
3003
,
1000
0100
1000
0001
,
1000
0100
1000
0001
,
0001
0100
0001
1000
,
0001
0100
0001
1000
,
0010
0010
0100
0100
,
1000
0001
1000
0001
,
0010
0010
0100
0100
,
1000
0001
1000
0001
,
1001
1000
1001
1000
,
1001
0001
1001
0001
,
0110
0000
0000
0000
;
