#TITLE:Call Me;
#SUBTITLE:;
#ARTIST:Blondie;
#TITLETRANSLIT:;
#SUBTITLETRANSLIT:;
#ARTISTTRANSLIT:;
#GENRE:;
#CREDIT:;
#MENUCOLOR:;
#METERTYPE:DDR X;
#BANNER:Call Me.png;
#BACKGROUND:Call Me-bg.png;
#LYRICSPATH:;
#CDTITLE:;
#MUSIC:Call Me.ogg;
#OFFSET:-1.012;
#SAMPLESTART:35.980;
#SAMPLELENGTH:12.000;
#SELECTABLE:YES;
#LISTSORT:;
#DISPLAYBPM:142.000;
#BPMS:0.000=142.020;
#STOPS:;
#BGCHANGES:;
#ATTACKS:;

//---------------dance-single - ----------------
#NOTES:
     dance-single:
     :
     Hard:
     13:
     0.575,0.670,0.582,0.156,0.894:
1000
0100
1000
0010
0100
0010
1000
0100
1000
0001
0100
0001
,
1000
0000
0000
0100
0000
0100
1000
0000
0000
0100
0000
0100
,
0001
0000
0000
0100
0000
0100
1100
0000
0000
0011
0000
0000
,
0010
0000
0000
0100
0000
0001
0010
0000
0000
0100
0000
0001
,
1000
0000
0000
0100
0000
1000
1010
0000
0000
0101
0000
0000
,
1000
0100
1000
0100
0000
0000
0001
0100
0001
0100
0000
0000
,
1000
0010
1000
0010
0100
0010
1000
0000
0000
0011
0000
0000
,
0100
0001
0100
0001
0000
0000
0100
1000
0100
1000
0000
0000
,
0100
0001
0100
0001
0010
0100
1000
0000
0000
1001
0000
0000
,
1000
0000
0100
0000
0000
0010
0000
0000
0100
0000
0000
1000
,
0000
0000
0000
0000
0001
0000
0000
0000
0000
0000
0010
0000
0000
0000
0000
0000
0100
0000
2000
0000
0000
3000
0000
0000
,
0001
0000
0101
0000
0000
1100
0000
0000
1000
0000
0000
0010
,
0000
0000
0000
0000
0000
0000
0000
0000
0000
0100
0000
1000
,
0010
0000
0100
0000
0000
0001
0000
0000
1000
0000
0000
0010
,
0000
0000
0000
0000
0100
0000
0000
0000
0000
0000
0110
0000
0000
0000
0000
0000
1001
0000
2000
0000
0000
3000
0000
0000
,
0100
0000
0001
0000
0000
0010
0000
0000
0100
0000
0000
2000
,
3000
0000
0000
0000
0000
0000
2200
3300
,
0001
0000
0010
0000
0000
0001
0000
0000
0010
0000
0000
0001
,
0100
0000
1000
0000
0000
0100
0000
0000
0010
0001
0100
0001
,
0010
0000
0100
0000
0000
1000
0000
0000
0001
0000
0000
1000
,
0100
0010
0100
0010
0001
0010
1000
0100
1000
0001
0000
1001
,
0000
0000
0000
1000
0000
1001
0000
0000
1000
0100
0000
0010
,
0000
0000
1010
0010
,
0110
0000
0000
0001
0000
0000
1000
0000
1000
0000
0000
0000
,
0100
0000
0001
0000
0010
0000
0000
0000
0000
1000
0000
1001
,
0000
0000
0000
0001
0000
1001
0000
0000
1000
0100
0000
0020
,
0030
0000
0101
1010
,
1100
0110
0011
0110
,
1000
0100
0001
0100
1000
0100
0010
0100
1000
0100
0010
0100
,
0001
0010
0001
0010
0000
0000
1000
0010
1000
0010
0000
0000
,
0001
0010
0001
0010
0000
1000
0010
0000
0000
0110
0000
0000
,
0010
1000
0010
1000
0000
0000
0010
0001
0010
0001
0000
0000
,
0010
1000
0010
1000
0000
0010
0001
0000
0000
1001
0000
0000
,
1000
0000
0010
0000
0000
0100
0000
0000
0001
0000
0000
1001
,
0000
0000
1000
0000
0000
0011
0000
0000
1000
0000
0000
0000
,
1010
0000
0100
0000
0000
1010
0000
0000
0001
0000
0000
1000
,
0000
0000
0000
0000
1000
0000
0000
0000
0000
0000
0000
0000
0000
0000
0000
0000
0000
0000
2020
0000
0000
3030
0000
0000
,
0002
0000
0000
0203
0000
0000
0320
0000
0000
1030
0000
0001
,
0000
0000
0000
0000
0100
0000
0000
0000
0000
0000
0010
0000
0000
0000
0000
0000
1000
0000
0200
0000
0000
0300
0000
0000
,
0011
0000
0000
0101
0000
0000
1010
0000
0000
1100
0000
0001
,
0000
0000
0000
1000
0000
0100
0010
0001
0010
0100
0000
1000
,
0000
0000
0100
0000
0000
1100
0000
0000
0001
0000
0000
0100
,
0000
0000
0101
0000
0000
0101
0000
0000
0000
0000
0000
0000
,
1100
0000
0010
0000
0000
0101
0000
0000
0010
0000
0000
0000
,
2000
0000
0000
3001
0000
0100
1000
0100
0001
1000
0100
0001
,
0001
0100
1000
0001
0100
1000
0001
1000
0001
1001
0000
1001
,
0000
0000
0000
0110
0000
0110
0000
0000
1000
0100
0000
0002
,
0003
0000
1001
1100
,
1001
0000
0000
0101
0000
0000
1000
0000
1000
0000
0000
0000
,
0001
0000
0001
0000
0000
0100
0000
0000
0000
1000
0000
0000
,
1010
0000
0000
0001
0000
0101
0000
0000
1000
0010
0000
0200
,
0300
0000
1001
0101
,
1100
1010
0011
0101
,
1000
0100
0010
0001
0100
0010
1000
0100
0010
0001
0100
0010
,
1000
0010
1000
0010
0000
0000
0001
0010
0001
0010
0000
0000
,
1000
0001
1000
0001
0000
0000
1001
0000
0000
1000
0100
0010
,
0001
0000
0000
0000
;

//---------------dance-single - ----------------
#NOTES:
     dance-single:
     :
     Easy:
     5:
     0.293,0.421,0.333,0.125,0.000:
0000
0000
0000
0000
,
1000
0100
0000
0100
,
0000
0100
0101
0101
,
0001
0100
0000
0100
,
0000
0100
1100
1100
,
0010
0100
0100
0001
,
0010
0100
1100
1001
,
0100
1000
1000
0010
,
0100
0001
0001
0010
,
0100
0000
1000
0000
,
0001
0000
1000
0000
,
0100
0000
0001
0000
,
2000
0000
0000
3000
,
0101
0000
0010
0000
,
1000
0000
0100
0000
,
0101
0000
0010
0000
,
2000
0000
0000
3000
,
1100
0000
0001
0000
,
0011
0000
1000
0000
,
1010
0000
0001
0000
,
0101
0000
0000
1000
,
1000
0100
0100
0000
,
0002
0003
0200
0300
,
0010
0100
0010
0100
,
1000
1000
1000
0001
,
0001
0100
0100
0000
,
2000
3000
0200
0300
,
0010
0100
0010
0100
,
0001
0001
0001
1000
,
0100
0010
0001
0010
,
0001
0100
1010
0001
,
0100
0010
1000
0010
,
1000
0100
0011
1001
,
1000
0000
0010
0000
,
0001
0000
0010
0000
,
1000
0000
0001
0000
,
2000
0000
0000
3000
,
0001
0000
0110
0000
,
1000
0000
0110
0000
,
0001
0000
0110
0000
,
2000
0000
0000
3100
,
0100
0010
0010
0001
,
0001
0010
2000
3000
,
0100
0100
0010
0010
,
1000
1000
0020
0000
,
0000
0000
0030
0101
,
1100
0101
1100
0001
,
0001
0000
1000
0100
,
0001
0100
0010
0100
,
1000
0100
0101
1001
,
1001
1100
1100
0101
,
0202
0303
1000
0100
,
0010
0100
0001
0010
,
1000
0010
1100
0101
,
1001
0000
0000
0000
;

//---------------dance-single - ----------------
#NOTES:
     dance-single:
     :
     Beginner:
     2:
     0.097,0.146,0.021,0.083,0.000:
0000
0000
0000
0000
,
0000
0000
0000
0000
,
0000
0000
0000
0000
,
0000
0000
0000
0000
,
0000
0000
0000
0000
,
1000
0000
0000
0000
,
0000
0000
0100
0000
,
0001
0000
0000
0000
,
0000
0000
0100
0000
,
0010
0000
0000
0000
,
1000
0000
0000
0000
,
0100
0000
0000
0000
,
1000
0000
0000
0000
,
0010
0000
0000
0000
,
0001
0000
0000
0000
,
0100
0000
0000
0000
,
0001
0000
0000
0000
,
2000
0000
0000
3000
,
0002
0000
0000
0003
,
0020
0000
0000
0030
,
0200
0000
0000
0300
,
0010
0000
0000
0000
,
0001
0000
0000
0000
,
1000
0000
0010
0000
,
0100
0000
0000
0000
,
0010
0000
0000
0000
,
1000
0000
0000
0000
,
0001
0000
0010
0000
,
0100
0000
0000
0000
,
1000
0000
0000
0000
,
0000
0000
0010
0000
,
0001
0000
0000
0000
,
0000
0000
0010
0000
,
1000
0000
0000
0000
,
0001
0000
0000
0000
,
0010
0000
0000
0000
,
0010
0000
0000
0000
,
0001
0000
0000
0000
,
1000
0000
0000
0000
,
0010
0000
0000
0000
,
0010
0000
0000
0000
,
2000
0000
0000
3000
,
0002
0000
0000
0003
,
0200
0000
0000
0300
,
0020
0000
0000
0000
,
0000
0000
0000
0030
,
0100
0000
0000
0000
,
1000
0000
0000
0000
,
0010
0000
0001
0000
,
0100
0000
0000
0000
,
0100
0000
0000
0000
,
0001
0000
0000
0000
,
0010
0000
1000
0000
,
0100
0000
0000
0000
,
1001
0000
0000
0000
,
0000
0000
0100
0000
,
0110
0000
0000
0000
;

//---------------dance-single - ----------------
#NOTES:
     dance-single:
     :
     Medium:
     10:
     0.425,0.437,0.385,0.343,0.286: // measure 1
0000
0000
0000
0000
,  // measure 2
1000
0000
0000
1000
0000
1000
0001
0000
0000
0001
0000
0001
,  // measure 3
1000
0000
0100
1000
0000
0000
0011
0000
0000
0011
0000
0000
,  // measure 4
0001
0000
0000
0001
0000
0001
1000
0000
0000
1000
0000
1000
,  // measure 5
0001
0000
0100
0001
0000
0000
1010
0000
0000
1100
0000
0000
,  // measure 6
0001
0000
0010
0100
0000
0000
1000
0000
0100
0010
0000
0000
,  // measure 7
0001
0000
0100
0010
0000
0000
0110
0000
0000
1001
0000
0000
,  // measure 8
1000
0000
0010
0100
0000
0000
0001
0000
0010
0100
0000
0000
,  // measure 9
1000
0000
0010
0100
0000
0000
0110
0000
0000
1001
0000
0000
,  // measure 10
0200
0000
0000
0301
,  // measure 11
0020
0000
0030
1010
,  // measure 12
0200
0000
0000
1300
,  // measure 13
0020
0000
0030
0011
,  // measure 14
2002
0000
3003
0100
,  // measure 15
0022
0000
0033
0100
,  // measure 16
2200
0000
3300
0010
,  // measure 17
0202
0000
0303
1000
,  // measure 18
0200
0300
0002
0003
,  // measure 19
0200
0300
0002
0003
,  // measure 20
0020
0030
2000
3000
,  // measure 21
0002
0003
0200
0310
,  // measure 22
0110
1001
1001
0001
,  // measure 23
2000
3000
0001
0010
,  // measure 24
0100
0000
0000
1000
0000
0000
0001
0000
0001
0000
0000
0000
,  // measure 25
1000
0000
0000
0000
0000
0000
0000
0000
1000
0000
0000
0000
0000
0000
0000
0000
0000
0000
0000
1000
0000
0000
0000
0000
0000
0000
0000
0000
0000
0000
0000
0000
0000
0000
0000
0000
0110
0000
0000
0000
0000
0000
0000
0000
0000
0000
0000
0000
,  // measure 26
0110
1001
1001
1000
,  // measure 27
0002
0003
1000
0010
,  // measure 28
0100
0000
0000
0001
0000
0000
1000
0000
1000
0000
0000
0001
,  // measure 29
0000
0000
0001
0000
0000
0000
0101
0000
0000
0000
0000
0000
,  // measure 30
1000
0000
0100
0001
0000
0000
0001
0000
0100
1000
0000
0000
,  // measure 31
0010
0000
0100
0010
0000
0000
1010
0000
0000
0101
0000
0000
,  // measure 32
1000
0000
0010
0001
0000
0000
0001
0000
0010
1000
0000
0000
,  // measure 33
0100
0000
0010
0100
0000
0000
0011
0000
0000
1100
0000
0000
,  // measure 34
0002
0010
0100
0000
,  // measure 35
0010
0100
1003
0000
,  // measure 36
2000
0010
0100
0000
,  // measure 37
0010
0100
3001
0000
,  // measure 38
2000
3100
0200
0310
,  // measure 39
0020
0031
0002
1003
,  // measure 40
0002
0013
0020
0130
,  // measure 41
2000
0000
0000
0000
0000
0000
0000
0000
0000
3001
0000
0001
,  // measure 42
0000
0000
0010
0000
0000
0100
0000
0000
1000
0000
0000
0001
,  // measure 43
0000
0000
1000
0000
0000
0001
0000
0000
0000
0000
0000
0000
,  // measure 44
1001
0000
1000
0000
0000
0001
0000
0000
1000
0000
0000
0000
,  // measure 45
0010
0000
0000
0100
0000
2000
0000
0000
0000
0000
0000
0000
,  // measure 46
3010
0000
0010
0100
0000
0100
0001
0000
0001
1000
0000
1000
,  // measure 47
0000
0000
0000
0001
0000
0001
0000
0000
0100
0010
0000
0000
,  // measure 48
0200
0000
1300
0001
,  // measure 49
1010
0000
0000
0100
0000
0000
0011
0000
0001
0000
0000
0000
,  // measure 50
1010
0000
1000
0000
0000
0100
0000
0000
0000
0110
0000
0000
,  // measure 51
0110
0000
0000
1001
0000
0000
1001
0000
1000
0100
0000
0001
,  // measure 52
0000
0000
1000
0011
,  // measure 53
0001
0000
0000
1010
0000
0000
0100
0000
0100
0000
0000
0000
,  // measure 54
0010
0000
0001
0100
0000
1000
0100
0000
1000
0001
0000
0000
,  // measure 55
0001
0000
0100
0010
0000
0000
1000
0000
0100
0010
0000
0000
,  // measure 56
0001
0000
0100
0010
0000
0000
1000
0001
1000
0001
0000
0000
,  // measure 57
1001
0000
0000
0000
;
