#TITLE:Breed;
#SUBTITLE:;
#ARTIST:Nirvana;
#TITLETRANSLIT:;
#SUBTITLETRANSLIT:;
#ARTISTTRANSLIT:;
#GENRE:;
#CREDIT:;
#MENUCOLOR:;
#METERTYPE:DDR X;
#BANNER:Breed.png;
#BACKGROUND:Breed-bg.png;
#LYRICSPATH:;
#CDTITLE:;
#MUSIC:Breed.ogg;
#OFFSET:-0.030;
#SAMPLESTART:34.100;
#SAMPLELENGTH:15.000;
#SELECTABLE:YES;
#LISTSORT:;
#DISPLAYBPM:160.000;
#BPMS:0.000=161.620,96.000=159.100,128.000=157.700,142.000=158.020,156.000=159.720,224.000=158.680,255.000=156.300,264.000=157.380,280.000=157.220;
#STOPS:;
#BGCHANGES:0.000=Breed.avi=1.000=0=0=0,
99999=-nosongbg-=1.000=0=0=0 // don't automatically add -songbackground-
;
#ATTACKS:;

//---------------dance-single - ----------------
#NOTES:
     dance-single:
     :
     Hard:
     13:
     0.638,0.664,0.258,0.151,0.058:
0010
0010
0100
1000
1000
0010
1000
0000
,
0001
0010
0001
1000
0001
0010
0001
0000
,
0100
0100
0010
1000
0001
0010
0001
0000
,
0100
0100
0010
1000
1000
0010
1010
0000
,
0001
0001
0100
0010
1000
0010
0110
0000
,
1000
1000
0100
0010
0001
0010
0011
0000
,
0001
0001
0100
0010
1000
0100
0110
0000
,
1000
0000
1000
0000
0100
0000
0010
0000
0001
0100
0001
0100
0001
1000
0001
0000
,
1000
0000
0100
0010
0100
0000
1000
0010
,
1000
0000
0100
0010
0100
0000
1000
0010
,
1000
0000
0001
1000
0001
0000
0000
0000
,
1000
0010
0100
0001
0000
0000
0110
0000
,
1001
0000
0100
0010
0100
0000
0001
0010
,
0001
0000
0100
0010
0100
0000
0001
0010
,
0001
0000
1000
0001
1000
0000
0000
0000
,
0001
0010
0100
1000
0000
0000
1001
0000
,
0110
0000
1000
0010
0100
0000
0001
0010
,
0100
0000
1000
0001
1000
0000
0001
1000
,
0001
0000
0001
0010
0100
0000
1000
0010
,
0100
0000
0010
0100
0010
0100
0101
0000
,
0011
0000
1000
0100
1000
0000
0001
0100
,
0001
0000
1000
0100
1000
0000
0001
0100
,
0001
0000
1000
0100
1000
0000
0000
0000
,
1000
0000
0001
0000
1000
0000
0001
0000
1000
0001
1000
0001
1000
0001
1000
0100
,
0010
0100
0010
0100
0001
0000
0000
0000
,
0010
0100
0010
0100
1000
0000
0101
0000
,
1000
0010
1000
0010
0100
0000
0000
0000
,
0001
0010
0001
0010
0100
0000
1001
0000
,
1000
0001
0100
0001
1000
0000
0011
0000
,
1000
0001
0100
0001
1000
0000
1010
0000
,
0010
0100
1000
0100
0001
0000
0000
0000
,
0010
0100
0001
0100
1000
0000
0001
0001
,
1000
0100
1000
0100
0010
0001
0100
0100
,
0001
0100
0001
0100
0010
1000
0100
0100
,
1000
0100
1000
0100
0010
0001
0100
0100
,
0001
1000
0001
1000
0010
1000
1001
0000
,
0001
0100
0001
0100
0010
1000
0001
0001
,
0100
0001
0100
0001
0010
0001
1000
1000
,
0001
0100
0001
0100
0010
1000
1001
0000
,
2002
0000
0000
0000
3003
0000
0000
0000
1000
0000
0100
1000
0100
1000
0001
0000
,
1000
0000
0001
0010
0001
0000
0010
0001
,
0100
0000
0010
1000
0100
0000
0010
0001
,
0100
0000
0100
0010
0100
0000
0000
0000
,
0100
0001
0100
0002
0000
0003
0101
0000
,
1010
0000
1000
0100
0010
0000
0001
0100
,
0010
0000
1000
0100
0010
0000
0001
0100
,
0010
0000
0010
0100
0010
0000
0000
0000
,
0010
1000
0010
2000
0000
3000
1010
0000
,
0101
0000
1000
1000
2000
0000
3100
0100
,
0200
0000
0310
0010
0020
0000
0031
0001
,
0002
0000
1003
1000
2000
0000
3001
0000
,
0010
0100
0010
0002
0000
0003
1001
0000
,
0110
0000
1000
0010
2000
0000
3001
0010
,
0002
0000
1003
0010
2000
0000
3001
0010
,
0002
0000
1003
0001
2000
0000
3000
0000
,
0001
0000
1000
0000
0001
0000
1000
0000
0001
1000
0001
1000
0001
1000
0001
0010
,
0100
0010
0100
0010
0001
0000
0000
0000
,
0100
0010
0001
0010
0001
0000
1010
0000
,
0010
0100
0010
0100
1000
0000
0000
0000
,
0010
0100
1000
0100
1000
0000
1001
0000
,
0001
1000
0010
1000
0001
0000
1100
0000
,
0001
1000
0010
1000
0001
0000
0101
0000
,
0100
0010
0001
0010
1000
0000
0000
0000
,
0100
0010
1000
0010
0001
0000
1000
1000
,
0001
0010
0001
0010
0100
1000
0100
0100
,
1000
0010
1000
0010
0100
0001
0100
0100
,
0001
0010
0001
0010
0100
1000
0001
0001
,
1000
0001
1000
0001
0100
0001
1000
1000
,
1000
0010
1000
0010
0100
0001
0100
0100
,
0010
1000
0010
1000
0100
1000
0100
0100
,
1000
0010
1000
0010
0100
0001
1001
0000
,
2002
0000
0000
0000
,
0000
0000
0000
0000
,
0000
0000
0000
0000
,
0000
0000
3003
0000
;

//---------------dance-single - ----------------
#NOTES:
     dance-single:
     :
     Medium:
     10:
     0.463,0.485,0.169,0.348,0.000:
0000
0000
0000
0000
,
0000
0000
0000
0000
,
0000
0000
0000
0000
,
0000
0000
0000
0000
,
1000
0000
0010
0000
0100
0010
0001
0000
,
0001
0000
0010
0000
0100
0010
1000
0000
,
0001
0000
0010
0000
0100
0001
1000
0000
,
1000
0000
0010
0000
0100
0001
1000
0001
,
1000
0020
0130
0020
,
0130
0002
1003
0002
,
1003
0200
0310
0200
,
0310
0010
0100
0110
,
1001
2000
3001
2000
,
3001
0020
0130
0020
,
0130
0002
1003
0002
,
1003
0001
1000
1001
,
0110
2000
3100
2000
,
3100
0002
0103
0002
,
0103
0020
1030
0020
,
0130
0001
0010
0011
,
1100
0020
0031
0020
,
0031
0200
1300
0200
,
1300
0020
1030
0000
,
2002
0000
0000
3003
,
1000
0000
0000
0010
0100
0000
0000
0000
,
0001
0010
0001
0010
0001
0000
0000
0000
,
0001
0000
0000
0010
0100
0000
0000
0000
,
1000
0010
1000
0010
1000
0000
0000
0000
,
1000
0100
0001
0000
1001
0000
0000
0000
,
0001
0100
1000
0000
1001
0000
0000
0000
,
0001
0010
1000
0000
1001
0000
0000
0000
,
1000
0010
0001
0000
1001
0000
0110
0000
,
1000
0100
1000
0001
0100
0000
0101
0000
,
0001
0100
0001
1000
0100
0000
1100
0000
,
1000
0010
1000
0001
0010
0000
0011
0000
,
0001
0010
0001
1000
0010
0000
1010
0000
,
1000
0010
0100
0001
0100
0000
0010
0000
,
0001
0010
0100
1000
0100
0000
0010
0000
,
1000
0010
0001
0010
1000
0000
1000
0000
,
0002
0000
0000
0000
1003
1000
1000
0000
,
0101
0020
0130
2000
,
3010
0020
0130
0002
,
0013
0200
0310
0000
,
0100
0010
0100
0010
0000
0000
0000
0000
,
1000
0020
0031
0200
,
0301
0020
0031
0200
,
0301
0002
1003
0000
,
0100
0010
0100
0010
0000
0000
0000
0000
,
0000
0000
1000
0100
0010
0000
1000
0100
,
0010
0000
1000
0100
0010
0000
1000
0100
,
0010
0000
0001
0100
0010
0000
0000
0000
,
1000
0001
1000
0001
0000
0000
0000
0000
,
0000
0000
0001
0100
0010
0000
0001
0100
,
0010
0000
0001
0100
0010
0000
0001
0100
,
0010
0000
1000
0100
0010
0000
0000
0000
,
0220
0000
0000
0330
,
1000
0000
0000
0010
1000
0000
0000
0000
,
0100
0001
0010
0100
1000
0000
0000
0000
,
0001
0000
0000
0010
0001
0000
0000
0000
,
0100
1000
0010
0100
0001
0000
0000
0000
,
1000
0100
1000
0100
0010
0000
0000
0000
,
0001
0010
0001
0010
0100
0000
0000
0000
,
1000
0010
1000
0010
0100
0000
0000
0000
,
0001
0100
0001
0100
0010
0000
0101
0000
,
1000
0100
0001
0100
1000
0000
1000
0000
,
0001
0100
1000
0100
0001
0000
0001
0000
,
1000
0010
0001
0010
1000
0000
1000
0000
,
0001
0010
1000
0010
0001
0000
0001
0000
,
1000
0010
0100
0001
0100
0000
0010
0000
,
0001
0010
0100
1000
0100
0000
0010
0000
,
1000
0010
0100
0001
0100
0000
0010
0010
,
0020
0000
0000
0000
,
0000
0000
0030
0000
;

//---------------dance-single - ----------------
#NOTES:
     dance-single:
     :
     Easy:
     6:
     0.304,0.316,0.062,0.160,0.000:
0000
0000
0000
0000
,
0000
0000
0000
0000
,
0000
0000
0000
0000
,
0000
0000
0000
0000
,
0001
0100
0010
1000
,
0001
0100
0010
1000
,
0001
0100
0010
1000
,
0001
0100
0010
0110
,
1000
0100
0010
0001
,
1000
0100
0010
0001
,
1000
0100
0010
0001
,
1000
0100
0011
0011
,
0000
1000
0001
1000
,
0001
1000
0001
1000
,
0001
1000
0001
0000
,
0010
0010
0010
0000
,
0000
0001
1000
0001
,
1000
0001
1000
0001
,
1000
0001
1000
0000
,
0010
0010
0010
0000
,
0000
0100
0010
0100
,
0010
0100
0010
0100
,
0010
0100
0010
0000
,
0200
0000
0000
0300
,
0020
0000
0130
0000
,
0200
0000
1300
0000
,
2000
0000
3001
0000
,
0002
0000
1003
0000
,
2000
0000
3010
0000
,
0020
0000
0130
0000
,
0200
0000
0301
0000
,
0002
0000
1003
0000
,
0100
0010
0001
1000
,
0100
0010
0001
1000
,
0100
0010
0001
1000
,
0100
0010
0001
1001
,
0100
0010
1000
0001
,
0100
0010
1000
0001
,
0100
0010
1000
0001
,
0100
0010
1001
1001
,
0000
0100
1000
0100
,
1000
0100
1000
0100
,
1000
0100
1000
0000
,
0001
0001
0001
0000
,
0000
0100
0001
0100
,
0001
0100
0001
0100
,
0001
0100
0001
0000
,
1000
1000
1000
0000
,
0000
0010
0100
1000
,
0100
0010
0100
0001
,
0100
0010
0100
0000
,
1000
0100
0001
0000
,
0000
0100
0010
0100
,
0001
0100
0010
0100
,
1000
0100
0010
0100
,
0020
0000
0000
0030
,
0020
0000
0130
0000
,
0200
0000
1300
0000
,
2000
0000
3001
0000
,
0002
0000
1003
0000
,
2000
0000
3010
0000
,
0020
0000
0130
0000
,
0200
0000
0301
0000
,
0002
0000
1003
1000
,
0100
0100
0001
0010
,
0100
0100
1000
0010
,
0100
0100
0001
0010
,
0100
0100
1000
0010
,
0010
0010
1000
0100
,
0010
0010
0001
0100
,
0010
0010
1000
0100
,
0110
0000
0000
0000
;

//---------------dance-single - ----------------
#NOTES:
     dance-single:
     :
     Beginner:
     3:
     0.117,0.158,0.080,0.018,0.000: // measure 1
0000
0000
0000
0000
,  // measure 2
0000
0000
0000
0000
,  // measure 3
0000
0000
0000
0000
,  // measure 4
0000
0000
0000
0000
,  // measure 5
0000
0000
0000
0000
,  // measure 6
0000
0000
0000
0000
,  // measure 7
0000
0000
0000
0000
,  // measure 8
0000
0000
0000
0000
,  // measure 9
0000
0000
1000
0000
,  // measure 10
1000
0000
1000
0000
,  // measure 11
1000
0000
1000
0000
,  // measure 12
0001
0000
0001
0000
,  // measure 13
0000
0000
1000
0000
,  // measure 14
1000
0000
1000
0000
,  // measure 15
1000
0000
1000
0000
,  // measure 16
0001
0000
0001
0000
,  // measure 17
0000
0000
0001
0000
,  // measure 18
0001
0000
0001
0000
,  // measure 19
0001
0000
0001
0000
,  // measure 20
1000
0000
1000
0000
,  // measure 21
0000
0000
0001
0000
,  // measure 22
0001
0000
0001
0000
,  // measure 23
0001
0000
0001
0000
,  // measure 24
2000
0000
0000
3000
,  // measure 25
0100
0000
0000
0000
,  // measure 26
0100
0000
0000
0000
,  // measure 27
0010
0000
0000
0000
,  // measure 28
0010
0000
0000
0000
,  // measure 29
0100
0000
0000
0000
,  // measure 30
0100
0000
0000
0000
,  // measure 31
0010
0000
0000
0000
,  // measure 32
0010
0000
0000
0000
,  // measure 33
1001
0000
0000
0000
,  // measure 34
0000
0000
0000
0000
,  // measure 35
1001
0000
0000
0000
,  // measure 36
0000
0000
0000
0000
,  // measure 37
1001
0000
0000
0000
,  // measure 38
0000
0000
0000
0000
,  // measure 39
1001
0000
0000
0000
,  // measure 40
0000
0000
0100
0000
,  // measure 41
0010
0000
0010
0000
,  // measure 42
0010
0000
0010
0000
,  // measure 43
0010
0000
0010
0000
,  // measure 44
0100
0000
0100
0000
,  // measure 45
0000
0000
0010
0000
,  // measure 46
0010
0000
0010
0000
,  // measure 47
0010
0000
0010
0000
,  // measure 48
0100
0000
0100
0000
,  // measure 49
0000
0000
0100
0000
,  // measure 50
0100
0000
0100
0000
,  // measure 51
0100
0000
0100
0000
,  // measure 52
0010
0000
0010
0000
,  // measure 53
0000
0000
0100
0000
,  // measure 54
0100
0000
0100
0000
,  // measure 55
0100
0000
0100
0000
,  // measure 56
0020
0000
0000
0030
,  // measure 57
1000
0000
0000
0000
,  // measure 58
1000
0000
0000
0000
,  // measure 59
0001
0000
0000
0000
,  // measure 60
0001
0000
0000
0000
,  // measure 61
1000
0000
0000
0000
,  // measure 62
1000
0000
0000
0000
,  // measure 63
0001
0000
0000
0000
,  // measure 64
0001
0000
0000
0000
,  // measure 65
0110
0000
0000
0000
,  // measure 66
0000
0000
0000
0000
,  // measure 67
0110
0000
0000
0000
,  // measure 68
0000
0000
0000
0000
,  // measure 69
0110
0000
0000
0000
,  // measure 70
0000
0000
0000
0000
,  // measure 71
0110
0000
0000
0000
,  // measure 72
1001
0000
0000
0000
;
