#TITLE:19-2000 (Soulchild Remix);
#SUBTITLE:;
#ARTIST:Gorillaz;
#TITLETRANSLIT:;
#SUBTITLETRANSLIT:;
#ARTISTTRANSLIT:;
#GENRE:;
#CREDIT:xnintendox (Base Simfile), DDR Addict (Steps);
#MENUCOLOR:;
#METERTYPE:DDR X;
#BANNER:19-2000 (Soulchild Remix).png;
#BACKGROUND:19-2000 (Soulchild Remix)-bg.png;
#LYRICSPATH:;
#CDTITLE:;
#MUSIC:19-2000 (Soulchild Remix).ogg;
#OFFSET:-0.580;
#SAMPLESTART:65.680;
#SAMPLELENGTH:15.000;
#SELECTABLE:YES;
#LISTSORT:;
#BPMS:0.000=102.000,108.000=51.000,109.000=102.000;
#STOPS:;
#BGCHANGES:-0.580=19-2000 (Soulchild Remix).avi=1.000=0=0=0,
99999=-nosongbg-=1.000=0=0=0 // don't automatically add -songbackground-
;
#ATTACKS:;

//---------------dance-single - ----------------
#NOTES:
     dance-single:
     :
     Hard:
     11:
     0.474,0.430,0.178,0.084,0.248:
1000
0000
0100
0000
1000
0000
0000
0010
0000
0000
0000
0000
0000
0000
0000
0000
,
0100
0000
1000
0000
0100
0000
0000
0010
0000
0000
0000
0000
0000
0000
0000
0000
,
0001
0000
0100
0000
0001
0000
0000
0010
0000
0000
0000
0000
0000
0000
0000
0000
,
0100
0000
0001
0000
0100
0000
0000
0000
0010
0000
0000
0010
0000
0000
0100
0000
,
1000
0010
1000
0010
0100
0000
0101
0100
,
1000
0100
1000
0100
0001
0000
0000
0100
,
0001
0000
0010
0000
0001
0000
0100
0000
1000
0000
0000
0000
1000
0000
0100
1000
,
0000
0000
0010
0000
0100
0000
0001
0000
1000
0000
0100
0010
0001
0000
0100
0000
,
0001
0000
0001
0000
0100
0000
0000
1000
0000
0100
0000
0000
0011
0000
0000
0000
,
1000
1000
0100
0001
0100
0000
0000
0010
,
0011
0001
0100
1000
1100
0000
1001
0001
,
0010
0000
0100
0001
0100
0000
0000
0010
0000
0000
0100
1000
0100
0000
0010
0000
,
0001
0000
0000
0000
2000
0000
3000
1000
0000
0000
0000
0000
0110
0000
0000
0000
,
1000
0000
0000
0000
0002
0000
0003
0001
0000
0000
0000
0000
0110
0000
1000
0000
,
1010
0000
0000
0000
0202
0003
0300
0001
0000
0000
0000
0000
0110
0000
0001
0000
,
0011
0000
0000
0000
2200
3000
0300
1000
0000
0000
0000
0010
0000
0100
1000
0000
,
0001
0000
0001
0000
0100
0000
0001
0000
0010
0000
0010
0000
0100
0010
0100
0000
,
1000
0000
1000
0000
0100
0000
1000
0000
0010
0000
0010
0000
0100
0010
0100
0010
,
0100
0000
0001
0000
0010
0000
0100
0000
0100
0000
1000
0000
0010
0100
0010
0000
,
1000
0100
0001
0100
1000
0100
0001
0010
,
1000
0000
0001
0000
1000
0000
0000
0010
0000
0110
0000
0000
1000
0000
0001
0000
,
0100
0000
0010
0000
0001
0000
0000
1000
0000
0000
0000
0000
0000
0000
0000
0000
,
0101
0001
0010
0100
0101
0000
1100
1000
,
0010
0000
0100
0000
1000
0000
0100
0000
1100
0000
1000
0100
0010
0000
0001
0000
,
1000
0000
1000
0000
0020
0000
0030
0010
0000
0000
0000
0000
0001
0000
0001
0000
,
1000
0000
1000
0000
0020
0000
0030
0010
0000
0000
0000
0000
1000
0000
1000
0000
,
0001
0000
0001
0000
0020
0000
0030
0010
0000
0000
0000
0000
0100
0000
0010
0000
,
1000
0000
0000
0100
0000
0000
0010
0000
0001
0000
0010
0000
0001
0000
0000
0000
0000
0000
0000
0000
0000
1000
0000
0000
0000
0000
0000
0100
0000
0000
1000
0000
0000
0000
0000
0000
0101
0000
0000
0000
0000
0000
0001
0000
0000
0000
0000
0000
,
0010
0000
0001
0000
1000
0000
1000
0000
0100
0001
0100
0000
0010
0000
0010
0000
,
1000
0000
0010
0000
0100
0000
0100
0000
0001
0010
0100
1000
0001
0000
0001
0000
,
0010
0000
0001
0000
1000
0000
1000
0000
0010
1000
0010
0000
0100
0000
0100
0000
,
1000
0000
0100
0000
0010
0000
0010
0000
0001
0010
0001
0010
0001
0000
0100
0000
,
1000
0000
0010
0000
0001
0000
0100
0000
1000
0010
1000
0000
0010
0000
1000
0000
,
0100
0000
0001
0000
0010
0000
1000
0000
0100
0001
0100
0001
0100
0000
1000
0000
,
0001
0000
0100
0000
0010
0000
1000
0000
0001
0010
0001
0000
0100
0000
0001
0000
,
0010
0000
0001
0000
0100
0000
1000
0000
0010
1000
0000
1000
0001
0000
0010
0000
,
0001
0000
0100
0010
0000
0000
0000
0000
0010
0000
0100
0000
1000
0000
0010
0000
,
1000
0000
0100
0010
0000
0000
0000
0000
0010
0000
0100
0000
0001
0000
0010
0000
,
0100
1000
0010
0100
0010
0100
1000
0010
,
0100
0000
0001
0000
0010
0000
0100
0000
0010
0100
0010
0100
0010
0000
0001
0000
,
0100
0000
0001
0100
0000
0000
0100
0000
0001
0000
0010
0000
1000
0000
0100
0000
,
1000
0000
0100
1000
0000
0000
0000
0000
0100
0000
1000
0000
0010
0000
0100
0000
,
0001
0010
0100
1000
0100
0010
0001
0100
,
0010
0000
1000
0000
0001
0000
1000
0000
0001
1000
0001
1000
1001
0000
0000
0000
;

//---------------dance-single - ----------------
#NOTES:
     dance-single:
     :
     Medium:
     8:
     0.360,0.328,0.141,0.103,0.094:
1000
0000
0000
0000
0200
0000
0000
1300
0000
0000
0000
0000
0000
0000
0000
0000
,
0001
0000
0000
0000
0200
0000
0000
0301
0000
0000
0000
0000
0100
0000
0010
0000
,
0100
0000
0000
0000
0020
0000
0000
0130
0000
0000
0000
0000
0000
0000
0100
0000
,
0001
0000
1000
0010
0100
0001
0100
0000
,
0001
0000
0010
0000
0001
0000
0000
0100
0000
0100
0000
0000
0000
0000
0010
0000
,
1000
0000
1000
0001
1000
0000
0000
0010
,
0001
0000
0000
0000
0001
0000
1000
0000
0001
0000
0000
0000
0100
0000
0000
0010
,
0000
0100
1000
0001
0100
0000
0101
0000
,
1000
0000
0100
0000
1000
0000
0000
0010
0000
0010
0000
0000
0001
0000
0100
0000
,
0001
0000
0001
1000
0001
0000
0000
0100
,
1000
0000
1000
0001
1000
0000
0010
0000
,
0100
0010
0001
1000
0010
0000
1010
0000
,
2010
0000
0000
0000
0000
0000
0000
3001
0000
0000
0000
0000
0000
0000
0000
0000
,
0012
0000
0000
0000
0000
0000
0000
1003
0000
0000
0000
0000
0000
0000
0000
0000
,
2100
0000
0000
0000
0000
0000
0000
3001
0000
0000
0000
0000
0000
0000
0000
0000
,
0102
0000
0000
0000
0000
0000
0000
1003
0000
0000
0000
0000
0010
0000
0100
0000
,
0001
0100
0001
1000
0001
0000
1001
0000
,
1000
0100
1000
0001
1000
0000
0000
1001
,
1001
0000
0010
0100
1000
0100
0010
0000
,
0010
0100
0001
0100
0010
0010
0010
0010
,
0100
0000
0000
0000
1000
0000
0000
0001
0000
0000
0000
0000
0001
0000
0010
0000
,
0001
0000
0000
0000
1000
0000
0000
0100
0000
0000
0000
0000
0000
0000
0000
0000
,
0001
0000
0010
0000
0100
0000
0000
1000
0000
0001
0000
0000
0010
0000
0100
0000
,
2000
0000
0010
0001
3001
0000
0110
0000
,
1000
0000
0000
0000
0200
0000
0000
0301
0000
0000
0000
0000
0000
0000
0000
0000
,
0001
0000
0000
0000
0200
0000
0000
1300
0000
0000
0000
0000
0000
0000
0000
0000
,
0010
0000
0000
0000
0200
0000
0000
0301
0000
0000
0000
0000
0000
0000
0000
0000
,
1000
0000
0000
0100
0000
0001
1000
0000
0000
0000
0000
0000
0100
0000
0000
0100
0000
0000
0010
0000
0000
0001
0000
0000
,
0010
0001
1000
0000
1000
0000
0010
1000
,
0010
1000
0001
0001
0101
0000
0100
1000
,
0100
1000
0010
0000
0010
0000
0000
0000
,
0100
0001
0100
0001
0010
0010
0110
0000
,
1000
0001
0100
0001
1000
0000
1000
0000
,
0001
1000
0100
1000
0001
0001
0011
0000
,
0010
0100
1000
0001
1000
0000
1010
0000
,
0010
0100
0001
1000
0001
0010
0100
1000
,
0100
1000
0001
0000
1000
0010
0100
0001
,
0100
0001
1000
0000
1000
0001
1000
0001
,
0010
0100
0010
0000
0001
1000
0001
1000
,
0010
0100
0010
0000
1000
0001
1000
0100
,
0001
0100
1000
0000
0001
1000
0001
0100
,
1000
0100
0001
0000
1000
0001
1000
0010
,
0001
0010
1000
0000
0001
1000
0001
0010
,
1000
0010
0001
0001
0001
0001
1001
0000
;

//---------------dance-single - ----------------
#NOTES:
     dance-single:
     :
     Easy:
     5:
     0.201,0.225,0.084,0.047,0.028:
0000
0000
0000
0000
,
0000
0000
0000
0000
,
0000
0000
0000
0000
,
0000
0000
1000
1000
,
0001
0000
0010
0000
,
0100
0001
0100
0000
,
1000
0000
0010
0000
,
0001
0100
0001
0000
,
1001
0000
1000
0000
,
0010
0100
0010
0000
,
1001
0000
0001
0000
,
0100
0010
0100
0010
,
1000
0000
0000
0000
0000
0000
0000
0001
0000
0000
0000
0000
0000
0000
0000
0000
,
1000
0000
0000
0000
0000
0000
0000
0001
0000
0000
0000
0000
0000
0000
0000
0000
,
0001
0000
0000
0000
0000
0000
0000
1000
0000
0000
0000
0000
0000
0000
0000
0000
,
0001
0000
1000
0010
,
0100
1000
0010
0100
,
0100
0001
0010
0100
,
1000
0010
0001
1000
,
0001
0010
1000
0001
,
2000
0100
3001
0001
,
0002
0100
1003
1000
,
0020
1000
0130
0100
,
0200
0001
0310
0010
,
1000
0000
0000
0000
0000
0000
0000
0001
0000
0000
0000
0000
0000
0000
0000
0000
,
1000
0000
0000
0000
0000
0000
0000
0001
0000
0000
0000
0000
0000
0000
0000
0000
,
0001
0000
0000
0000
0000
0000
0000
1000
0000
0000
0000
0000
0000
0000
0000
0000
,
0020
0000
0030
0100
,
0001
0010
0100
0100
,
1000
0010
0100
0001
,
1000
0010
0001
1000
,
0001
0010
1000
1001
,
0100
0001
0010
1001
,
0100
1000
0010
0100
,
0001
0100
1000
0010
,
0001
0010
0010
0100
,
1000
0100
0010
0100
,
1000
0100
0010
0100
,
0001
0100
0010
0100
,
0001
0100
0010
1000
,
0001
0100
0101
0001
,
1000
0100
1100
0010
,
0100
1000
1001
0010
,
0100
0001
1001
1001
;

//---------------dance-single - ----------------
#NOTES:
     dance-single:
     :
     Beginner:
     3:
     0.055,0.082,0.066,0.009,0.000: // measure 1
0000
0000
0000
0000
,  // measure 2
0000
0000
0000
0000
,  // measure 3
0000
0000
0000
0000
,  // measure 4
0000
0000
0000
0000
,  // measure 5
1000
0000
0000
0000
,  // measure 6
0000
0000
0000
0000
,  // measure 7
0100
0000
0000
0000
,  // measure 8
0010
0000
0000
0000
,  // measure 9
0001
0000
0000
0000
,  // measure 10
0000
0000
0000
0000
,  // measure 11
0100
0000
0000
0000
,  // measure 12
0010
0000
0000
0000
,  // measure 13
1000
0000
0000
0000
,  // measure 14
0000
0000
0000
0000
,  // measure 15
0010
0000
0000
0000
,  // measure 16
0100
0000
0000
0000
,  // measure 17
0001
0000
0000
0000
,  // measure 18
1000
0000
0000
0000
,  // measure 19
0001
0000
0000
0000
,  // measure 20
1000
0000
0000
0000
,  // measure 21
0110
0000
0000
0000
,  // measure 22
0000
0000
0000
0000
,  // measure 23
0001
0000
0000
0000
,  // measure 24
1000
0000
0000
0000
,  // measure 25
1001
0000
0000
0000
,  // measure 26
0000
0000
0000
0000
,  // measure 27
2000
0000
0000
0000
,  // measure 28
0000
0000
3000
0001
,  // measure 29
0000
0000
0000
1000
,  // measure 30
0000
0000
0000
1001
,  // measure 31
0000
0000
0000
0000
,  // measure 32
0000
0000
0000
1000
,  // measure 33
0000
0000
0000
0001
,  // measure 34
0000
0000
0000
1001
,  // measure 35
0000
0000
0000
0000
,  // measure 36
0000
0000
0000
0110
,  // measure 37
0000
0000
0000
0010
,  // measure 38
0000
0000
0000
0110
,  // measure 39
0000
0000
0000
0100
,  // measure 40
0000
0000
0000
1000
,  // measure 41
0000
0000
0000
0010
,  // measure 42
0000
0000
0000
0100
,  // measure 43
0000
0000
0000
0001
,  // measure 44
0000
0000
0000
1001
;
