#TITLE:Watch Out;
#SUBTITLE:;
#ARTIST:Victoria;
#TITLETRANSLIT:;
#SUBTITLETRANSLIT:;
#ARTISTTRANSLIT:;
#GENRE:;
#CREDIT:Unknown StepMaker;
#BANNER:Watch Out.png;
#BACKGROUND:Watch Out.png;
#LYRICSPATH:;
#CDTITLE:;
#MUSIC:Watch Out.mp3;
#OFFSET:-2.379;
#SAMPLESTART:40.340;
#SAMPLELENGTH:10.000;
#SELECTABLE:YES;
#BPMS:0.000=106.001
,18.000=105.997
,19.000=106.001
,22.000=105.997
,23.000=106.001
,26.000=105.997
,27.000=106.001
,30.000=105.997
,31.000=106.001
,34.000=105.997
,35.000=106.001
,37.000=105.997
,38.000=106.001
,41.000=105.997
,42.000=106.001
,45.000=105.997
,46.000=106.001
,49.000=105.997
,50.000=106.001
,52.000=105.997
,53.000=106.001
,56.000=105.997
,57.000=106.001
,60.000=105.997
,61.000=106.001
,64.000=105.997
,65.000=106.001
,68.000=105.997
,69.000=106.001
,71.000=105.997
,72.000=106.001
,75.000=105.997
,76.000=106.001
,79.000=105.997
,80.000=106.001
,82.000=105.997
,83.000=106.001
,86.000=105.997
,87.000=106.001
,90.000=105.997
,91.000=106.001
,94.000=105.997
,95.000=106.001
,98.000=105.997
,99.000=106.001
,102.000=105.997
,103.000=106.001
,105.000=105.997
,106.000=106.001
,109.000=105.997
,110.000=106.001
,113.000=105.997
,114.000=106.001
,117.000=105.997
,118.000=106.001
,121.000=105.997
,122.000=106.001
,124.000=105.997
,125.000=106.001
,128.000=105.997
,129.000=106.001
,132.000=105.997
,133.000=106.001
,136.000=105.997
,137.000=106.001
,140.000=105.997
,141.000=106.001
,143.000=105.997
,144.000=106.001
,147.000=105.997
,148.000=106.001
,151.000=105.997
,152.000=106.001
,155.000=105.997
,156.000=106.001
,159.000=105.997
,160.000=106.001
,162.000=105.997
,163.000=106.001
,165.000=105.997
,166.000=106.001
;
#STOPS:;
#BGCHANGES:;
#KEYSOUNDS:;
#ATTACKS:;

//---------------dance-single - ----------------
#NOTES:
     dance-single:
     :
     Beginner:
     2:
     0.172,0.212,0.224,0.071,0.000,89.000,22.000,7.000,0.000,0.000,0.000,0.172,0.212,0.224,0.071,0.000,89.000,22.000,7.000,0.000,0.000,0.000:
1000
0000
0010
0010
,
0000
1000
0000
1001
,
0000
0000
0000
0000
0000
0000
0000
0000
0000
0000
0000
0000
0000
0000
0000
0000
0000
0000
0000
0000
0000
0000
0000
0000
0000
0000
0000
0000
0000
0000
0000
0000
2002
0000
0000
0000
0000
0000
0000
0000
0000
0000
0000
0000
0000
0000
0000
0000
0000
0000
0000
0000
0000
0000
0000
0000
0000
0000
0000
0000
0000
3003
0000
0000
,
0000
0000
0100
0000
,
0010
0000
1000
0000
,
0000
0010
0000
0000
,
0100
0000
0010
0010
,
0010
0000
1000
0000
,
0001
0000
0100
0100
,
0200
0000
0300
0000
,
0010
0010
0000
0100
,
0000
0001
0000
1000
,
0000
0010
0010
0010
,
0000
1000
0000
0001
,
0000
0000
0100
0100
,
0100
0000
0010
0000
,
1000
0000
0010
0010
,
0000
0000
1000
0000
,
0000
0000
1001
0000
,
0000
0110
0000
1001
,
0000
0110
0000
1001
,
0000
0000
0000
0000
0000
0000
0000
0000
0000
0000
0000
0000
0000
0000
0000
0000
0000
0000
0000
0000
0000
0000
0000
0000
0000
0000
0000
0000
0000
0000
0000
0000
0000
0000
0000
0000
0000
0000
0000
0000
0000
0000
0000
0000
0000
0000
0000
0000
0110
0000
0000
0000
0000
0000
0000
0000
0000
0000
0000
0000
0000
0000
0000
0000
0000
0000
0000
0000
0000
0000
0000
0000
0000
0000
0000
0000
0000
0000
0000
0000
0000
0000
0000
0000
0000
0000
0000
0000
0000
0000
0000
0000
0000
0000
0000
0000
0000
0000
0000
0000
0000
0000
0000
0000
0000
0000
0000
0000
0000
0000
0000
0000
0000
0000
0000
0000
0000
0000
0000
0000
0000
0000
0000
0000
0000
0000
0000
0000
0000
0000
0000
0000
0000
0000
0000
0000
0000
0000
0000
0000
0000
0000
0000
0000
2002
0000
0000
0000
0000
0000
0000
0000
0000
0000
0000
0000
0000
0000
0003
0000
0000
3000
0000
0000
0000
0000
0000
0000
0000
0000
0000
0000
0000
0000
0000
0000
0000
0000
0000
0000
0000
0000
0000
0000
0000
0000
0000
0000
0000
0000
0000
0000
,
0000
0110
0000
1001
,
0010
0010
0000
1000
,
0000
0001
0000
0100
,
0000
0010
0000
0010
,
0000
0000
0000
0000
0000
0000
0000
0000
0000
0000
0000
0000
0000
0000
0000
0000
0000
0000
0000
0000
0000
0000
0000
0000
0000
0000
0000
0000
0000
0000
0000
0000
0000
0000
0000
0000
0000
0000
0000
0000
0000
0000
0000
0000
0000
0000
0000
0000
0000
0000
0000
0000
0000
0000
0000
0000
0000
0000
0000
0000
0000
0000
0000
0000
0000
0000
0000
0000
0000
0000
0000
0000
0000
0000
0000
0000
0000
0000
0000
0000
0000
0000
0000
0000
0000
0000
0000
0000
0000
0000
0000
0000
0000
0000
0000
0000
2002
0000
0000
0000
0000
0000
0000
0000
0000
0000
0000
0000
0000
0000
0000
0000
0000
0000
0000
0000
0000
0000
0000
0000
0000
0000
0000
0000
0000
0000
0000
0000
0000
0000
0000
0000
0000
0000
0000
0000
0000
0000
0000
0000
0000
0000
0000
0000
0000
0000
0000
0000
0000
0000
0000
0000
0000
0000
0000
0000
0000
0000
0000
0000
0000
0000
0000
0000
0000
0000
0000
0000
0000
0000
0000
0000
0000
0000
0003
3000
0000
0000
0000
0000
0000
0000
0000
0000
0000
0000
0000
0000
0000
0000
0000
0000
,
0000
0000
0100
0000
,
0010
0000
1000
1000
,
0000
0000
0001
0001
,
0001
0000
0100
0100
,
0100
0000
0010
0010
,
0000
0000
1000
1000
,
0000
0000
0010
0010
,
0010
0000
1001
1001
,
1001
0000
1000
0000
,
0010
0000
0100
0000
,
1001
0000
1001
0000
,
0010
0010
0010
0000
,
1001
0000
0110
0000
,
0001
0000
1000
0000
,
0110
0110
0110
0000
,
0000
0000
0000
0000
;

//---------------dance-single - ----------------
#NOTES:
     dance-single:
     :
     Easy:
     6:
     0.280,0.275,0.163,0.102,0.000,166.000,16.000,10.000,0.000,0.000,0.000,0.280,0.275,0.163,0.102,0.000,166.000,16.000,10.000,0.000,0.000,0.000:
1000
0010
0100
0010
,
1000
0001
1000
0010
0000
0100
0100
0000
,
0001
0000
0000
0000
0000
0000
0000
0000
0000
0000
0000
0000
0000
0000
0000
0000
0000
0000
0000
0000
0000
0000
0000
0000
0000
0000
0000
0000
0000
0000
0000
0000
0000
0000
0000
0000
0000
0000
0000
0000
0000
0000
0000
0000
0000
0000
0000
0000
1000
0000
0000
0000
0000
0000
0000
0000
0000
0000
0000
0000
0000
0000
0000
0000
0000
0000
0000
0000
0000
0000
0000
0000
0000
0000
0000
0000
0000
0000
0000
0000
0000
0000
0000
0000
0000
0000
0000
0000
0000
0000
0000
0000
0000
0000
0000
0000
0020
0000
0000
0000
0000
0000
0000
0000
0000
0000
0000
0000
0000
0000
0000
0000
0000
0000
0000
0000
0000
0000
0000
0000
0000
0000
0000
0000
0000
0000
0000
0000
0000
0000
0000
0000
0000
0000
0000
0000
0000
0000
0000
0000
0000
0000
0000
0000
0000
0000
0000
0000
0000
0000
0000
0000
0000
0000
0000
0000
0000
0000
0000
0000
0000
0000
0000
0000
0000
0000
0000
0000
0000
0030
0000
0000
0000
0000
0000
0000
0000
0000
0000
0000
0000
0000
0000
0000
0000
0000
0000
0000
0000
0000
0000
0000
,
1001
0000
0010
0000
0100
0001
0100
0000
,
0010
1000
0010
0100
,
0020
0000
0000
0000
0000
0000
0000
0000
0000
0000
0000
0000
0000
0000
0000
0000
0000
0000
0000
0000
0000
0000
0000
0000
0000
0000
0000
0000
0000
0000
0000
0000
0000
0000
0000
0000
0000
0000
0000
0000
0000
0000
0000
0000
0000
0000
0000
0000
0000
0000
0000
0000
0000
0000
0000
0000
0000
0000
0000
0000
0000
0000
0000
0000
0000
0000
0000
0000
0000
0000
0000
0000
0000
0000
0000
0000
0000
0000
0000
0000
0000
0000
0000
0000
0000
0000
0000
0000
0000
0000
0000
0000
0000
0000
0000
0000
0000
0000
0000
0000
0000
0000
0000
0000
0000
0000
0000
0000
0000
0000
0000
0000
0000
0000
0000
0000
0000
0000
0000
0000
0000
0000
0000
0000
0000
0000
0000
0000
0000
0000
0000
0000
0000
0000
0000
0000
0000
0030
0000
0000
0000
0000
0000
0000
0000
0000
0000
0000
0000
0000
0000
0000
0000
0000
0000
0000
0000
0000
0000
0000
0000
0000
0000
0000
0000
0000
0000
0000
0000
0000
0000
0000
0000
0000
0000
0000
0000
0000
0000
0000
0000
0000
0000
0000
0000
0000
0000
0000
0000
0000
0000
0000
,
0001
0000
1000
0000
0010
0010
0010
0010
,
0000
1000
0001
0100
,
0010
0000
0010
0000
0001
0000
1001
2002
,
0000
0000
0000
0000
0000
0000
0000
0000
0000
0000
0000
0000
0000
0000
0000
0000
0000
0000
0000
0000
0000
0000
0000
0000
0000
0000
0000
0000
0000
0000
0000
0000
0000
0000
0000
0000
0000
0000
0000
0000
0000
0000
0000
0000
0000
0000
0000
0000
0000
0000
0000
0000
0000
0000
0000
0000
0000
0000
0000
0000
0000
0000
0000
0000
0000
0000
0000
0000
0000
0000
0000
0000
0000
0000
0000
0000
0000
0000
0000
0000
0000
0000
0000
3000
0000
0003
0000
0000
0000
0000
0000
0000
0000
0000
0000
0000
0000
0000
0000
0000
0000
0000
0000
0000
0000
0000
0000
0000
0000
0000
0000
0000
0000
0000
0000
0000
0000
0000
0000
0000
0000
0000
0000
0000
0000
0000
0000
0000
0000
0000
0000
0000
0000
0000
0000
0000
0000
0000
0000
0000
0000
0000
0000
0000
0000
0000
0000
0000
0000
0000
0000
0000
0000
0000
0000
0000
0000
0000
0000
0000
0000
0000
0000
0000
0000
0000
0000
0000
0000
0000
0000
0000
0000
0000
0000
0000
0000
0000
0000
0000
0000
0000
0000
0000
0000
0000
0000
0000
0000
0000
0000
0000
,
0020
0000
0000
0000
0000
0000
0000
0030
0000
0000
0000
0000
0000
0000
0000
0000
0000
0000
0000
0000
0000
0000
0000
0000
0001
0000
0000
0000
0000
0000
0000
0000
0000
0000
0000
0000
0000
0000
0000
0000
0000
0000
0000
0000
0000
0000
0000
0000
0000
0000
0000
0000
0000
0000
0000
0000
0000
0000
0000
0000
0100
0000
0000
0000
0000
0000
0000
0000
0000
0000
0000
0000
0100
0000
0000
0000
0000
0000
0000
0000
0000
0000
0000
0000
0000
0000
0000
0000
0000
0000
0000
0000
0000
0000
0000
0000
,
0010
1000
0001
0001
,
1000
0000
0010
0000
0100
0001
1000
0000
,
0010
0000
0100
0000
0000
0010
1000
0001
,
0000
0000
0100
0100
,
0010
0000
1000
0000
0001
0000
1000
0001
,
0000
0000
0010
0000
0100
0000
0010
0100
,
0000
0000
0001
0000
1000
0000
0010
0100
,
0000
0001
1000
0010
,
0000
0000
0000
0010
0000
1001
0110
0000
,
0000
0010
0000
1001
0000
0010
0100
0000
,
2002
0000
0000
0000
0000
0000
0000
3003
0000
0000
0000
0000
0020
0000
0000
0000
0000
0000
0000
0000
0000
0000
0000
0000
0000
0000
0000
0000
0000
0000
0100
0000
0000
0000
0000
0000
0100
0000
0000
0030
0000
0000
0000
0000
0000
0000
0000
0000
,
0000
0001
0000
0001
,
1001
0000
1001
0000
0000
0110
0110
0000
,
0001
0000
1000
0000
0010
0010
0001
0001
,
0010
0000
0000
0000
0000
0100
0100
0000
,
1001
0010
0200
0000
,
0010
0300
0000
0000
0000
0000
0000
0000
0000
0000
0000
0000
0000
0000
0000
0000
0000
0000
0000
0000
0000
0000
0000
0000
0000
0000
0000
0000
0000
0000
0000
0000
0000
0000
0000
0000
0000
0000
0000
0000
0000
0000
0000
0000
0000
0000
0000
0000
0001
0000
0000
0000
0000
0000
0000
0000
0000
0000
0000
0000
0000
0000
0000
0000
0000
0000
0000
0000
0000
0000
0000
0000
0000
0000
0000
0000
0000
0000
0000
0000
0000
0000
0000
0000
0000
0000
0000
0000
0000
0000
0000
0000
0000
0000
0000
0000
,
1000
0000
0010
0000
0100
0001
0100
0001
,
0000
1000
0010
0010
,
0100
0000
0001
0000
0100
0001
0100
0001
,
0000
0000
1000
0000
0010
1000
0010
1000
,
0010
0000
0100
0000
0001
0100
0001
0100
,
0000
0000
1000
0000
0010
0100
0010
0100
,
0000
0000
1000
1000
,
0000
0001
0000
0001
0000
0000
0100
0000
,
0010
0100
0100
0010
,
0000
0000
1001
0000
0010
0010
0010
0010
,
0000
0000
0000
0000
0000
0000
0000
0000
0000
0000
0000
0000
0000
0000
0000
0000
0000
0000
0000
0000
0000
0000
0000
0000
0000
0000
0000
0000
0000
0000
0000
0000
0000
0000
0000
0000
0000
0000
0000
0000
0000
0000
0000
0000
0000
0000
0000
0000
1001
0000
0000
0000
0000
0000
0000
0000
0000
0000
0000
0000
0000
0000
0000
0000
0000
0000
0000
0000
0000
0000
0000
0000
0000
0000
0000
0000
0000
0000
0000
0000
0000
0000
0000
0000
0000
0000
0000
0000
0000
0000
0000
0000
0000
0000
0000
0000
1000
0000
0000
0000
0000
0000
0000
0000
0000
0000
0000
0000
0000
0000
0000
0000
0000
0000
0000
0000
0000
0000
0000
0000
1000
0000
0000
0000
0000
0000
0000
0000
0000
0000
0000
0000
0000
0000
0000
0000
0000
0000
0000
0000
0000
0000
0000
0000
2000
0000
0000
0000
0000
0000
0000
0000
0000
0000
0000
0000
0000
3000
0000
0000
0000
0000
0000
0000
0000
0000
0000
0000
1000
0000
0000
0000
0000
0000
0000
0000
0000
0000
0000
0000
0000
0000
0000
0000
0000
0000
0000
0000
0000
0000
0000
0000
,
0000
0000
0010
0000
0100
0100
0100
0100
,
0000
0000
0010
0000
0100
0100
0100
0100
,
0000
1001
1001
0000
;

//---------------dance-single - ----------------
#NOTES:
     dance-single:
     :
     Medium:
     8:
     0.396,0.338,0.255,0.122,0.000,235.000,25.000,12.000,0.000,0.000,0.000,0.396,0.338,0.255,0.122,0.000,235.000,25.000,12.000,0.000,0.000,0.000:
1000
0010
0100
0001
0010
1000
0010
0010
,
0100
0001
1000
0010
0000
0100
0100
0000
,
1001
1001
0010
0100
0110
0000
0000
0000
,
0001
0000
1000
0000
0010
0100
0001
0100
,
0010
0000
0010
1000
0001
0000
0001
0000
,
0001
0000
0001
0000
0010
0010
0000
0010
,
0010
0001
0000
0010
1000
0001
0100
0010
,
0010
0000
0010
0010
0010
0010
0001
0001
,
1001
0000
0001
1000
0001
0100
0010
1001
,
0100
0000
0010
0000
1000
0000
0001
0110
,
1001
0000
0010
0000
0000
0100
0100
0000
,
1000
1000
0100
0100
0010
0010
0010
0010
,
0001
0001
0010
0010
0100
0100
0100
0100
,
1000
1000
0100
0100
0010
0010
0010
0010
,
0000
0000
0000
0000
1001
1001
1001
1001
,
0000
0000
0010
0100
0001
0001
0001
1000
,
0010
0100
0001
0001
0001
1000
1000
1000
,
0000
0000
0010
0000
0100
0001
0100
0010
,
0010
0000
1001
1001
,
0010
0010
0010
0010
0000
0100
0100
0100
,
0000
1001
1001
1001
0000
0010
0010
0110
,
0000
1000
0001
0100
0000
0010
0010
0000
,
0000
1000
0001
0100
0000
0010
0010
0010
,
0000
1000
0000
0100
0000
0010
0010
0000
,
0001
1000
0010
0100
0010
0000
0000
0010
,
1000
0001
0100
0010
0000
0010
0010
0000
,
0020
0000
0030
1000
0000
0000
0001
0000
0000
0100
0000
0000
0200
0000
0000
0000
0000
0000
0000
0000
0000
0000
0000
0300
,
0002
0000
0000
0000
0000
0000
0000
0000
0000
0000
0000
0000
0000
0000
0000
0000
0000
0000
0000
0000
0000
0000
0000
0000
0000
0000
0000
0000
0000
0000
0000
0000
0000
0000
0000
0000
0000
0000
0000
0000
0000
0000
0000
0000
0000
0000
0000
0003
2000
0000
0000
0000
0000
0000
0000
0000
0000
0000
0000
0000
0000
0000
0000
0000
0000
0000
0000
0000
0000
0000
0000
0000
0000
0000
0000
0000
0000
0000
0000
0000
0000
0000
0000
0000
0000
0000
0000
0000
0000
0000
0000
0000
0000
0000
0000
3000
,
0002
0000
0000
0000
0000
0000
0000
0000
0000
0000
0000
0000
0000
0000
0000
0000
0000
0000
0000
0000
0000
0000
0000
0000
0000
0000
0000
0000
0000
0000
0000
0000
0000
0000
0000
0000
0000
0000
0000
0000
0000
0000
0000
0000
0000
0000
0000
0000
0000
0000
0000
0000
0000
0000
0000
0000
0000
0000
0000
0000
0000
0000
0000
0000
0000
0000
0000
0000
0000
0000
0000
0000
0000
0000
0000
0000
0000
0000
0000
0000
0000
0000
0000
0000
0000
0000
0000
0000
0000
0000
0000
0000
0003
0000
0000
0000
0200
0000
0000
0000
0000
0000
0000
0000
0000
0000
0000
0000
0000
0000
0000
0000
0000
0000
0000
0000
0000
0000
0000
0000
0000
0000
0000
0000
0000
0000
0000
0000
0000
0000
0000
0000
0000
0000
0000
0000
0000
0000
0000
0000
0000
0000
0000
0000
0000
0000
0000
0000
0000
0000
0000
0000
0000
0000
0000
0000
0000
0000
0000
0000
0000
0000
0000
0000
0000
0000
0000
0000
0000
0000
0000
0000
0000
0000
0000
0000
0000
0000
0000
0000
0000
0000
0000
0000
0000
0000
0000
0000
0000
0300
0000
0000
,
0020
0000
0000
0000
0000
0000
0000
0000
0000
0000
0000
0000
0000
0000
0000
0000
0000
0000
0000
0000
0000
0000
0000
0000
0000
0000
0000
0000
0000
0000
0000
0000
0000
0000
0000
0000
0000
0000
0000
0000
0000
0000
0000
0000
0000
0000
0000
0000
0000
0000
0000
0000
0000
0000
0000
0000
0000
0000
0000
0000
0000
0000
0000
0000
0000
0000
0000
0000
0000
0000
0000
0000
0000
0000
0000
0000
0000
0000
0000
0000
0000
0000
0000
0000
0000
0000
0000
0000
0000
0000
0000
0000
0000
0000
0000
0000
2000
0000
0000
0000
0000
0030
0000
0000
0000
0000
0000
0000
0000
0000
0000
0000
0000
0000
0000
0000
0000
0000
0000
0000
0000
0000
0000
0000
0000
0000
0000
0000
0000
0000
0000
0000
0000
0000
0000
0000
0000
0000
0000
0000
0000
0000
0000
0000
0000
0000
0000
0000
0000
0000
0000
0000
0000
0000
0000
0000
0000
0000
0000
0000
0000
0000
0000
0000
0000
0000
0000
0000
0000
0000
0000
0000
0000
0000
0000
0000
0000
0000
0000
0000
0000
0000
0000
0000
0000
0000
0000
0000
0000
0000
0000
0000
,
0002
3000
0000
0000
0000
0000
0000
0000
0000
0000
0000
0000
0000
0000
0000
0000
0000
0000
0000
0000
0000
0000
0000
0000
0000
0000
0000
0000
0000
0000
0000
0000
0000
0000
0000
0000
0000
0000
0000
0000
0000
0000
0000
0000
0000
0000
0000
0000
0000
0000
0000
0000
0000
0000
0000
0000
0000
0000
0000
0000
0000
0000
0000
0000
0000
0000
0000
0000
0000
0000
0000
0000
0000
0000
0000
0000
0000
0000
0000
0000
0000
0000
0000
0000
0000
0000
0000
0000
0000
0000
0000
0000
0000
0000
0000
0000
0100
0000
0000
0000
0000
0000
0000
0000
0000
0000
0000
0000
0000
0000
0000
0000
0000
0000
0000
0000
0000
0000
0000
0000
0100
0000
0000
0000
0000
0000
0000
0000
0000
0000
0000
0000
0000
0000
0000
0000
0000
0000
0000
0000
0000
0000
0000
0000
0100
0000
0000
0000
0000
0000
0000
0000
0000
0000
0000
0000
0000
0000
0000
0000
0000
0000
0000
0000
0000
0000
0000
0000
0100
0000
0000
0000
0000
0000
0000
0000
0000
0000
0000
0000
0000
0000
0000
0000
0000
0003
0000
0000
0000
0000
0000
0000
,
0000
0000
0000
0010
0000
0000
0000
0000
0000
1000
0000
0000
0002
0000
0003
0100
0000
0000
0010
0000
0000
1000
0000
0000
,
0001
0000
0010
0100
0001
1000
0010
0100
,
0002
0000
0000
0000
0000
0000
0000
0000
0000
0000
0000
0000
0000
0000
0000
0000
0000
0000
0000
0000
0000
0000
0000
0000
0000
0000
0000
0000
0000
0000
0000
0000
0000
0000
0000
0000
0000
0000
0000
0000
0000
0000
0000
0000
0000
0000
0000
0000
0200
0000
0000
0000
0000
0003
0000
0000
0000
0000
0000
0000
0000
0000
0000
0000
0000
0000
0000
0000
0000
0000
0000
0000
0010
0000
0000
0000
0000
0000
0000
0000
0300
0000
0000
0000
0000
0000
0000
0000
0000
0000
0000
0000
0000
0000
0000
0000
0010
0000
0000
0000
0000
0000
0000
0000
0000
0000
0000
0000
0000
0000
0000
0000
0000
0000
0000
0000
0000
0000
0000
0000
0010
0000
0000
0000
0000
0000
0000
0000
0000
0000
0000
0000
0000
0000
0000
0000
0000
0000
0000
0000
0000
0000
0000
0000
1000
0000
0000
0000
0000
0000
0000
0000
0000
0000
0000
0000
0000
0000
0000
0000
0000
0000
0000
0000
0000
0000
0000
0000
0001
0000
0000
0000
0000
0000
0000
0000
0000
0000
0000
0000
0000
0000
0000
0000
0000
0000
0000
0000
0000
0000
0000
0000
,
0100
0000
0010
1000
0001
0100
0010
1000
,
0000
0001
0000
0001
0000
0010
0100
0001
,
0000
0010
0000
0010
0000
1001
0110
1001
,
0000
0010
0000
0100
0001
0001
1000
1000
,
0000
0110
0000
0110
0000
0110
0010
0100
,
0000
0110
0000
0110
0001
1000
0010
0100
,
0000
0001
0000
0001
1000
0001
0100
0010
,
0000
1000
0001
1000
0001
0000
0000
0000
,
0000
0000
0000
0000
;

//---------------dance-single - ----------------
#NOTES:
     dance-single:
     :
     Hard:
     12:
     0.618,0.548,0.245,0.031,0.601,397.000,24.000,3.000,0.000,0.000,0.000,0.618,0.548,0.245,0.031,0.601,397.000,24.000,3.000,0.000,0.000,0.000: // measure 0
1000
0100
0010
0100
0001
1000
0010
0100
0010
0100
0001
1000
0001
1000
0001
1000
,  // measure 1
0010
0000
0010
0100
0001
0000
0001
0000
0000
0000
0001
0000
0001
0000
0000
0000
,  // measure 2
1000
0000
0000
0000
0000
0000
0000
0000
0000
0000
0000
0000
0010
0000
0000
0000
0000
0000
0000
0000
0000
0000
0000
0000
0100
0000
0000
0000
0000
0000
0000
0000
0000
0000
0000
0000
0010
0000
0000
0000
0000
0000
0000
0000
0000
0000
0000
0000
0100
0000
0000
0000
0000
0000
0000
0000
0000
0000
0000
0000
0001
0000
0000
0000
0000
0000
0000
0000
0000
0000
0000
0000
1000
0000
0000
0000
0000
0000
0000
0000
0000
0000
0000
0000
0010
0000
0000
0000
0000
0000
0000
0000
0000
0000
0000
0000
0220
0000
0000
0000
0000
0000
0000
0000
0000
0000
0000
0000
0000
0000
0000
0000
0000
0000
0000
0000
0000
0000
0000
0000
0000
0000
0000
0000
0000
0000
0000
0000
0000
0000
0000
0000
0000
0000
0000
0000
0000
0000
0000
0000
0000
0000
0000
0000
0000
0000
0000
0000
0000
0000
0000
0000
0000
0000
0000
0000
0000
0000
0000
0000
0000
0000
0000
0000
0000
0000
0000
0000
0000
0000
0000
0000
0000
0000
0000
0300
0000
0030
0000
0000
0000
0000
0000
0000
0000
0000
0000
0000
0000
0000
0000
0000
,  // measure 3
0001
0000
1000
0010
0000
0100
0010
0000
0100
0000
0001
0000
0001
0000
0100
0000
,  // measure 4
0010
0000
1000
0010
0000
0100
0001
0100
0010
0000
0010
1000
0000
0001
0100
0000
,  // measure 5
0010
0000
0010
1000
0000
0001
1000
0001
1000
0000
0010
0100
0000
0010
0100
0000
,  // measure 6
0001
0000
0001
0010
0000
0001
0010
0000
1000
0100
0010
1000
0001
0001
0001
1000
,  // measure 7
0010
0000
0100
0010
0000
0100
0010
0000
1001
0000
0010
0000
0100
0000
0001
0000
,  // measure 8
1000
0000
0010
0100
0000
1000
0100
0010
1000
0000
0001
0000
0001
0000
2000
0000
,  // measure 9
0000
0000
0000
0000
0000
0000
0000
0000
0000
0000
0000
0000
0000
0000
0000
0000
0000
0000
0000
0000
0000
0000
0000
0000
0000
0000
0000
0000
0000
0000
0000
0000
0000
0000
0000
0000
0000
0000
0000
0000
0000
0000
0000
0000
0000
0000
0000
0000
0000
0000
0000
0000
0000
0000
0000
0000
0000
0000
0000
0000
0000
0000
0000
0000
0000
0000
0000
0000
0000
0000
0000
0000
0000
0000
0000
0000
0000
0000
0000
0000
0000
0000
0000
0000
0000
0000
0000
0000
0000
0000
0000
0000
0000
0000
0000
3000
0000
0000
0000
0000
0000
0000
0000
0000
0000
0000
0000
0000
0000
0000
0000
0000
0000
0000
0000
0000
0000
0000
0000
0000
0000
0000
0000
0000
0000
0000
0000
0000
0000
0000
0000
0000
0000
0000
0000
0000
0000
0000
0000
0000
0000
0000
0000
0000
0000
0000
0000
0000
0000
0000
0000
0000
0000
0000
0000
0000
0000
0000
0000
0000
0000
0000
0000
0000
0000
0000
0000
0000
0010
0000
0000
0000
0000
0000
0000
0000
0000
0000
0000
0000
0000
0000
0000
0000
0000
0000
0000
0000
0000
0000
0000
0000
,  // measure 10
0100
0000
0000
0000
1001
0000
1000
0010
0100
0000
0101
0000
0010
0000
0100
0001
,  // measure 11
0100
0000
0010
1000
0000
0010
0100
0000
0001
0000
0010
0000
0011
0000
0001
0000
,  // measure 12
0100
0000
0001
1000
0000
0001
0100
0000
0010
0000
0100
0000
0010
0000
1100
0000
,  // measure 13
0010
0000
0100
0010
0000
0100
0010
0000
0010
0000
1000
0000
0100
0000
0001
0000
,  // measure 14
1000
0010
0100
0001
0100
0000
0010
1000
0001
0000
0100
0000
0010
0000
0010
0000
,  // measure 15
0000
0000
1000
0100
0000
0010
0001
0000
0010
0000
0100
0000
0001
0000
1000
0001
,  // measure 16
1000
0000
0010
0100
0000
0010
0100
0000
0001
0000
1000
0000
0001
0000
0100
0000
,  // measure 17
0010
0000
1000
0001
0000
0100
0001
0000
0010
0001
0010
0000
0100
0000
0110
0000
,  // measure 18
0001
0100
0010
0000
1000
0001
0100
0000
0010
0100
0010
0100
0010
0100
0010
0000
,  // measure 19
0001
0000
1000
0001
1000
0001
1000
0000
0000
0000
1001
0000
0010
0000
0100
0000
,  // measure 20
0000
0000
1000
0100
0010
0001
0010
0000
0001
0000
0010
0001
0010
0000
0100
0000
,  // measure 21
0010
0000
0100
0010
0100
0010
1000
0000
0101
0000
0010
0000
1100
0000
0110
0000
,  // measure 22
0000
0000
0001
0010
0001
1000
0001
0000
0100
0000
0010
1000
0010
0000
0100
0000
,  // measure 23
1001
0000
0010
0100
0000
1001
1001
0000
,  // measure 24
1000
0010
0100
0001
0100
0010
1000
0010
0100
0001
0100
0010
0010
0010
0010
0010
,  // measure 25
1001
0000
0010
0100
0010
0000
0010
0000
0000
0000
1001
0000
1001
0000
0000
0000
,  // measure 26
0001
0010
0001
0100
0001
1000
0001
1000
0001
0000
0000
0000
0010
0000
0010
0000
,  // measure 27
0010
0000
0000
0010
0000
0001
0100
0000
0010
0000
0010
0000
1000
0000
0010
0000
,  // measure 28
0100
0000
0001
1000
0000
0010
0100
0000
0001
0000
0010
0000
0011
0000
0011
0000
,  // measure 29
0100
0000
0010
1000
0000
0001
0100
0000
0010
0000
0010
0000
0010
0000
0010
0000
,  // measure 30
1001
0000
1000
0001
1000
0000
0010
0000
0010
0000
0100
0000
0001
0000
0101
0000
,  // measure 31
0010
0000
1000
0010
0000
0100
0010
0000
0001
0000
1000
0000
0010
0000
0100
0000
,  // measure 32
0001
0000
0010
0001
0000
1000
0010
0000
0110
0000
1001
0000
0011
0000
0100
0000
,  // measure 33
0010
0000
0100
0010
0000
1000
0001
0000
0100
0000
0010
0000
0010
0000
0100
0001
,  // measure 34
0100
0000
0010
1000
0010
0000
0100
0001
0100
0000
0010
0000
0010
0000
0100
0000
,  // measure 35
0000
0000
1000
0010
0000
0100
0001
0000
0010
0000
0010
1000
0001
0100
0010
0000
,  // measure 36
1000
0000
1000
0010
0000
1000
0010
0000
1000
0100
0010
1000
0001
0100
0010
0000
,  // measure 37
1000
0000
0001
0100
0000
0010
0100
0000
0010
0000
0100
0000
0001
0000
1000
0000
,  // measure 38
0010
0000
0100
0010
0000
0100
0010
0000
1000
0000
0001
0000
0100
0000
0010
0000
,  // measure 39
0010
0001
0010
0000
0010
0100
0010
0000
1000
0000
0001
0000
0100
0000
0010
0000
,  // measure 40
0000
0000
0001
0010
0000
1000
0100
0000
0010
0000
0100
0000
0010
0000
0100
0000
,  // measure 41
0000
0000
1000
0001
0000
0100
0010
0000
0000
0000
0000
0000
0000
0000
0000
0000
;
