#TITLE:Too Little Too Late;
#SUBTITLE:;
#ARTIST:JoJo;
#TITLETRANSLIT:;
#SUBTITLETRANSLIT:;
#ARTISTTRANSLIT:;
#GENRE:;
#CREDIT:Unknown StepMaker;
#BANNER:Too Little Too Late.png;
#BACKGROUND:Too Little Too Late.png;
#LYRICSPATH:;
#CDTITLE:;
#MUSIC:Too Little Too Late.mp3;
#OFFSET:-2.325;
#SAMPLESTART:46.730;
#SAMPLELENGTH:10.000;
#SELECTABLE:YES;
#BPMS:0.000=83.095
,7.000=83.093
,8.000=83.095
,23.000=83.093
,24.000=83.095
,34.000=83.093
,35.000=83.095
,42.000=83.093
,43.000=83.095
,50.000=83.093
,51.000=83.095
,58.000=83.093
,59.000=83.095
;
#STOPS:;
#BGCHANGES:;
#KEYSOUNDS:;
#ATTACKS:;

//---------------dance-single - ----------------
#NOTES:
     dance-single:
     :
     Beginner:
     1:
     0.076,0.133,0.059,0.000,0.000,48.000,6.000,0.000,0.000,0.000,0.000,0.076,0.133,0.059,0.000,0.000,48.000,6.000,0.000,0.000,0.000,0.000:
0000
0000
0000
0000
,
0000
0000
0000
0000
,
0000
0000
0000
0000
,
0000
1000
0000
0100
,
0000
0001
0000
1000
,
0000
0100
0000
0100
,
0000
0010
0000
1000
,
0000
0000
0001
0000
,
0100
0000
0001
0000
,
0100
0000
0010
0000
,
1000
0000
0000
0000
,
0000
0001
0000
1000
,
0000
0010
0000
0100
,
0000
0001
0000
1000
,
0000
0000
0000
0000
,
0000
1001
0000
1001
,
0000
1001
0000
0110
,
0000
0110
0000
1001
,
0000
1000
0000
0000
,
0000
0000
0010
0000
,
0000
0100
0000
0001
,
0000
1000
0000
0010
,
0000
0001
0000
1000
,
0000
0100
0000
0000
,
0000
0000
0000
0000
,
0000
0000
0000
0000
,
0000
0010
0000
0000
,
0000
1000
0000
0001
,
0000
0010
0000
0001
,
0000
1000
0000
0000
,
0000
0100
0000
0000
,
0000
0010
0000
0100
,
0000
0001
0000
1000
,
0000
0001
0000
0100
,
0000
0000
0000
0000
;

//---------------dance-single - ----------------
#NOTES:
     dance-single:
     :
     Easy:
     2:
     0.095,0.101,0.000,0.010,0.000,67.000,0.000,1.000,0.000,0.000,0.000,0.095,0.101,0.000,0.010,0.000,67.000,0.000,1.000,0.000,0.000,0.000:
0000
0000
0000
0000
,
0000
0000
0000
0000
,
0000
0000
0000
0000
,
0000
0000
0001
0000
,
1000
0000
0010
0001
,
0001
0000
1000
0000
,
0001
0000
0100
0000
,
0001
0001
1000
0000
,
0010
0000
0100
0000
,
1000
0000
0001
0000
,
1000
0000
0000
0010
,
0010
0010
0000
1000
,
0000
0001
0000
0100
,
0000
0010
0000
1000
,
0000
0001
0000
0100
,
0000
0010
0000
1000
,
1000
0010
0010
0100
,
0100
0000
0001
0000
,
1000
0000
0010
0000
,
0100
0000
0001
0000
,
1000
0000
0010
0000
,
0100
0000
1000
0000
,
1000
0000
0000
0000
,
0100
0000
0000
0000
,
0001
0000
0000
1000
,
0000
0001
0000
0100
,
0000
0010
0000
0001
,
0000
1000
0000
0001
,
0000
0100
0100
0100
,
0001
0000
1000
0000
,
0001
0000
1000
0000
,
0001
0100
0000
0100
,
0000
1000
0000
0001
,
0000
1000
0000
0010
,
0000
0000
0000
0000
0000
0000
0000
0000
0000
0000
0000
0000
0000
0000
0000
0000
0000
0000
0000
0000
0000
0000
0000
0000
0000
0000
0000
0000
0000
0000
0000
0000
0000
0000
0000
0000
0000
0000
0000
0000
0000
0000
0000
0000
0000
0000
0000
0000
2000
0000
0000
0000
0000
3000
0000
0000
0000
0000
0000
0000
0000
0000
0000
0000
0000
0000
0000
0000
0000
0000
0000
0000
0000
0000
0000
0000
0000
0000
0000
0000
0000
0000
0000
0000
0000
0000
0000
0000
0000
0000
0000
0000
0000
0000
0000
0000
0000
0000
0000
0000
0000
0000
0000
0000
0000
0000
0000
0000
0000
0000
0000
0000
0000
0000
0000
0000
0000
0000
0000
0000
0000
0000
0000
0000
0000
0000
0000
0000
0000
0000
0000
0000
0000
0000
0000
0000
0000
0000
0000
0000
0000
0000
0000
0000
0000
0000
0000
0000
0000
0000
0000
0000
0000
0000
0000
0000
0000
0000
0000
0000
0000
0000
0000
0000
0000
0000
0000
0000
0000
0000
0000
0000
0000
0000
0000
0000
0000
0000
0000
0000
0000
0000
0000
0000
0000
0000
0000
0000
0000
0000
0000
0000
;

//---------------dance-single - ----------------
#NOTES:
     dance-single:
     :
     Medium:
     4:
     0.157,0.168,0.020,0.020,0.000,108.000,2.000,2.000,0.000,0.000,0.000,0.157,0.168,0.020,0.020,0.000,108.000,2.000,2.000,0.000,0.000,0.000:
0000
0000
0000
0000
,
0000
0000
0000
0000
,
0000
0000
0000
0000
,
0000
0000
1000
0001
,
0100
1000
0100
1000
,
0010
0100
0001
1000
,
0100
0000
0001
0000
0000
1000
0010
0001
,
1000
0010
0010
0000
1000
0000
0010
0000
,
0100
0000
0001
0000
1000
0000
0010
0010
,
0000
1000
0001
0100
,
0010
1000
0000
0000
,
0000
0010
0001
1000
,
0000
0000
1000
0000
0010
0000
0100
0100
,
0010
1000
0001
0100
,
0000
0010
1000
0001
,
0000
0000
1000
0000
1000
0000
0010
0010
,
0010
1000
0001
1000
,
0010
0000
0001
0000
0100
0000
0010
0010
,
0010
1000
0001
0100
,
0100
0001
0010
0100
,
0001
1000
1000
0010
,
0010
0001
0001
1000
,
1000
0000
0000
0000
0000
0000
0000
0000
0000
0000
0000
0000
0000
0000
0000
0000
0000
0000
0000
0000
0000
0000
0000
0000
0000
0000
0000
0000
0000
0000
0000
0000
0000
0000
0000
0000
0000
0000
0000
0000
0000
0000
0000
0000
0000
0000
0000
0000
0020
0000
0000
0000
0000
0000
0000
0000
0000
0000
0000
0000
0000
0000
0000
0000
0000
0000
0000
0000
0000
0000
0000
0000
0000
0000
0000
0000
0000
0000
0000
0000
0000
0000
0000
0000
0000
0000
0000
0000
0000
0000
0000
0000
0000
0000
0000
0000
0000
0000
0000
0000
0000
0030
0000
0000
0000
0000
0000
0000
0000
0000
0000
0000
0000
0000
0000
0000
0000
0000
0000
0000
0000
0000
0000
0000
0000
0000
0000
0000
0000
0000
0000
0000
0000
0000
0000
0000
0000
0000
0000
0000
0000
0000
0000
0000
0001
0000
0000
0000
0000
0000
0000
0000
0000
0000
0000
0000
0000
0000
0000
0000
0000
0000
0000
0000
0000
0000
0000
0000
0000
0000
0000
0000
0000
0000
0000
0000
0000
0000
0000
0000
0000
0000
0000
0000
0000
0000
0000
0000
0000
0000
0000
0000
,
1000
1001
0000
0000
,
0010
0000
0010
0000
,
0000
1001
0000
0000
,
0000
1000
1000
0000
0000
0000
0000
0000
,
0000
0010
0100
0001
,
1000
0000
0000
0000
0001
0000
1000
1000
,
1000
1000
0000
0000
0010
0000
0000
0000
,
0100
0000
0001
1000
,
0001
0000
0010
0000
0010
0010
0000
0000
,
0000
1000
0001
0010
,
0010
1000
0010
0010
,
0000
0000
0000
0000
0000
0000
0000
0000
2000
3000
0000
0000
0000
0000
0000
0000
0000
0000
0000
0000
0000
0000
0000
0000
0000
0000
0000
0000
0000
0000
0000
0000
;

//---------------dance-single - ----------------
#NOTES:
     dance-single:
     :
     Hard:
     5:
     0.209,0.236,0.049,0.059,0.000,138.000,5.000,6.000,0.000,0.000,0.000,0.209,0.236,0.049,0.059,0.000,138.000,5.000,6.000,0.000,0.000,0.000: // measure 0
0000
0000
0000
0000
,  // measure 1
0000
0000
0000
0000
,  // measure 2
0000
0000
0000
0000
,  // measure 3
0000
0000
1000
0001
,  // measure 4
0100
0000
1000
0000
0100
0000
0001
0001
,  // measure 5
1000
1000
0000
0000
0010
0000
1000
0000
,  // measure 6
1000
0100
0001
0000
0000
0000
0010
0000
,  // measure 7
0100
0010
0100
0000
0001
0000
1000
0000
,  // measure 8
0010
0000
0010
0000
1000
0000
0100
0100
,  // measure 9
0010
0010
0000
0000
0001
0000
1000
0000
,  // measure 10
0010
0010
0000
0000
,  // measure 11
0000
0001
1000
0001
,  // measure 12
0001
0000
1000
1000
0100
0000
0010
0010
,  // measure 13
0001
0010
0100
1001
,  // measure 14
0000
0010
0010
1001
,  // measure 15
0010
0000
0000
0010
1000
0000
0001
0001
,  // measure 16
0001
0000
0000
0000
0000
0000
0000
0000
0000
0000
0000
0000
0000
0000
0000
0000
0000
0000
0000
0000
0000
0000
0000
0000
0000
0000
0000
0000
0000
0000
0000
0000
0000
0000
0000
0000
0000
0000
0000
0000
0000
0000
0000
0000
0000
0000
0000
0000
0200
0000
0000
0000
0000
0000
0000
0000
0000
0000
0000
0000
0000
0300
0000
0000
0000
0000
0000
0000
0000
0000
0000
0000
0100
0000
0000
0000
0000
0000
0000
0000
0000
0000
0000
0000
0000
0000
0000
0000
0000
0000
0000
0000
0000
0000
0000
0000
0100
0000
0000
0000
0000
0000
0000
0000
0000
0000
0000
0000
0000
0000
0000
0000
0000
0000
0000
0000
0000
0000
0000
0000
0000
0000
0000
0000
0000
0000
0000
0000
0000
0000
0000
0000
0000
0000
0000
0000
0000
0000
0000
0000
0000
0000
0000
0000
0010
0000
0000
0000
0000
0000
0000
0000
0000
0000
0000
0000
0000
0000
0000
0000
0000
0000
0000
0000
0000
0000
0000
0000
0010
0000
0000
0000
0000
0000
0000
0000
0000
0000
0000
0000
0000
0000
0000
0000
0000
0000
0000
0000
0000
0000
0000
0000
,  // measure 17
0010
0000
0000
1000
1000
0000
0010
0010
,  // measure 18
0010
0010
0010
0000
0000
0001
1000
0100
,  // measure 19
0010
0000
0000
0000
0000
0000
0000
0000
0000
0000
0000
0000
0000
0000
0000
0000
0000
0000
0000
0000
0000
0000
0000
0000
1000
0000
0000
0000
0000
0000
0000
0000
0000
0000
0000
0000
0000
0000
0000
0000
0000
0000
0000
0000
0000
0000
0000
0000
0002
0000
0000
0000
0000
0000
0000
0000
0000
0000
0000
0000
0000
0000
0000
0000
0000
0003
0000
0000
0000
0000
0000
0000
0010
0000
0000
0000
0000
0000
0000
0000
0000
0000
0000
0000
0000
0000
0000
0000
0000
0000
0000
0000
0000
0000
0000
0000
0010
0000
0000
0000
0000
0000
0000
0000
0000
0000
0000
0000
0000
0000
0000
0000
0000
0000
0000
0000
0000
0000
0000
0000
0000
0000
0000
0000
0000
0000
0000
0000
0000
0000
0000
0000
0000
0000
0000
0000
0000
0000
0000
0000
0000
0000
0000
0000
0100
0000
0000
0000
0000
0000
0000
0000
0000
0000
0000
0000
0000
0000
0000
0000
0000
0000
0000
0000
0000
0000
0000
0000
0100
0000
0000
0000
0000
0000
0000
0000
0000
0000
0000
0000
0000
0000
0000
0000
0000
0000
0000
0000
0000
0000
0000
0000
,  // measure 20
0100
0000
0000
0000
0000
0000
0000
0000
0000
0000
0000
0000
0000
0000
0000
0000
0002
0000
0000
0000
0000
0003
0000
0000
0001
0000
0000
0000
0000
0000
0000
0000
0001
0000
0000
0000
0000
0000
0000
0000
0000
0000
0000
0000
0000
0000
0000
0000
1000
0000
0000
0000
0000
0000
0000
0000
1000
0000
0000
0000
0000
0000
0000
0000
,  // measure 21
1000
0000
0010
0000
0100
0000
0001
1000
,  // measure 22
0100
0010
1000
0001
0010
0000
0100
0000
,  // measure 23
0010
0010
0000
0000
1001
0000
0010
0000
,  // measure 24
0100
0000
0001
1000
,  // measure 25
0010
0100
0010
0000
0000
0000
0000
0000
,  // measure 26
0000
0001
0001
0000
0000
0000
0000
0000
,  // measure 27
1001
1000
0010
0100
,  // measure 28
0001
0000
0000
0010
0010
0010
1000
1000
,  // measure 29
0001
0001
0000
0000
0010
0000
0100
0000
,  // measure 30
0001
0000
0001
0000
0000
1000
0000
0001
,  // measure 31
0001
0000
1000
0000
0001
0010
0000
0000
,  // measure 32
0000
0000
0010
0001
0010
0000
1000
0100
,  // measure 33
1000
0000
0000
0000
0000
0000
0010
0000
0000
0100
0000
0000
0020
0000
0000
0000
0000
0000
1000
0030
0000
0000
0000
0000
,  // measure 34
0000
0000
0000
0000
0000
0000
0000
0000
0000
0000
0000
0000
0000
0000
0000
0000
0000
0000
0000
0000
0000
0000
0000
0000
0000
0000
0000
0000
0000
0000
0000
0000
0000
0000
0000
0000
0000
0000
0000
0000
0000
0000
0000
0000
0000
0000
0000
0000
2002
0000
0000
0000
3000
0000
0003
0000
0000
0000
0000
0000
0000
0000
0000
0000
0000
0000
0000
0000
0000
0000
0000
0000
0000
0000
0000
0000
0000
0000
0000
0000
0000
0000
0000
0000
0000
0000
0000
0000
0000
0000
0000
0000
0000
0000
0000
0000
0000
0000
0000
0000
0000
0000
0000
0000
0000
0000
0000
0000
0000
0000
0000
0000
0000
0000
0000
0000
0000
0000
0000
0000
0000
0000
0000
0000
0000
0000
0000
0000
0000
0000
0000
0000
0000
0000
0000
0000
0000
0000
0000
0000
0000
0000
0000
0000
0000
0000
0000
0000
0000
0000
0000
0000
0000
0000
0000
0000
0000
0000
0000
0000
0000
0000
0000
0000
0000
0000
0000
0000
0000
0000
0000
0000
0000
0000
0000
0000
0000
0000
0000
0000
0000
0000
0000
0000
0000
0000
0000
0000
0000
0000
0000
0000
;
