#TITLE:Secret Rendez-vous;
#SUBTITLE:;
#ARTIST:DIVAS;
#TITLETRANSLIT:;
#SUBTITLETRANSLIT:;
#ARTISTTRANSLIT:;
#GENRE:;
#CREDIT:Unknown StepMaker;
#BANNER:Secret Rendez-vous.png;
#BACKGROUND:Secret Rendez-vous-bg.png;
#LYRICSPATH:;
#CDTITLE:./CDTITLES/DDRMAX2 -Dance Dance Revolution 7thMIX-.PNG;
#MUSIC:Secret Rendez-vous.mp3;
#OFFSET:-0.057;
#SAMPLESTART:39.190;
#SAMPLELENGTH:15.000;
#SELECTABLE:YES;
#DISPLAYBPM:98.000;
#BPMS:0.000=98.010
;
#STOPS:;
#BGCHANGES:;
#KEYSOUNDS:;
#ATTACKS:;

//---------------dance-single - ----------------
#NOTES:
     dance-single:
     :
     Beginner:
     2:
     0.112,0.113,0.061,0.000,0.000,71.000,6.000,0.000,0.000,0.000,0.000,0.112,0.113,0.061,0.000,0.000,71.000,6.000,0.000,0.000,0.000,0.000:
0000
0000
0000
0000
,
0000
0000
0000
0000
,
0000
0000
0000
0000
,
0000
0000
0000
0000
,
1000
0000
0000
0001
,
0001
0000
0000
0010
,
0010
0000
0000
0100
,
0100
0000
0000
1000
,
1000
0000
0001
0001
,
0001
0000
0000
0010
,
0010
0000
0000
0100
,
0100
0000
0000
1000
,
1000
0000
0001
0000
,
1000
0000
0010
0000
,
0010
0000
0100
0000
,
1000
0000
0100
0000
,
0010
0000
0010
0010
,
0010
0000
0010
0010
,
0000
0100
0000
0100
,
0000
0001
0001
0001
,
0000
0000
0001
0001
,
0001
0000
1000
1000
,
1000
0000
0010
0000
,
1000
0000
0000
1001
,
1001
0000
0000
0010
,
0010
0000
0000
0110
,
0110
0000
0000
0100
,
0100
0000
0000
1001
,
1001
0000
0000
0000
,
0010
0000
0000
0000
,
0100
0000
0100
0000
,
0010
0000
1000
0000
,
0010
0000
0100
0000
,
0100
0000
0100
0000
,
0001
0000
0100
0000
,
0001
0000
0100
0000
,
0001
0000
1000
1000
,
1000
0000
0000
0000
,
0000
0000
0000
0000
,
0000
0000
0000
0000
,
0000
0000
0000
0000
;

//---------------dance-single - ----------------
#NOTES:
     dance-single:
     :
     Easy:
     4:
     0.180,0.236,0.112,0.061,0.000,107.000,11.000,6.000,0.000,0.000,0.000,0.180,0.236,0.112,0.061,0.000,107.000,11.000,6.000,0.000,0.000,0.000:
0000
0000
0000
0000
,
0000
0000
0000
0000
,
0000
0000
0000
0000
,
0000
0000
0000
0000
,
1000
1000
0010
0000
,
0000
1000
0010
0001
,
0010
0010
1000
0000
,
0001
0010
1000
0100
,
0000
0010
0001
1001
,
0000
0010
0100
1001
,
0010
0010
1000
1000
,
0010
0001
1000
0010
,
0000
0001
1000
1000
,
0010
0010
0100
0000
,
0001
1000
0010
0000
,
0001
0100
0001
0001
,
1000
0000
0001
0001
,
0010
0000
0100
0100
,
0001
0010
0001
0000
,
1000
0100
1000
0000
,
0010
0001
1000
0100
,
0010
1000
0001
0000
,
1100
0011
0110
0011
,
0010
0010
0001
1000
,
0000
0000
0000
0001
,
1000
0000
0010
0010
,
1000
0000
0000
0000
0000
0000
0000
0000
0000
0000
0000
0000
0000
0000
0000
0000
0001
0000
0000
0000
0000
0000
0000
0000
0000
0000
0000
0000
0000
0000
0000
0000
0020
0000
0000
0000
0000
0030
0000
0000
0000
0000
0000
0000
0000
0000
0000
0000
0100
0000
0000
0000
0000
0000
0000
0000
0000
0000
0000
0000
0000
0000
0000
0000
,
0001
1000
0100
1000
,
0020
0000
0000
0000
0000
0000
0000
0000
0000
0000
0000
0000
0000
0000
0000
0000
0000
0000
0000
0000
0000
0000
0000
0000
0000
0000
0000
0000
0000
0000
0000
0000
0000
0000
0000
0000
0000
0000
0000
0000
0000
0000
0000
0000
0000
0000
0000
0000
0000
0030
0000
0000
0000
0000
0000
0000
0000
0000
0000
0000
0000
0000
0000
0000
0000
0000
0000
0000
0000
0000
0000
0000
0000
0000
0000
0000
0000
0000
0000
0000
0000
0000
0000
0000
0000
0000
0000
0000
0000
0000
0000
0000
0000
0000
0000
0000
,
0002
0000
0000
0000
0000
0000
0000
0000
0000
0000
0000
0000
0000
0000
0000
0000
0000
0000
0000
0000
0000
0000
0000
0000
0000
0000
0000
0000
0000
0003
0000
0000
0000
0000
0000
0000
0000
0000
0000
0000
0000
0000
0000
0000
0000
0000
0000
0000
0000
0000
0000
0000
0000
0000
0000
0000
0000
0000
0000
0000
0000
0000
0000
0000
,
1001
0000
0110
0000
,
0001
1000
0010
0010
,
1000
0100
0010
0010
,
1001
0010
0110
0001
,
1000
0100
0010
0001
,
0010
0000
0000
0100
0000
0000
2000
3000
0000
0000
0000
0000
,
0010
0010
1000
1000
,
2002
0000
0000
0000
,
0000
0000
0000
0000
0000
0000
0000
0000
0000
0000
0000
0000
0000
0000
0000
0000
0000
0000
0000
0000
0000
0000
0000
0000
0000
0000
0000
0000
0000
0000
0000
0000
0000
0000
0000
0000
0000
0000
0000
0000
0000
0000
0000
0000
0000
0000
0000
0000
0000
0000
0000
0000
0000
0000
0000
0000
0000
0000
0000
0000
0000
0000
0000
0000
0000
0000
0000
0000
0000
0000
0000
0000
0000
0000
0000
0000
0000
0000
0000
0000
0000
0000
0000
0000
0000
0000
0000
0000
0000
0000
0000
0000
0000
0000
0000
0000
0000
0000
0000
0000
0000
0000
0000
0000
0000
0000
0000
0000
0000
0000
0000
0000
0000
0000
0000
0000
0000
0000
0000
0000
0000
0000
0000
0000
0000
0000
0000
0000
0000
0000
0000
0000
0000
0000
0000
0000
0000
0000
0000
0000
0000
0000
0000
3003
0000
0000
0000
0000
0000
0000
0000
0000
0000
0000
0000
0000
0000
0000
0000
0000
0000
0000
0000
0000
0000
0000
0000
0000
0000
0000
0000
0000
0000
0000
0000
0000
0000
0000
0000
0000
0000
0000
0000
0000
0000
0000
0000
0000
0000
0000
0000
0000
,
0000
0000
0000
0000
,
0000
0000
0000
0000
;

//---------------dance-single - ----------------
#NOTES:
     dance-single:
     :
     Medium:
     6:
     0.234,0.256,0.000,0.081,0.000,153.000,0.000,8.000,0.000,0.000,0.000,0.234,0.256,0.000,0.081,0.000,153.000,0.000,8.000,0.000,0.000,0.000:
0000
0000
0000
0000
,
0000
0000
0000
0000
,
0000
0000
0000
0000
,
0000
0000
0000
0000
,
0000
0000
1000
0000
0001
0001
0000
0000
,
0000
0000
0010
0000
1000
1000
0000
0000
,
0000
0010
1000
0000
0001
0001
0000
0000
,
1000
1000
0100
0100
0010
0010
0001
0000
,
0000
0000
0010
0000
0001
0001
0000
0000
,
0000
1000
1000
0000
0001
0001
0000
0000
,
0010
0000
0001
0000
0100
0010
0000
0000
,
0001
0000
1000
0001
1000
0010
0010
0000
,
1000
0000
0001
0000
1000
0001
1000
0000
,
0010
0100
0010
0010
,
0001
0000
0001
0001
0001
0000
0001
0001
,
1000
0010
0100
0000
0001
0001
0001
0000
,
0010
0000
0001
0010
0001
0010
0000
0000
,
1000
0000
0000
0100
0010
0100
0000
0000
,
0000
0001
0000
0000
1000
0000
0000
0000
,
0010
0000
0001
0100
0000
0000
0000
0000
,
0001
1000
0100
0010
1000
0000
0000
0000
,
0001
0010
0001
0100
0010
0000
0000
0000
,
2000
0000
0000
0000
0000
0000
0000
0000
0000
0000
0000
0000
0000
0000
0000
0000
0000
0000
0000
0000
0000
0000
0000
0000
0000
0000
0000
0000
0000
0000
0000
0000
0000
0000
0000
0000
0000
0000
0000
0000
0000
0000
0000
0000
0000
0000
0000
0000
0020
0000
0000
0000
0000
0000
0000
0000
0000
0000
0000
0000
0000
0000
0000
0000
0000
0000
0000
0000
0000
3000
0000
0000
0000
0000
0000
0000
0000
0000
0000
0000
0000
0000
0000
0000
0000
0000
0000
0000
0000
0000
0000
0000
0000
0000
0000
0000
0200
0000
0000
0000
0000
0000
0000
0000
0000
0000
0000
0000
0000
0000
0000
0000
0030
0000
0000
0000
0000
0000
0000
0000
0000
0000
0000
0000
0000
0000
0000
0000
0000
0000
0000
0000
0000
0000
0000
0000
0000
0000
0000
0000
0000
0000
0000
0000
0002
0000
0000
0000
0000
0000
0000
0000
0000
0000
0000
0000
0000
0000
0000
0000
0300
0000
0000
0000
0000
0000
0000
0000
0000
0000
0000
0000
0000
0000
0000
0000
0000
0000
0003
0000
0000
0000
0000
0000
0000
0000
0000
0000
0000
0000
0000
0000
,
1000
0000
0001
0001
0010
0000
0100
0000
,
0001
0000
0000
0000
0000
1000
1000
0000
,
0001
0000
0000
0000
0000
0000
0000
0000
0000
0000
0000
0000
0000
0000
0000
0000
0000
0000
0000
0000
0000
0000
0000
0000
0000
0000
0000
0000
0000
0000
0000
0000
0000
0000
0000
0000
0000
0000
0000
0000
0000
0000
0000
0000
0000
0000
0000
0000
0001
0000
0000
0000
0000
0000
0000
0000
0000
0000
0000
0000
0002
0000
0000
0000
0000
0000
0000
0003
0000
0000
0000
0000
0001
0000
0000
0000
0000
0000
0000
0000
0000
0000
0000
0000
0000
0000
0000
0000
0000
0000
0000
0000
0000
0000
0000
0000
,
2000
0000
0000
0000
0000
0000
0000
0000
0000
0000
0000
0000
0000
0000
0000
0000
0000
0000
0000
0000
0000
0000
0000
0000
0000
0000
0000
0000
0000
0000
0000
0000
0000
0000
0000
0000
0000
3000
0000
0000
0010
0000
0000
0000
0000
0000
0000
0000
0000
0000
0000
0000
0000
0000
0000
0000
0001
0000
0000
0000
0000
0000
0000
0000
,
0000
0000
0010
0100
,
0001
0000
1000
1000
1000
1000
0000
0000
,
0001
0000
0001
0001
0001
0001
0000
0000
,
0010
0000
0100
0000
0001
1000
0100
0000
,
0010
0001
1000
0010
0000
0000
0000
0000
,
0001
0100
0010
0001
1000
0100
0000
0000
,
0010
1000
0001
0100
0010
0010
0000
0000
,
0001
1000
0001
0100
,
0010
1000
0001
0100
0010
0000
0001
0000
,
1000
0001
0100
0010
0010
0010
1000
1000
,
0000
0001
0000
0000
0001
0000
0002
0000
,
0000
0000
0000
0000
0000
0000
0000
0000
0000
0000
0000
0000
2000
0000
0000
0000
0000
0000
0000
0000
0000
0000
0000
0000
0000
0000
0000
0000
0000
0000
0000
0000
0000
0000
0000
0000
0000
0000
0000
0000
0000
0000
0000
0000
0000
0000
0000
0000
0000
0000
0000
0000
0000
0000
0000
0000
0000
0000
0000
0000
0000
0000
0000
0000
0000
0000
0000
0003
0000
0000
0000
0000
0000
3000
0000
0000
0000
0000
0000
0000
0000
0000
0000
0000
0000
0000
0000
0000
0000
0000
0000
0000
0000
0000
0000
0000
,
0000
0000
0000
0000
,
0000
0000
0000
0000
;

//---------------dance-single - ----------------
#NOTES:
     dance-single:
     :
     Hard:
     12:
     0.440,0.581,0.092,0.020,0.738,292.000,9.000,2.000,0.000,0.000,0.000,0.440,0.581,0.092,0.020,0.738,292.000,9.000,2.000,0.000,0.000,0.000: // measure 0
0000
0000
0000
0000
,  // measure 1
0000
0000
0000
0000
,  // measure 2
0000
0000
0000
0000
,  // measure 3
0000
0000
0000
0000
,  // measure 4
0000
0000
1000
0010
0100
0000
0001
1000
0010
0100
0001
0000
0000
0000
0000
0000
,  // measure 5
0000
0000
1000
0100
0010
0000
0010
1000
0010
0100
0010
0000
0000
0000
0000
0000
,  // measure 6
0000
0000
0001
1000
0010
0100
0001
1000
0010
0100
0010
0000
0000
0001
1000
0001
,  // measure 7
0001
0001
0000
1000
0000
0010
0000
0100
0000
0001
0000
1000
0010
0000
0000
0000
,  // measure 8
0000
0000
0001
1000
0001
0000
0010
0100
0001
0100
0010
0000
0000
0000
0000
0000
,  // measure 9
0000
0000
1000
0100
1000
0000
0010
0001
0001
0010
0001
0000
0000
0000
0000
0000
,  // measure 10
0000
0000
1000
0010
0100
0010
0100
0001
0000
1000
0010
0000
0000
0001
0100
0010
,  // measure 11
1000
0100
0000
0010
0000
1000
0000
0001
0000
0100
0000
0010
0000
0010
0000
0000
,  // measure 12
0000
1000
0001
0100
0000
0000
0000
0010
0000
0010
0000
0010
0000
0000
0000
0000
,  // measure 13
1000
0000
0001
0100
0000
0010
0000
0000
0000
0000
0000
0000
0000
0000
1000
0000
,  // measure 14
0010
0100
0001
1000
0000
0000
0000
0001
,  // measure 15
0010
0000
0100
0000
0010
0000
1000
0000
0010
0100
0010
0100
0010
0100
0010
0100
,  // measure 16
0001
0001
0000
1000
0000
0010
0000
0100
0000
0001
0000
0000
0000
0000
0000
0000
,  // measure 17
0010
0010
0000
0001
0000
1000
0000
0001
0000
0001
0000
0000
0000
0000
0000
0000
,  // measure 18
0010
0000
0100
0001
0000
1000
0010
0000
0000
0000
0100
0010
0000
1000
0001
0000
,  // measure 19
0010
0100
0000
0010
0000
0010
0010
0000
0001
0000
0001
0001
0000
0001
0000
0001
,  // measure 20
1000
0000
0000
0000
0000
0000
0000
0000
0000
0000
0000
0000
0010
0000
0000
0000
0000
0000
0000
0000
0000
0000
0000
0000
0100
0000
0000
0000
0000
0000
0000
0000
0000
0000
0000
0000
0001
0000
0000
0000
0000
0000
0000
0000
0000
0000
0000
0000
0100
0000
0000
0000
0000
0000
0000
0000
0000
0000
0000
0000
0010
0000
0000
0000
0000
0000
0000
0000
0000
0000
0000
0000
1000
0000
0000
0000
0000
0000
0000
0000
0000
0000
0000
0000
0001
0000
0000
0000
0000
0000
0000
0000
0000
0000
0000
0000
0200
0000
0000
0000
0000
0000
0000
0000
0000
0000
0000
0000
0010
0300
0000
0000
0000
0000
0000
0000
0000
0000
0000
0000
1000
0000
0000
0000
0000
0000
0000
0000
0000
0000
0000
0000
0010
0000
0000
0000
0000
0000
0000
0000
0000
0000
0000
0000
0110
0000
0000
0000
0000
0000
0000
0000
0000
0000
0000
0000
0000
0000
0000
0000
0000
0000
0000
0000
0000
0000
0000
0000
0000
0000
0000
0000
0000
0000
0000
0000
0000
0000
0000
0000
0000
0000
0000
0000
0000
0000
0000
0000
0000
0000
0000
0000
,  // measure 21
1000
0001
0000
0100
0000
0010
0000
0010
0000
0010
0000
0000
0000
0000
0000
0000
,  // measure 22
1001
0000
0000
0100
0010
0000
0000
1000
0001
0000
0000
0100
0010
0000
0000
0000
,  // measure 23
0001
0000
1000
0001
0000
0100
0000
0000
0010
0000
0000
0000
0001
0000
0000
0000
,  // measure 24
1000
0000
0001
0000
0100
0000
0010
0010
0000
0010
0010
0000
1000
0000
0001
0000
,  // measure 25
0100
0000
0000
0000
0000
0001
0001
0001
,  // measure 26
1000
0000
0010
0000
0100
0000
0001
0100
0001
0000
1000
0000
0010
0010
0100
0000
,  // measure 27
0001
0000
0000
0000
0000
0000
0000
0000
0000
0000
0000
0000
0000
0000
0000
0000
0000
0000
0000
0000
0000
0000
0000
0000
0001
0000
0000
0000
0000
0000
0000
0000
0000
0000
0000
0000
0001
0000
0000
0000
0000
0000
0000
0000
0000
0000
0000
0000
0000
0000
0000
0000
0000
0000
0000
0000
0000
0000
0000
0000
1000
0000
0000
0000
0000
0000
0000
0000
0000
0000
0000
0000
0010
0000
0000
0000
0000
0000
0000
0000
0000
0000
0000
0000
0010
0000
0000
0000
0000
0000
0000
0000
0000
0000
0000
0000
0010
0000
0000
0000
0000
0000
0000
0000
0000
0000
0000
0000
0100
0000
0000
0000
0000
0000
0000
0000
0000
0000
0000
0000
0000
0000
0000
0000
0000
0000
0000
0000
0000
0000
0000
0000
0001
0000
0000
0000
0000
0000
0000
0000
0000
0000
0000
0000
0001
0000
0000
0000
0000
0000
0000
0000
0000
0000
0000
0000
2000
0000
0000
0000
0000
0000
0000
0000
0000
0000
0000
0000
0000
3000
0000
0000
0000
0000
0000
0000
0000
0000
0000
0000
0000
0000
0000
0000
0000
0000
0000
0000
0000
0000
0000
0000
,  // measure 28
0010
0010
0000
0010
0000
0010
0000
0010
0000
0010
0000
0000
0000
0000
0000
0000
,  // measure 29
0001
1000
0000
0010
0000
0100
0000
0001
0000
1000
0000
0000
0000
0000
0000
0000
,  // measure 30
0110
0000
1001
0000
,  // measure 31
0000
1000
0000
0001
0000
0001
0000
0001
0100
0000
0010
0000
0010
0000
0010
0000
,  // measure 32
1000
0001
0000
0100
0010
0100
0001
1000
0010
0100
0001
0100
0010
0101
0000
1000
,  // measure 33
0010
0100
1000
0110
0001
1000
0010
0100
0001
1000
0010
0100
0010
0000
0000
0000
,  // measure 34
1000
0001
0100
0010
0100
0001
1000
0010
0100
0001
1000
0010
0100
0001
0100
0010
,  // measure 35
1000
0000
0110
0010
0100
0001
0100
0000
0010
1010
0000
0110
0100
0000
0000
0001
,  // measure 36
1000
0000
0010
0100
0001
1000
0010
0100
0001
1000
0010
0100
0001
1000
0010
0100
,  // measure 37
0000
0000
0001
0000
0000
0001
0000
0000
0000
0001
0000
0000
0001
0000
0000
0000
,  // measure 38
0000
0001
0000
0000
0000
0000
0000
0000
0000
0000
0000
0000
0000
0000
0000
0000
;

//---------------dance-double - ----------------
#NOTES:
     dance-double:
     :
     Easy:
     2:
     0.171,0.233,0.163,0.010,0.000,101.000,16.000,1.000,0.000,0.000,0.000,0.171,0.233,0.163,0.010,0.000,101.000,16.000,1.000,0.000,0.000,0.000:
00000000
00000000
00000000
00000000
,
00000000
00000000
00000000
00000000
,
00000000
00000000
00000000
00000000
,
00000000
00000000
00000000
00000000
,
00000010
00000000
00010000
00001000
,
01000000
00000000
00001000
00010000
,
00000100
00000000
00010000
00001000
,
00100000
00010000
01000000
00001000
,
00100000
00000000
01000000
00010000
,
00000010
00000000
00000100
00001000
,
00100000
00000000
01000000
00001000
,
00000010
00000000
00000100
00001000
,
00011000
00000000
01010000
00000000
,
10000000
01000000
00100000
00010000
,
00011000
00000000
00001100
00000000
,
00000001
00000100
00000010
00001000
,
00011000
00000000
00000000
00100000
,
00011000
00000000
00000000
00000010
,
00011000
01000000
00011000
00000100
,
00001000
00000001
00000010
00000100
,
00011000
00000000
00000000
00000100
,
00011000
00000000
00000000
01000000
,
00011000
00000010
00011000
00100000
,
00010000
10000000
00100000
01000000
,
01000000
00000000
00010000
00000000
,
00000010
00000000
00001000
00000000
,
00010000
00000000
00001000
00000000
,
01000000
00000000
00010000
10000000
,
01000000
00000000
00010000
00001000
,
00000100
00000000
00001000
00010000
,
00100000
00000000
00010000
00001000
,
00000010
00000000
00001000
00010000
,
01000000
00000000
00010000
00001000
,
00000100
00000000
00001000
00010000
,
00011000
00100000
00011000
00000010
,
00011000
00000100
00011000
01000000
,
00010000
00010000
00010000
00010000
,
00020000
00000000
00000000
00000000
,
00000000
00030000
00000000
00000000
,
00000000
00000000
00000000
00000000
,
00000000
00000000
00000000
00000000
;

//---------------dance-double - ----------------
#NOTES:
     dance-double:
     :
     Medium:
     5:
     0.276,0.311,0.407,0.020,0.000,148.000,40.000,2.000,0.000,0.000,0.000,0.276,0.311,0.407,0.020,0.000,148.000,40.000,2.000,0.000,0.000,0.000:
00000000
00000000
00000000
00000000
,
00000000
00000000
00000000
00000000
,
00000000
00000000
00000000
00000000
,
00000000
00000000
00000000
00000000
,
00100000
00000000
10000000
00000000
01000000
00000000
00010000
00001000
,
00000010
00000000
00000001
00000000
00000100
00000000
00001000
00010000
,
00100000
00000000
10000000
01000000
00010000
00001000
00000100
00000001
,
00000010
00000000
00000001
00000100
00001000
00010000
01000000
10000000
,
00100000
00000000
00100000
00000000
10000000
00010000
01000000
00000000
,
00100000
00000000
00100000
00000000
10000000
01000000
00010000
00001000
,
00000010
00000000
00000010
00000000
00000001
00001000
00000100
00000000
,
00000010
00000000
00000010
00000000
00000001
00000100
00001000
00010000
,
00100000
10000000
01000000
00010000
,
00001100
00010010
00001100
00010010
,
00000100
00000001
00000010
00001000
,
00110000
01001000
00110000
01001000
,
01100000
10000000
01000000
00010000
,
00000110
00000001
00000010
00001000
,
00011000
00010010
00011000
00101000
,
01100000
00011000
00000110
00011000
,
01100000
00000000
10000000
00010000
01000000
00000000
00001000
00000000
,
00000110
00000000
00000001
00001000
00000100
00000000
00010000
00000000
,
00011000
01001000
00011000
00010100
,
00011000
00001100
00011000
01010000
,
10010000
00000000
00000000
00000000
00010000
10000000
01000000
00000000
,
00011000
00000000
00000000
00000000
00000010
00000001
00000100
00000010
,
00001001
00000000
00000000
00000000
00001000
00000001
00000100
00000000
,
00011000
00000000
00000000
00000000
01000000
10000000
00100000
00000000
,
00021000
00000000
00000000
00000000
,
00001000
00000000
00000000
00030000
,
00001000
00100000
00010000
00000010
,
00011000
00101000
00011000
00010010
,
00001000
00000000
00000001
00000000
00001000
00000001
00000100
00000000
,
00010000
00000000
10000000
00000000
00010000
10000000
01000000
00000000
,
00001000
00001001
00001000
00010000
,
10010000
00010000
00001000
00011000
,
00100000
00000000
01000000
00000000
00010000
00001000
00000100
00000010
,
00000200
00000000
00000000
00000000
,
00000000
00000300
00000000
00000000
,
00000000
00000000
00000000
00000000
,
00000000
00000000
00000000
00000000
;

//---------------dance-double - ----------------
#NOTES:
     dance-double:
     :
     Hard:
     7:
     0.420,0.428,0.254,0.081,0.158,256.000,25.000,8.000,0.000,0.000,0.000,0.420,0.428,0.254,0.081,0.158,256.000,25.000,8.000,0.000,0.000,0.000:
00000000
00000000
00000000
00000000
,
00000000
00000000
00000000
00000000
,
00000000
00000000
00000000
00000000
,
00000000
00000000
00000000
00000000
,
00000100
00000000
00001000
00000000
00000001
00000000
00000100
00000000
00001000
00000000
00010000
00000000
00001000
00010000
00001000
00000000
,
00100000
00000000
01000000
00000000
10000000
00000000
00010000
00000000
01000000
10000000
01000000
00000000
00010000
00100000
00010000
00000000
,
10000000
00000000
01000000
00000000
00010000
00000000
00001000
00000000
01000000
00000000
00100000
00000000
10000000
00010000
10000000
00000000
,
00100000
01000000
00001000
00010000
00000010
00000100
00000001
00001000
,
00000100
00000000
00000010
00000000
00000001
00000000
00000100
00000000
00000010
00000000
00001000
00000000
00000100
00000010
00000100
00000000
,
00000010
00000000
00001000
00000000
00010000
00000000
00100000
00000000
01000000
00100000
01000000
00000000
00010000
00100000
00010000
00000000
,
01000000
00000000
00001000
00000000
00010000
00000000
00000100
00000000
00000010
00000000
00000001
00000000
00000100
00000010
00000100
00000000
,
00000001
00001000
00000001
00000000
00000010
00000100
00000010
00000000
00000100
00010000
00000100
00000000
00001000
00000001
00001000
00000000
,
00001001
00000000
00001100
00010000
00001000
01000000
00110000
00001000
,
00010000
00000000
00011000
00000000
00010010
00001000
00000100
00010000
,
00011000
00000000
01100000
10000000
01000000
00100000
00010000
01000000
,
01100000
00110000
00011000
00001100
,
00000210
00000001
00001000
00000301
,
00000120
00001000
00000001
00001030
,
00010000
00100000
10000000
01000000
00100000
00010000
01000000
00010000
,
00100000
00001000
00010000
00000010
00001000
00000100
00010000
01000000
,
01200000
10000000
00010000
10300000
,
02100000
00010000
10000000
03010000
,
00011000
00000000
00000000
00000000
00001100
00000000
00000000
00000000
00000010
00000001
00000010
00000001
00000010
00000000
00001000
00000000
,
00010000
00000000
00011000
00000000
00000010
00000001
00000100
00001000
,
00011000
00000000
00100000
00000000
10000000
00000000
01000000
00000000
00100000
00010000
00100000
00010000
00100000
00000000
00011000
00000000
,
00000010
00000000
00000001
00000000
00000100
00000000
00001000
00000000
00010000
00001000
00010000
00001000
00000100
00000000
00000001
00000000
,
00000200
00000010
00001000
00010300
,
00021000
01000000
10000000
00130000
,
01100000
00000000
00000000
00000000
10010000
00000000
00000000
00000000
00100000
10000000
00010000
10000000
01000000
00000000
00010000
00000000
,
00001000
00000000
00000100
00000000
00000010
00000000
00001000
00000000
00000001
00000010
00001000
00000010
00000001
00000000
00001000
00000000
,
00000100
00010000
00000100
00010000
00001000
00100000
00001000
00100000
,
00010000
10000000
00010000
10000000
11000000
00010000
00001000
00000100
,
00000101
00000000
00000010
00000000
00000001
00000000
00000100
00000000
00001000
00000000
00010000
00000000
00100000
10000000
00100000
10000000
,
00100000
00000000
01000000
00000000
00010000
00000000
10000000
00000000
00010000
00000000
01000000
00000000
00001000
00010000
00001000
00010000
,
00001000
00000000
00000100
00000000
00000001
00000000
00000010
00000000
00000001
00001000
00000001
00000000
00000001
00000010
00000100
00001000
,
00000010
00000100
00001000
00010000
01000000
10000000
00100000
01000000
,
00010000
00000000
00000000
00000000
10000000
00000000
00000000
00000000
00010000
00000000
10000000
00000000
01000000
00010000
00001000
00000200
,
00000020
00000000
00000000
00000000
,
00000000
00000330
00000000
00000000
,
00000000
00000000
00000000
00000000
,
00000000
00000000
00000000
00000000
;
