#TITLE:Remember You;
#SUBTITLE:;
#ARTIST:NM feat Julie;
#TITLETRANSLIT:;
#SUBTITLETRANSLIT:;
#ARTISTTRANSLIT:;
#GENRE:;
#CREDIT:;
#BANNER:Remember You.png;
#BACKGROUND:Remember You-bg.png;
#LYRICSPATH:;
#CDTITLE:./CDTITLES/DANCE DANCE REVOLUTION 5THMIX.PNG;
#MUSIC:Remember You.mp3;
#OFFSET:-0.045;
#SAMPLESTART:64.010;
#SAMPLELENGTH:15.000;
#SELECTABLE:YES;
#DISPLAYBPM:105.000;
#BPMS:0.000=105.000
,152.000=104.651
,153.000=101.120
,154.000=98.901
,155.000=96.771
,156.000=94.740
,157.000=84.911
,158.000=75.000
,159.000=51.431
,160.000=45.000
;
#STOPS:;
#BGCHANGES:;
#KEYSOUNDS:;
#ATTACKS:;

//---------------dance-single - ----------------
#NOTES:
     dance-single:
     :
     Beginner:
     1:
     0.098,0.102,0.020,0.010,0.000,64.000,2.000,1.000,0.000,0.000,0.000,0.098,0.102,0.020,0.010,0.000,64.000,2.000,1.000,0.000,0.000,0.000:
0000
0000
0000
0000
,
0000
0000
0000
0000
,
0010
0000
0000
0000
,
0001
0000
0000
0000
,
1000
0000
0000
0000
,
0010
0000
0000
0000
,
0001
0000
0100
0000
,
1000
0000
0001
0000
,
0110
0000
0001
0000
,
1000
0000
0000
0000
,
0001
0000
1000
0000
,
0010
0000
0100
0100
,
0000
0001
0000
0000
,
0000
0000
0000
0000
,
1000
0000
0000
0000
,
0010
0000
0000
0000
,
0001
0000
0000
0000
,
0100
0000
0010
0000
,
0100
0000
0000
0000
,
1000
0000
0001
0000
,
0020
0030
0010
0000
0000
0000
0000
0000
,
1000
0000
1000
0000
,
0010
0000
0100
0000
,
0001
0000
1000
0000
,
0010
0000
0010
0000
,
0001
0000
1000
0000
,
0001
0000
0100
0000
,
0010
0000
0000
0000
,
1000
0000
0010
0000
,
0100
0000
0010
0000
,
1000
0000
0001
0000
,
0000
0000
1000
0000
,
0001
0001
0000
0100
,
0000
0010
0000
0000
,
1000
0000
0001
0000
,
0010
0000
0100
0000
,
0010
0000
1000
0000
,
0001
0000
0100
0000
,
1000
0000
0010
0000
,
0100
0000
0010
0000
,
1001
0000
0000
0000
,
0000
0000
0000
0000
;

//---------------dance-single - ----------------
#NOTES:
     dance-single:
     :
     Easy:
     3:
     0.194,0.207,0.122,0.102,0.000,111.000,12.000,10.000,0.000,0.000,0.000,0.194,0.207,0.122,0.102,0.000,111.000,12.000,10.000,0.000,0.000,0.000:
0000
0000
0000
0000
,
0000
0000
0000
0000
,
1000
0000
0000
0000
,
0001
0000
0000
0110
,
0001
0000
0000
0000
,
1000
0000
0000
0010
,
0100
0001
1000
0010
,
0100
0001
1000
0100
,
0110
0000
1000
0100
,
0010
1000
0001
0001
,
2000
0000
0000
0000
0000
0000
0000
0000
0000
0000
0000
0000
0000
0000
0000
0000
0000
0000
0000
0000
0000
0000
0000
0000
0000
3000
0000
0000
0000
0000
0000
0000
0000
0000
0000
0000
0000
0000
0000
0000
0000
0000
0000
0000
0000
0000
0000
0000
0000
0000
0000
0000
0000
0000
0000
0000
0000
0000
0000
0000
0000
0000
0000
0000
0000
0000
0000
0000
0000
0000
0000
0000
0010
0000
0000
0000
0000
0000
0000
0000
0000
0000
0000
0000
0000
0000
0000
0000
0000
0000
0000
0000
0000
0000
0000
0000
,
0100
0001
0001
0000
,
1000
0100
0010
1000
,
0001
0000
0000
0002
0003
0000
0100
0000
0000
0010
0000
0000
,
0220
0000
0000
0000
0000
0000
0000
0330
0000
0000
0000
0000
0000
0000
0000
0000
0000
0000
0000
0000
0000
0000
0000
0000
0000
0000
0000
0000
0000
0000
0000
0000
0000
0000
0000
0000
0000
0000
0000
0000
0000
0000
0000
0000
0000
0000
0000
0000
0001
0000
0000
0000
0000
0000
0000
0000
0000
0000
0000
0000
0000
0000
0000
0000
0000
0000
0000
0000
0000
0000
0000
0000
1000
0000
0000
0000
0000
0000
0000
0000
0000
0000
0000
0000
0000
0000
0000
0000
0000
0000
0000
0000
0000
0000
0000
0000
,
0010
0000
0001
0000
,
0100
0010
0100
0001
,
1000
0010
0100
1000
,
0010
0000
1001
1001
,
1001
0000
0010
0100
,
0010
0000
0000
0000
,
0001
1000
0010
0100
,
0001
0001
0001
0000
,
1000
1000
1000
0000
,
0010
0010
0000
0000
,
0001
0000
1000
0000
,
1001
0110
0001
0000
,
1000
0000
0000
0000
0000
0000
0000
0000
0002
0000
0000
0003
0000
0000
0000
0000
1000
0000
0000
0000
0000
0000
0000
0000
0000
0000
0000
0000
0000
0000
0000
0000
,
0010
0010
0001
0001
,
0100
0100
0010
0010
,
2000
0000
0000
3000
0000
0000
0000
0000
0010
0000
0000
0000
0000
0000
0000
0000
0001
0000
0000
0000
0000
0000
0000
0000
0100
0000
0000
0000
0000
0000
0000
0000
,
0010
0001
1000
0010
,
1001
1001
0010
0100
,
0020
0000
0000
0000
0000
0000
0000
0000
0000
0000
0000
0000
0000
0000
0000
0000
0000
0000
0000
0000
0000
0000
0000
0000
0000
0000
0000
0000
0000
0000
0000
0000
0000
0000
0000
0000
0000
0000
0000
0000
0000
0000
0000
0000
0000
0000
0000
0000
0000
0000
0000
0000
0000
0000
0000
0000
0000
0000
0000
0000
0000
0000
0000
0000
0000
0000
0000
0000
0000
0030
0000
0000
0000
0000
0000
0000
0000
0000
0000
0000
0000
0000
0000
0000
0000
0000
0000
0000
0000
0000
0000
0000
0000
0000
0000
0000
0200
0000
0000
0000
0000
0000
0000
0000
0000
0000
0000
0000
0000
0000
0000
0000
0000
0000
0000
0000
0000
0000
0000
0000
0000
0000
0000
0000
0000
0000
0000
0000
0000
0000
0000
0000
0000
0000
0000
0000
0000
0000
0000
0000
0000
0000
0000
0000
0000
0300
0000
0000
0000
0000
0000
0000
0000
0000
0000
0000
0000
0000
0000
0000
0000
0000
0000
0000
0000
0000
0000
0000
0000
0000
0000
0000
0000
0000
0000
0000
0000
0000
0000
0000
0000
0000
0000
0000
0000
0000
0000
0000
0000
0000
0000
0000
,
0001
0000
0010
0000
,
0010
0000
1000
0000
,
1001
0000
0010
0010
,
0000
0001
1000
0010
,
1000
0000
0001
0000
,
1000
0000
0001
0000
,
2002
0000
0000
0000
0000
0000
0000
0000
0000
0000
0000
0000
0000
0000
0000
0000
0000
0000
0000
0000
0000
0000
0000
0000
0000
0000
0000
0000
0000
0000
0000
0000
0000
0000
0000
0000
0000
0000
0000
0000
0000
0000
0000
0000
0000
0000
0000
0000
3000
0003
0000
0000
0000
0000
0000
0000
0000
0000
0000
0000
0000
0000
0000
0000
0000
0000
0000
0000
0000
0000
0000
0000
0000
0000
0000
0000
0000
0000
0000
0000
0000
0000
0000
0000
0000
0000
0000
0000
0000
0000
0000
0000
0000
0000
0000
0000
,
0000
0000
0000
0000
;

//---------------dance-single - ----------------
#NOTES:
     dance-single:
     :
     Medium:
     5:
     0.242,0.228,0.061,0.082,0.000,152.000,6.000,8.000,0.000,0.000,0.000,0.242,0.228,0.061,0.082,0.000,152.000,6.000,8.000,0.000,0.000,0.000:
0000
0000
0000
0000
,
0000
0000
0000
0000
,
1001
0000
0000
0010
,
0001
0000
0000
0001
0000
0001
0000
0000
,
0010
0000
0000
1000
,
0001
1000
0001
1000
0000
0000
0000
0000
,
0010
0000
0001
0010
0000
1000
0100
0000
,
0010
0000
0001
0010
0000
0100
0000
0010
,
0000
0000
0000
0000
1000
0010
0100
0001
,
0000
0100
0000
0000
0000
0000
0001
0000
,
1000
0001
0010
0010
,
0100
0000
1000
0000
1000
0100
1000
0000
,
0010
0000
0001
0000
0100
0010
0001
0000
,
0100
0010
0010
0010
,
0010
0000
1001
0010
,
0100
0000
0000
0000
0000
0000
0000
0000
0000
0000
0000
0000
0010
0000
0000
0000
0000
0000
0200
0000
0000
0000
0000
0300
0000
0000
0000
0000
0000
0000
0001
0000
0000
0000
0000
0000
0010
0000
0000
0000
0000
0000
0000
0000
0000
0000
0000
0000
,
1000
0100
0010
0100
,
0010
0001
1000
0100
,
2002
0000
0000
0000
3003
0000
0010
0000
0000
0100
0000
0000
,
0001
0000
0100
0001
0000
0010
0100
0000
,
0001
1000
0001
0001
0000
0010
0100
0000
,
0000
0000
0010
0010
0000
0000
0001
0000
,
1000
0000
0000
0000
0000
0000
0000
0000
0000
0000
0000
0000
0000
0000
0000
0000
0000
0000
0000
0000
0000
0000
0000
0000
0000
0000
0000
0000
0000
0000
0000
0000
0000
0000
0000
0000
0000
0000
0000
0000
0000
0000
0000
0000
0000
0000
0000
0000
0001
0000
0000
0000
0000
0000
0000
0000
0000
0000
0000
0000
0000
0000
0000
0000
0000
0000
0000
0000
0000
0000
0000
0000
2000
0000
0000
0000
0000
0000
0000
0000
0000
0000
0000
0000
0000
0000
0000
0000
0000
3000
0000
0000
0000
0000
0000
0000
0000
0000
0000
0000
0000
0000
0000
0000
0000
0000
0000
0000
0000
0000
0000
0000
0000
0000
0000
0000
0000
0000
0000
0000
0000
0000
0000
0000
0000
0000
0000
0000
0000
0000
0000
0000
0000
0000
0000
0000
0000
0000
0000
0000
0000
0000
0000
0000
0010
0000
0000
0000
0000
0000
0000
0000
0000
0000
0000
0000
0000
0000
0000
0000
0000
0000
0000
0000
0000
0000
0000
0000
0000
0000
0000
0000
0000
0000
0000
0000
0000
0000
0000
0000
0000
0000
0000
0000
0000
0000
0000
0000
0000
0000
0000
0000
,
0100
0000
0000
0000
0100
0000
0000
0000
0000
0000
0000
0000
0010
0000
0000
0000
0000
0000
0000
0000
0000
0000
0000
0000
0002
0000
0000
0003
0000
0000
0000
0000
,
0001
0001
0000
1000
0000
0000
0010
0000
,
0100
0001
1000
0010
,
0100
0001
0000
0000
,
0000
1000
0100
0010
0001
0000
0000
0000
,
0001
0000
1000
0000
0010
0010
0010
0000
,
1000
0000
0001
0000
1000
1000
0100
0000
,
0010
0001
1000
0000
,
0100
0010
0001
1000
,
1001
0010
0100
0000
0001
0000
1000
0000
,
0001
0000
0001
0001
0000
1000
0010
0000
,
0100
0000
0001
0010
0000
0100
0010
0000
,
1000
0000
0001
0001
0000
1000
0000
0001
,
1000
0000
0000
0000
0000
0010
0100
0000
,
0001
0000
0000
0000
0000
0000
0000
0000
0000
0000
0000
0000
0000
0000
0000
0000
0000
0000
0000
0000
0000
0000
0000
0000
1000
0000
0000
0000
0000
0000
0000
0000
0000
0000
0000
0000
0000
0000
0000
0000
0000
0000
0000
0000
0000
0000
0000
0000
0010
0000
0000
0000
0000
0000
0000
0000
0000
0000
0000
0000
0000
0000
0000
0000
0000
0000
0000
0000
0000
0000
0000
0000
0200
0000
0000
0000
0000
0000
0000
0300
0000
0000
0000
0000
0000
0000
0000
0000
0000
0000
0000
0000
0000
0000
0000
0000
,
1001
0000
0000
0000
0010
0000
0100
0001
,
1000
0000
0000
0010
0000
0100
0000
0000
,
2002
0000
0000
0000
0000
0000
0000
0000
0000
0000
0000
0000
0000
0000
0000
0000
0000
0000
0000
0000
0000
0000
0000
0000
0000
0000
0000
0000
0000
0000
0000
0000
0000
0000
0000
0000
0000
0000
0000
0000
0000
0000
0000
0000
0000
0000
0000
0000
0000
0000
0000
0000
0000
0000
0000
0000
0000
0000
0000
0000
0000
0000
0000
0000
0000
0000
0000
0000
0000
0000
0000
0000
0000
0000
0000
0000
0000
0000
0000
0000
0000
0000
0000
0000
0000
0000
0000
0000
0000
0000
0000
0000
0000
0000
0000
0000
0000
0000
0000
0000
0000
0000
0000
0000
0000
0000
0000
0000
0000
0000
0000
0000
0000
0000
0000
0000
0000
3000
0000
0000
0000
0003
0000
0000
0000
0000
0000
0000
0000
0000
0000
0000
0000
0000
0000
0000
0000
0000
0000
0000
0000
0000
0000
0000
0000
0000
0000
0000
0000
0000
0000
0000
0000
0000
0000
0000
0000
0000
0000
0000
0000
0000
0000
0000
0000
0000
0000
0000
0000
0000
0000
0000
0000
0000
0000
0000
0000
0000
0000
0000
0000
0000
0000
0000
0000
0000
0000
0000
0000
0000
0000
0000
,
0000
0000
0000
0000
;

//---------------dance-single - ----------------
#NOTES:
     dance-single:
     :
     Hard:
     7:
     0.341,0.328,0.051,0.071,0.000,222.000,5.000,7.000,0.000,0.000,0.000,0.341,0.328,0.051,0.071,0.000,222.000,5.000,7.000,0.000,0.000,0.000: // measure 0
0000
0000
0000
0000
,  // measure 1
0010
0000
0000
0000
,  // measure 2
1000
0001
0100
0010
0000
0010
0010
0000
,  // measure 3
0001
1000
0010
0010
0000
0100
0001
0000
,  // measure 4
0010
0001
1000
0100
0000
0010
0001
1000
,  // measure 5
0100
0010
0000
0000
0000
0000
1000
0001
,  // measure 6
0100
0010
0100
0001
0000
1000
0001
0000
,  // measure 7
0200
0300
0000
0000
0010
0000
0000
0000
0100
0000
0000
0000
0020
0000
0000
0000
0000
0030
0000
0000
0000
0000
0000
0000
0000
0000
0000
0000
0000
0000
0000
0000
,  // measure 8
0010
1000
0010
0100
0000
0001
0100
0000
,  // measure 9
0010
1000
0100
1000
0000
0010
0001
0000
,  // measure 10
1000
1000
0100
0100
0010
0010
1000
0000
,  // measure 11
0001
0000
0000
0000
0000
0000
0000
0000
0001
0000
0000
0000
0000
0000
0000
0000
0020
0000
0000
0000
0000
0030
0000
0000
0010
0000
0000
0000
0000
0000
0000
0000
0100
0000
0000
0000
0000
0000
0000
0000
0100
0000
0000
0000
0000
0000
0000
0000
1000
0000
0000
0000
0000
0000
0000
0000
0000
0000
0000
0000
0000
0000
0000
0000
,  // measure 12
0010
0010
0001
0000
0100
0010
0010
0000
,  // measure 13
0001
1000
0001
0000
0010
0100
0010
0100
,  // measure 14
0001
0000
0000
0000
1000
0100
0010
0001
,  // measure 15
0010
0000
0100
0010
0000
0001
0010
0000
,  // measure 16
1000
0001
0000
0001
1000
0010
0100
0001
,  // measure 17
1000
0010
0100
0001
1000
0010
0100
0100
,  // measure 18
0100
0000
0000
0000
1000
0100
1000
0000
,  // measure 19
0010
0000
0001
1000
0010
0000
0100
0001
,  // measure 20
0000
0010
0100
0000
0001
0000
1000
0000
,  // measure 21
0010
0000
0000
0001
1000
0000
0010
0100
,  // measure 22
0010
0100
0010
0001
0000
0000
0010
0100
,  // measure 23
1000
0100
0010
0100
0000
0000
1000
0100
,  // measure 24
0000
0001
0100
0010
0000
0100
0010
0000
,  // measure 25
0001
1000
0010
0000
0000
0001
0000
0010
,  // measure 26
0000
1000
0010
0100
0000
0000
0000
0000
,  // measure 27
0000
1100
1100
1100
0000
0000
0000
0000
,  // measure 28
0010
0001
1000
0010
0100
0100
0100
0000
,  // measure 29
0001
0000
0010
0100
0001
1000
0010
0000
,  // measure 30
0100
0000
0000
0000
0000
0000
0000
0000
0000
0000
0000
0000
0000
0000
0000
0000
0000
0000
0000
0000
0000
0000
0000
0000
0001
0000
0000
0000
0000
0000
0000
0000
0000
0000
0000
0000
0000
0000
0000
0000
0000
0000
0000
0000
0000
0000
0000
0000
0100
0000
0000
0000
0000
0000
0000
0000
0000
0000
0000
0000
0000
0000
0000
0000
0000
0000
0000
0000
0000
0000
0000
0000
0010
0000
0000
0000
0000
0000
0000
0000
0000
0000
0000
0000
0000
0000
0000
0000
0000
0000
0000
0000
0000
0000
0000
0000
0200
0000
0000
0000
0000
0000
0000
0000
0000
0000
0000
0000
0000
0000
0000
0000
0000
0000
0000
0300
0000
0000
0000
0000
0010
0000
0000
0000
0000
0000
0000
0000
0000
0000
0000
0000
0000
0000
0000
0000
0000
0000
0000
0000
0000
0000
0000
0000
0001
0000
0000
0000
0000
0000
0000
0000
0000
0000
0000
0000
0000
0000
0000
0000
0000
0000
0000
0000
0000
0000
0000
0000
0000
0000
0000
0000
0000
0000
0000
0000
0000
0000
0000
0000
0000
0000
0000
0000
0000
0000
0000
0000
0000
0000
0000
0000
,  // measure 31
1000
0100
0010
1000
0100
0001
0001
0000
,  // measure 32
1001
0110
0001
0000
0010
0001
0100
0010
,  // measure 33
1000
1000
0010
0100
0001
0001
0001
0000
,  // measure 34
1000
0010
0100
0100
0001
1000
0010
0010
,  // measure 35
0001
0000
0000
0000
0000
0000
0010
0000
0000
0000
0000
0000
1000
0000
0000
0000
0000
0000
0100
0000
0000
0000
0000
0000
0000
0000
0000
0000
0000
0000
0020
0000
0000
0000
0000
0000
0000
0000
0000
0000
0000
0000
2000
0030
0000
0000
0000
0000
,  // measure 36
0002
0000
0000
0000
0000
0000
0000
0000
0000
0000
0000
0000
0000
0000
0000
0000
0000
0000
0000
0000
0000
0000
0000
0000
0000
0000
0000
0000
0000
0000
0000
0000
0000
0000
0000
0000
0000
0000
0000
0000
0000
0000
0000
0000
0000
0000
0000
0000
0000
0000
0000
0000
0000
0000
0000
0000
0000
0000
0000
0000
0000
0000
0000
0000
0000
0000
0000
0000
0000
0003
0000
0000
0000
0000
0000
0000
0000
3000
0000
0000
0000
0000
0000
0000
0000
0000
0000
0000
0000
0000
0000
0000
0000
0000
0000
0000
0000
0000
0000
0000
0000
0000
0000
0000
0000
0000
0000
0000
0000
0000
0000
0000
0000
0000
0000
0000
0000
0000
0000
0000
0010
0000
0000
0000
0000
0000
0000
0000
0000
0000
0000
0000
0000
0000
0000
0000
0000
0000
0000
0000
0000
0000
0000
0000
0001
0000
0000
0000
0000
0000
0000
0000
0000
0000
0000
0000
0000
0000
0000
0000
0000
0000
0000
0000
0000
0000
0000
0000
0010
0000
0000
0000
0000
0000
0000
0000
0000
0000
0000
0000
0000
0000
0000
0000
0000
0000
0000
0000
0000
0000
0000
0000
,  // measure 37
0000
1000
0001
0100
0000
0010
1000
0001
,  // measure 38
0100
0000
0010
1000
0001
0000
0010
0100
,  // measure 39
0001
0000
0000
0010
0000
0010
0001
0000
,  // measure 40
0010
0001
0000
0000
0000
0000
0000
0000
;

//---------------dance-double - ----------------
#NOTES:
     dance-double:
     :
     Easy:
     1:
     0.069,0.082,0.000,0.000,0.000,47.000,0.000,0.000,0.000,0.000,0.000,0.069,0.082,0.000,0.000,0.000,47.000,0.000,0.000,0.000,0.000,0.000:
00000000
00000000
00000000
00000000
,
00000000
00000000
00000000
00000000
,
10000000
00000000
00000000
00000000
,
01000000
00000000
00000000
00000000
,
00100000
00000000
00000000
00000000
,
00001000
00000000
00000000
00000000
,
00010000
00000000
00000000
00000000
,
00000010
00000000
00000000
00000000
,
00001000
00000000
00000000
00000000
,
00000100
00000000
00000000
00000000
,
00010000
00000000
00000000
00000000
,
00001000
00000000
00000000
00000000
,
00100000
00000000
00000000
00000000
,
00010000
00000000
00000000
00000000
,
10000000
00000000
00000000
00000000
,
01000000
00000000
00000000
00000000
,
00100000
00000000
00000000
00000000
,
00001000
00000000
00000000
00000000
,
00010000
00000000
00000000
00000000
,
00001000
00000000
00001000
00000000
,
00100000
00000000
00100000
00000000
,
00010000
00000000
00010000
00000000
,
10000000
00000000
10000000
00000000
,
01000000
00000000
00000000
00000000
,
00100000
00000000
00000000
00000000
,
00001000
00000000
00000000
00000000
,
00010000
00000000
00000000
00000000
,
00000000
00001000
00000000
00000000
,
00100000
00000000
00000000
00000000
,
01000000
00000000
00000000
00000000
,
10000000
00000000
00010000
00000000
,
01000000
00000000
00001000
00000000
,
00010000
00000000
00000000
00000000
,
00000010
00000000
00000000
00000000
,
00001000
00000000
00000000
00000000
,
00000100
00000000
00000100
00000000
,
00000010
00000000
00000000
00000000
,
00000100
00000000
00010000
00000000
,
00001000
00000000
00000000
00000000
,
00100000
00000000
00000000
00000000
,
01000000
00000000
00000000
00000000
,
00000000
00000000
00000000
00000000
;

//---------------dance-double - ----------------
#NOTES:
     dance-double:
     :
     Medium:
     3:
     0.197,0.184,0.000,0.000,0.000,135.000,0.000,0.000,0.000,0.000,0.000,0.197,0.184,0.000,0.000,0.000,135.000,0.000,0.000,0.000,0.000,0.000:
00000000
00000000
00000000
00000000
,
00000000
00000000
00000000
00000000
,
10000000
00010000
01000000
00001000
,
00010000
01000000
00100000
00001000
,
00010000
00000100
00000010
00001000
,
00010000
00100000
10000000
00010000
,
00100000
01000000
00010000
00001000
,
00000100
00000001
00001000
00000100
,
00010000
00001000
00100000
00010000
,
10000000
01000000
00100000
00000000
,
00001000
00000000
00001000
00000000
00001000
00001000
00000000
00000000
,
00010000
00000000
00001000
00001000
00000000
00000000
00000000
00000000
,
00100000
00000000
00010000
00000000
10000000
10000000
00000000
00000000
,
01000000
00000000
00100000
00100000
00000000
00000000
00000000
00000000
,
00001000
00000000
00001000
00000000
00010000
00010000
00000000
00000000
,
00000010
00000000
00001000
00001000
00000000
00000000
00000000
00000000
,
00000001
00000010
00000100
00000000
,
00010000
00000000
00001000
00000000
01000000
00000000
00000000
00100000
,
00000000
00000000
10000000
00010000
,
01000000
00000000
00000000
00100000
01000000
00000000
00001000
00000000
,
00010000
00000000
00000000
00000100
00000010
00000000
00000000
00000000
,
00000001
00000000
00000000
00001000
00000100
00000000
00010000
00000000
,
00001000
00000000
00000000
00100000
01000000
00000000
00000000
00000000
,
10000000
00010000
01000000
00000000
,
00100000
10000000
01000000
00000000
,
00010000
00000000
00001000
00000000
,
00000010
00000001
00000100
00000000
,
00000000
00000010
00001000
00000100
00000000
00000000
00000000
00000000
,
00010000
00010000
00000010
00000100
,
00001000
00010000
01000000
00000000
,
10000000
00010000
01000000
00100000
,
10000000
00010000
01000000
00001000
,
00010000
00010000
00001000
00001000
,
00100000
01000000
10000000
00000000
,
00010000
00010000
01000000
00001000
,
00010000
00000000
00000010
00000000
00000100
00000000
00000001
00000010
,
00000100
00000000
00001000
00000000
00000100
00000100
00010000
00000000
,
00001000
00100000
00010000
01000000
,
00100000
00000000
10000000
00000000
,
01000000
00000000
00100000
00001000
,
00010000
00000000
00000000
00000000
,
00000000
00000000
00000000
00000000
;

//---------------dance-double - ----------------
#NOTES:
     dance-double:
     :
     Hard:
     6:
     0.289,0.265,0.000,0.000,0.000,198.000,0.000,0.000,0.000,0.000,0.000,0.289,0.265,0.000,0.000,0.000,198.000,0.000,0.000,0.000,0.000,0.000:
00000000
00000000
00000000
00000000
,
00000000
00000000
00000000
00000000
,
10000000
00000000
10000000
01000000
00010000
00001000
00000100
00000001
,
00000010
00000000
00000100
00000100
,
00010000
00001000
00100000
01000000
00000000
10000000
00010000
01000000
,
00100000
10000000
01000000
00010000
00000000
00000000
00001000
00000000
,
00000100
00000001
00001000
00000100
00000000
00000000
00010000
00000000
,
00001000
00100000
00010000
10000000
00000000
00000000
01000000
00000000
,
00100000
00010000
01000000
00001000
00000000
00000000
00010000
00000000
,
00000010
00000100
00000001
00000010
00000000
00000100
00001000
00000100
,
00010000
00000000
00001000
00000000
00100000
00010000
00100000
00000000
,
01000000
10000000
00100000
01000000
00000000
00010000
00010000
00000000
,
00100000
00001000
00010000
00000000
00000100
00010000
00001000
00000000
,
00100000
00000000
01000000
00000000
00001000
00010000
00001000
00000000
,
00000100
00000000
00000001
00000000
00001000
00000100
00000100
00000000
,
00010000
00000000
00001000
00000000
00100000
00010000
00010000
00000000
,
10000000
01000000
00100000
00010000
,
01000000
00000000
00001000
00000000
,
00010000
00000000
00000010
00000100
,
00000001
00001000
00000100
00000000
00010000
00001000
00100000
00010000
,
00000000
10000000
00100000
01000000
00010000
00100000
00100000
00000000
,
00001000
00000000
00010000
00000100
00000000
00000010
00000010
00000000
,
00000001
00000100
00000010
00001000
00000000
00000100
00000000
00000100
,
00010000
00001000
00100000
00010000
00000000
10000000
00100000
01000000
,
00010000
00000000
10000000
01000000
00100000
00001000
00010000
00000000
,
00000010
00000010
00000100
00000100
,
00000001
00001000
00000100
00010000
00000000
00000000
00000000
00000000
,
00000000
00000010
00001000
00000100
00000000
00000000
00000000
00000000
,
00010000
00001000
00100000
00010000
00000000
01000000
01000000
00000000
,
00001000
00010000
00000010
00001000
00000000
00000001
00000001
00000000
,
00000010
00000000
00000100
00000000
00001000
00000010
00001000
00000000
,
00000001
00000010
00000100
00000000
00010000
00001000
00010000
00000000
,
00100000
00000000
10000000
00010000
00000000
10000000
01000000
00000000
,
00100000
00010000
01000000
00100000
00000000
10000000
00000000
01000000
,
00100000
00001000
00010000
00000100
00000000
00000010
00000000
00000010
,
00000001
00001000
00000010
00000100
00000000
00000010
00000000
00000010
,
00001000
00000100
00000000
00000000
00000000
00010000
00001000
00010000
,
00000000
00010000
00001000
00100000
00000000
01000000
01000000
00000000
,
10000000
00000000
00000000
00010000
01000000
00000000
00001000
00010000
,
01000000
00000000
00100000
00001000
,
00010000
00000000
00000000
00000000
,
00000000
00000000
00000000
00000000
;
